osu file format v14

[General]
AudioFilename: audio.mp3
AudioLeadIn: 0
PreviewTime: 112665
Countdown: 0
SampleSet: Soft
StackLeniency: 0.5
Mode: 0
LetterboxInBreaks: 0
WidescreenStoryboard: 0

[Editor]
DistanceSpacing: 2.9
BeatDivisor: 4
GridSize: 32
TimelineZoom: 2.2

[Metadata]
Title:ONE-MAN CIRCUS
TitleUnicode:ワンマン・サーカス
Artist:Iwami Takashi
ArtistUnicode:岩見陸
Creator:FinnaDie
Version:ONE-MAN CIRCUS
Source:
Tags:ONE-MAN CIRCUS japanese rock jrock j-rock silent silent_rock narrative nanahoshi kangengakudan ナナホシ管弦楽団 FujuniseikouyuuP 不純異性交遊P fujun isei kouyuu p monaka モナカ
BeatmapID:2750570
BeatmapSetID:1327719

[Difficulty]
HPDrainRate:5.2
CircleSize:4
OverallDifficulty:9.2
ApproachRate:9.5
SliderMultiplier:1.8
SliderTickRate:1

[Events]
//Background and Video events
0,0,"ONE-MAN CIRCUS.png",0,0
//Break Periods
//Storyboard Layer 0 (Background)
//Storyboard Layer 1 (Fail)
//Storyboard Layer 2 (Pass)
//Storyboard Layer 3 (Foreground)
//Storyboard Layer 4 (Overlay)
//Storyboard Sound Samples

[TimingPoints]
1494,312.5,4,2,1,45,1,0
2431,-200,4,2,1,45,0,0
2665,-200,4,2,1,5,0,0
2744,-142.857142857143,4,2,1,45,0,0
7431,-142.857142857143,4,2,1,65,0,0
7744,-100,4,2,1,70,0,0
12665,-100,4,2,1,5,0,0
12744,-111.111111111111,4,2,1,65,0,0
15244,-100,4,2,1,70,0,0
17744,-111.111111111111,4,2,1,65,0,0
20244,-100,4,2,1,70,0,0
22744,-111.111111111111,4,2,1,65,0,0
25244,-100,4,2,1,70,0,0
27744,-111.111111111111,4,2,1,65,0,0
30244,-100,4,2,1,70,0,0
32744,-125,4,2,1,60,0,0
35478,-125,4,2,1,5,0,0
35556,-125,4,2,1,60,0,0
39931,-111.111111111111,4,2,1,65,0,0
40165,-111.111111111111,4,2,1,5,0,0
40244,-100,4,2,1,70,0,0
40478,-100,4,2,1,5,0,0
40556,-100,4,2,1,70,0,0
41337,-90.9090909090909,4,2,1,75,0,0
41572,-90.9090909090909,4,2,1,5,0,0
41650,-90.9090909090909,4,2,1,80,0,0
42431,-66.6666666666667,4,2,1,80,0,0
42665,-66.6666666666667,4,2,1,5,0,0
42744,-86.9565217391304,4,2,1,80,0,1
47744,-86.9565217391304,4,2,1,80,0,1
48447,-86.9565217391304,4,2,1,5,0,1
48525,-86.9565217391304,4,2,1,80,0,1
49072,-86.9565217391304,4,2,1,5,0,1
49150,-86.9565217391304,4,2,1,80,0,1
51572,-86.9565217391304,4,2,1,5,0,1
51650,-86.9565217391304,4,2,1,80,0,1
51806,-86.9565217391304,4,2,1,80,0,1
52744,-100,4,2,1,70,0,0
62665,-100,4,2,1,5,0,0
62744,-111.111111111111,4,2,1,65,0,0
65244,-100,4,2,1,70,0,0
67744,-111.111111111111,4,2,1,65,0,0
70244,-100,4,2,1,70,0,0
72744,-125,4,2,1,60,0,0
79931,-111.111111111111,4,2,1,60,0,0
80165,-111.111111111111,4,2,1,5,0,0
80244,-100,4,2,1,70,0,0
80478,-100,4,2,1,5,0,0
80556,-100,4,2,1,70,0,0
81337,-90.9090909090909,4,2,1,75,0,0
81572,-90.9090909090909,4,2,1,5,0,0
81650,-90.9090909090909,4,2,1,80,0,0
82744,-86.9565217391304,4,2,1,80,0,1
88447,-86.9565217391304,4,2,1,5,0,1
88525,-86.9565217391304,4,2,1,80,0,1
89072,-86.9565217391304,4,2,1,5,0,1
89150,-86.9565217391304,4,2,1,80,0,1
91572,-86.9565217391304,4,2,1,5,0,1
91650,-86.9565217391304,4,2,1,80,0,1
92431,-86.9565217391304,4,2,1,80,0,0
92744,-83.3333333333333,4,2,1,80,0,1
102744,-83.3333333333333,4,2,1,80,0,0
110869,-76.9230769230769,4,2,1,80,0,0
111494,-71.4285714285714,4,2,1,80,0,0
112197,-71.4285714285714,4,2,1,5,0,0
112275,-71.4285714285714,4,2,1,80,0,0
113525,-83.3333333333333,4,2,1,80,0,0
113837,-80,4,2,1,80,0,1
114072,-80,4,2,1,5,0,1
114150,-80,4,2,1,80,0,1
115244,-86.9565217391304,4,2,1,80,0,1
118447,-86.9565217391304,4,2,1,5,0,1
118525,-86.9565217391304,4,2,1,80,0,1
119072,-86.9565217391304,4,2,1,5,0,1
119150,-86.9565217391304,4,2,1,80,0,1
122431,-66.6666666666667,4,2,1,80,0,1
122665,-66.6666666666667,4,2,1,5,0,1
122744,-86.9565217391304,4,2,1,80,0,1
126337,-76.9230769230769,4,2,1,80,0,1
127744,-95.2380952380952,4,2,1,80,0,1
130244,-86.9565217391304,4,2,1,80,0,1
131572,-86.9565217391304,4,2,1,5,0,1
131650,-86.9565217391304,4,2,1,80,0,1
132431,-86.9565217391304,4,2,1,80,0,0
132744,-83.3333333333333,4,2,1,80,0,1
142744,-100,4,2,1,80,0,0
142822,-100,4,2,1,25,0,0
145244,-100,4,2,1,5,0,0
147275,-100,4,2,1,65,0,0
147431,-142.857142857143,4,2,1,65,0,0
147665,-142.857142857143,4,2,1,5,0,0
147744,-100,4,2,1,70,0,0

[Colours]
Combo1 : 206,206,0
Combo2 : 0,166,83

[HitObjects]
252,118,2431,6,0,L|243:185,1,67.5,2|0,0:0|0:0,0:0:0:0:
229,220,2744,6,0,L|213:94,1,125.999996154785,2|2,0:0|0:0,0:0:0:0:
113,24,3212,1,2,0:0:0:0:
113,24,3369,2,0,L|97:149,1,125.999996154785,2|2,0:0|0:0,0:0:0:0:
136,232,3837,1,2,0:0:0:0:
71,301,3994,5,2,0:0:0:0:
71,301,4150,2,0,P|94:320|124:328,1,62.9999980773926,2|0,0:0|0:0,0:0:0:0:
187,199,4462,2,0,P|159:209|137:231,1,62.9999980773926,2|0,0:0|0:0,0:0:0:0:
213,289,4775,2,0,L|275:296,1,62.9999980773926,2|0,0:0|0:0,0:0:0:0:
410,369,5087,1,2,0:0:0:0:
410,369,5244,6,0,L|285:385,1,125.999996154785,2|2,0:0|0:0,0:0:0:0:
213,289,5712,1,2,0:0:0:0:
213,289,5869,2,0,L|275:296,1,62.9999980773926,2|0,0:0|0:0,0:0:0:0:
372,223,6181,2,0,L|365:285,1,62.9999980773926,2|0,0:0|0:0,0:0:0:0:
276,142,6494,5,2,0:0:0:0:
276,142,6650,2,0,L|283:204,1,62.9999980773926,2|0,0:0|0:0,0:0:0:0:
454,295,6962,2,0,L|470:170,1,125.999996154785,2|0,0:0|0:0,0:0:0:0:
265,52,7431,5,10,0:3:0:0:
238,49,7509,1,8,0:0:0:0:
211,46,7587,1,8,0:0:0:0:
184,43,7665,1,8,0:0:0:0:
157,40,7744,6,0,B|119:85|119:85|135:204,1,180,6|8,1:2|0:0,0:0:0:0:
312,269,8212,1,10,0:0:0:0:
222,123,8369,1,2,1:2:0:0:
146,294,8525,1,2,1:2:0:0:
311,169,8681,1,10,0:0:0:0:
135,77,8837,1,2,1:2:0:0:
235,304,8994,5,2,0:0:0:0:
235,304,9150,2,0,L|324:314,1,90,2|8,1:2|0:0,0:0:0:0:
489,147,9462,2,0,L|399:157,1,90,10|0,0:0|1:2,0:0:0:0:
251,23,9775,1,2,1:2:0:0:
336,221,9931,1,10,0:0:0:0:
412,41,10087,1,2,0:0:0:0:
225,132,10244,6,0,B|131:103|141:182|53:154,1,180,2|8,1:2|0:0,0:0:0:0:
161,13,10712,1,10,0:0:0:0:
193,218,10869,1,2,1:2:0:0:
80,66,11025,1,2,1:2:0:0:
22,264,11181,1,10,0:0:0:0:
167,110,11337,1,2,1:2:0:0:
226,301,11494,5,2,0:0:0:0:
226,301,11650,2,0,P|183:309|142:292,1,90,2|8,1:2|0:0,0:0:0:0:
314,168,11962,2,0,L|304:258,1,90,10|0,0:0|1:2,0:0:0:0:
495,358,12275,1,2,1:2:0:0:
495,358,12431,2,0,B|523:324|523:324|511:234,1,135,10|0,0:0|0:0,0:0:0:0:
490,208,12744,6,0,L|499:128,1,80.9999975280763,6|2,1:2|0:0,0:0:0:0:
359,42,13056,1,10,0:0:0:0:
409,117,13212,1,10,0:0:0:0:
278,200,13369,2,0,L|358:191,1,80.9999975280763,2|0,1:2|1:2,0:0:0:0:
238,95,13681,2,0,L|158:86,1,80.9999975280763,10|2,0:0|1:2,0:0:0:0:
60,226,13994,5,2,0:0:0:0:
197,290,14150,2,0,L|188:210,1,80.9999975280763,2|8,1:2|0:0,0:0:0:0:
167,373,14462,2,0,P|206:379|243:364,1,80.9999975280763,10|0,0:0|1:2,0:0:0:0:
259,351,14697,1,8,0:0:0:0:
271,335,14775,1,10,0:0:0:0:
312,168,14931,1,10,0:0:0:0:
197,290,15087,1,10,0:0:0:0:
394,199,15244,6,0,P|402:156|385:115,1,90,6|0,1:2|0:0,0:0:0:0:
197,290,15556,1,10,0:0:0:0:
243,53,15712,1,0,1:2:0:0:
357,333,15869,5,10,0:0:0:0:
297,125,16025,1,0,1:2:0:0:
261,372,16181,1,10,0:0:0:0:
385,115,16337,1,0,1:2:0:0:
137,213,16494,5,10,0:0:0:0:
357,333,16650,1,0,1:2:0:0:
284,108,16806,1,10,0:0:0:0:
181,303,16962,1,0,1:2:0:0:
93,123,17119,5,10,0:0:0:0:
187,323,17275,1,0,1:2:0:0:
276,128,17431,1,10,0:0:0:0:
89,236,17587,1,0,1:2:0:0:
273,326,17744,6,0,P|312:332|349:317,1,80.9999975280763,6|2,1:2|0:0,0:0:0:0:
376,191,18056,1,10,0:0:0:0:
300,239,18212,1,10,0:0:0:0:
455,326,18369,2,0,L|446:246,1,80.9999975280763,2|2,1:2|1:2,0:0:0:0:
385,110,18681,2,0,L|376:190,1,80.9999975280763,10|2,0:0|1:2,0:0:0:0:
431,36,18994,6,0,P|394:20|354:26,1,80.9999975280763,2|2,0:0|1:2,0:0:0:0:
198,162,19306,1,10,0:0:0:0:
285,178,19462,1,10,0:0:0:0:
167,78,19619,1,2,1:2:0:0:
142,230,19775,1,2,1:2:0:0:
275,97,19931,2,0,L|284:177,1,80.9999975280763,10|0,0:0|0:0,0:0:0:0:
475,313,20244,5,14,0:0:0:0:
366,115,20400,1,0,1:2:0:0:
269,345,20556,1,10,0:0:0:0:
499,210,20712,1,0,1:2:0:0:
275,97,20869,5,10,0:0:0:0:
367,302,21025,1,0,1:2:0:0:
403,41,21181,1,10,0:0:0:0:
280,239,21337,1,0,1:2:0:0:
228,19,21494,5,10,0:0:0:0:
450,119,21650,1,0,1:2:0:0:
197,144,21806,1,10,0:0:0:0:
403,41,21962,1,0,1:2:0:0:
280,239,22119,5,10,0:0:0:0:
228,19,22275,1,0,1:2:0:0:
157,263,22431,1,10,0:0:0:0:
308,74,22587,1,0,1:2:0:0:
467,295,22744,6,0,L|387:304,1,80.9999975280763,6|2,1:2|0:0,0:0:0:0:
236,227,23056,1,10,0:0:0:0:
323,239,23212,1,10,0:0:0:0:
157,263,23369,2,0,P|147:224|160:186,1,80.9999975280763,2|2,1:2|1:2,0:0:0:0:
228,314,23681,2,0,P|198:341|159:349,1,80.9999975280763,10|2,0:0|1:2,0:0:0:0:
76,253,23994,6,0,L|156:262,1,80.9999975280763,2|2,0:0|1:2,0:0:0:0:
266,89,24306,1,10,0:0:0:0:
179,101,24462,1,10,0:0:0:0:
320,159,24619,1,2,1:2:0:0:
212,19,24775,1,2,1:2:0:0:
65,173,24931,2,0,L|145:182,1,80.9999975280763,10|0,0:0|0:0,0:0:0:0:
355,77,25244,6,0,L|266:88,1,90,6|0,1:2|0:0,0:0:0:0:
133,271,25556,1,10,0:0:0:0:
212,19,25712,1,0,1:2:0:0:
286,266,25869,5,10,0:0:0:0:
131,59,26025,1,0,1:2:0:0:
211,316,26181,1,10,0:0:0:0:
265,88,26337,1,0,1:2:0:0:
55,225,26494,5,10,0:0:0:0:
286,266,26650,1,0,1:2:0:0:
69,334,26806,1,10,0:0:0:0:
250,186,26962,1,0,1:2:0:0:
4,127,27119,5,10,0:0:0:0:
199,258,27275,1,0,1:2:0:0:
171,34,27431,1,10,0:0:0:0:
55,225,27587,1,0,1:2:0:0:
259,83,27744,6,0,L|339:92,1,80.9999975280763,6|2,1:2|0:0,0:0:0:0:
478,191,28056,1,10,0:0:0:0:
391,203,28212,1,10,0:0:0:0:
413,44,28369,2,0,P|428:80|423:120,1,80.9999975280763,2|2,1:2|1:2,0:0:0:0:
318,251,28681,2,0,P|302:214|307:174,1,80.9999975280763,10|2,0:0|1:2,0:0:0:0:
409,331,28994,6,0,L|329:340,1,80.9999975280763,2|2,0:0|1:2,0:0:0:0:
141,224,29306,1,10,0:0:0:0:
228,240,29462,1,10,0:0:0:0:
85,292,29619,1,2,1:2:0:0:
110,140,29775,1,2,1:2:0:0:
237,320,29931,2,0,L|228:240,1,80.9999975280763,10|0,0:0|0:0,0:0:0:0:
79,56,30244,5,14,0:0:0:0:
288,161,30400,1,0,1:2:0:0:
54,208,30556,1,10,0:0:0:0:
231,31,30712,1,0,1:2:0:0:
326,253,30869,5,10,0:0:0:0:
161,100,31025,1,0,1:2:0:0:
383,56,31181,1,10,0:0:0:0:
227,239,31337,1,0,1:2:0:0:
314,1,31494,5,10,0:0:0:0:
346,246,31650,1,0,1:2:0:0:
474,45,31806,1,10,0:0:0:0:
342,266,31962,1,0,1:2:0:0:
260,69,32119,5,10,0:0:0:0:
484,134,32275,1,0,1:2:0:0:
273,179,32431,1,10,0:0:0:0:
383,56,32587,1,0,1:2:0:0:
433,222,32744,6,0,L|450:364,1,144,6|8,1:2|0:0,0:0:0:0:
342,266,33212,2,0,L|333:337,1,72,10|0,0:0|1:2,0:0:0:0:
255,376,33525,1,2,1:2:0:0:
110,311,33681,2,0,L|102:240,1,72,10|2,0:0|1:2,0:0:0:0:
35,182,33994,5,2,0:0:0:0:
78,107,34150,2,0,P|45:93|9:98,1,72,2|8,1:2|0:0,0:0:0:0:
154,59,34462,2,0,P|186:72|222:67,1,72,10|0,0:0|1:2,0:0:0:0:
296,22,34775,1,2,1:2:0:0:
401,173,34931,1,10,0:0:0:0:
388,158,35244,6,0,B|365:131|365:131|374:59,1,108,2|0,1:2|0:0,0:0:0:0:
392,36,35556,1,10,0:0:0:0:
477,169,35712,2,0,L|469:240,1,72,10|0,0:0|1:2,0:0:0:0:
396,288,36025,1,2,1:2:0:0:
265,215,36181,2,0,P|300:209|333:222,1,72,10|2,0:0|1:2,0:0:0:0:
441,359,36494,6,0,P|407:372|372:366,1,72,2|0,0:0|1:2,0:0:0:0:
206,278,36806,1,10,0:0:0:0:
283,369,36962,2,0,L|291:298,1,72,10|0,0:0|1:2,0:0:0:0:
333,222,37275,1,2,1:2:0:0:
187,120,37431,2,0,L|195:191,1,72,10|0,0:0|0:0,0:0:0:0:
42,321,37744,6,0,L|60:179,1,144,2|8,1:2|0:0,0:0:0:0:
5,26,38212,2,0,L|76:34,1,72,10|0,0:0|1:2,0:0:0:0:
115,111,38525,1,2,1:2:0:0:
249,21,38681,2,0,L|257:92,1,72,10|2,0:0|1:2,0:0:0:0:
268,178,38994,5,2,0:0:0:0:
337,126,39150,2,0,P|372:120|405:133,1,72,2|8,1:2|0:0,0:0:0:0:
293,261,39462,2,0,P|257:266|224:253,1,72,10|0,0:0|1:2,0:0:0:0:
178,181,39775,1,2,1:2:0:0:
50,342,39931,2,0,B|24:311|24:311|34:231,1,121.499996292114,10|0,0:0|0:0,0:0:0:0:
55,204,40244,6,0,B|83:170|83:170|71:80,1,135,6|0,1:2|0:0,0:0:0:0:
49,53,40556,1,10,0:0:0:0:
110,278,40712,1,2,1:2:0:0:
324,97,40869,1,10,0:0:0:0:
256,344,41025,1,2,1:2:0:0:
80,144,41181,1,10,0:0:0:0:
391,29,41337,6,0,B|421:66|421:66|408:165,1,148.50000453186,6|0,1:2|0:0,0:0:0:0:
386,192,41650,1,2,1:2:0:0:
208,265,41806,2,0,L|196:167,1,99.0000030212403,10|0,0:0|1:2,0:0:0:0:
55,37,42119,1,10,0:3:0:0:
55,37,42197,1,10,0:3:0:0:
55,37,42275,2,0,L|104:30,1,49.5000015106202,10|0,0:3|0:0,0:0:0:0:
182,67,42431,6,0,B|129:71|105:31|105:31|108:92|86:140,1,202.500007724762,10|0,0:0|0:0,0:0:0:0:
27,221,42744,6,0,P|72:242|122:232,1,103.500001974106,6|2,1:2|1:2,0:0:0:0:
295,65,43056,1,10,0:0:0:0:
85,140,43212,1,2,1:2:0:0:
272,283,43369,1,2,0:0:0:0:
171,51,43525,2,0,L|183:153,1,103.500001974106,2|8,1:2|0:0,0:0:0:0:
438,246,43837,6,0,P|371:171|273:187,1,207.000003948212,2|2,1:2|1:2,0:0:0:0:
137,356,44306,1,10,0:0:0:0:
20,218,44462,2,0,L|122:230,1,103.500001974106,2|0,0:0|1:2,0:0:0:0:
341,330,44775,2,0,L|239:342,1,103.500001974106,2|8,1:2|0:0,0:0:0:0:
296,137,45087,1,2,0:0:0:0:
437,368,45244,5,6,1:2:0:0:
474,164,45400,1,2,1:2:0:0:
341,330,45556,1,10,0:0:0:0:
288,116,45712,1,2,1:2:0:0:
421,265,45869,1,2,0:0:0:0:
448,44,46025,2,0,P|401:22|351:33,1,103.500001974106,2|8,1:2|0:0,0:0:0:0:
128,186,46337,6,0,B|235:152|224:243|324:211,1,207.000003948212,2|0,1:2|1:2,0:0:0:0:
133,1,46806,1,10,0:0:0:0:
164,280,46962,1,2,1:2:0:0:
339,122,47119,5,10,0:3:0:0:
339,122,47197,1,8,0:3:0:0:
339,122,47275,2,0,L|287:115,1,51.7500009870529,10|8,0:0|0:0,0:0:0:0:
92,92,47431,1,10,0:0:0:0:
266,267,47587,1,10,0:0:0:0:
266,267,47665,1,8,0:0:0:0:
266,267,47744,6,0,L|369:254,1,103.500001974106,6|0,1:2|1:2,0:0:0:0:
469,73,48056,1,10,0:0:0:0:
219,42,48212,2,0,B|187:80|187:80|201:184,1,155.250002961159,2|0,1:2|0:0,0:0:0:0:
223,211,48525,1,2,1:2:0:0:
321,29,48681,1,10,0:0:0:0:
88,115,48837,6,0,L|106:269,1,155.250002961159,2|0,1:2|0:0,0:0:0:0:
164,350,49150,2,0,P|119:371|69:361,1,103.500001974106,2|8,1:2|0:0,0:0:0:0:
223,211,49462,2,0,P|272:200|319:221,1,103.500001974106,2|0,0:0|1:2,0:0:0:0:
445,373,49775,1,2,1:2:0:0:
377,140,49931,1,10,0:0:0:0:
261,302,50087,1,2,0:0:0:0:
233,74,50244,5,2,1:2:0:0:
264,324,50400,1,2,1:2:0:0:
389,37,50556,1,10,0:0:0:0:
356,314,50712,1,2,1:2:0:0:
140,26,50869,5,10,0:0:0:0:
396,150,51025,1,2,1:2:0:0:
103,253,51181,1,10,0:0:0:0:
267,50,51337,6,0,B|299:88|299:88|285:192,1,155.250002961159,2|0,1:2|0:0,0:0:0:0:
218,299,51650,2,0,L|269:292,1,51.7500009870529,10|8,0:0|0:0,0:0:0:0:
462,270,51806,1,10,0:0:0:0:
191,122,51962,1,10,0:0:0:0:
375,347,52119,1,10,0:0:0:0:
388,364,52431,5,2,0:0:0:0:
97,19,52744,6,0,B|59:64|59:64|75:183,1,180,6|8,1:2|0:0,0:0:0:0:
225,312,53212,1,10,0:0:0:0:
172,110,53369,1,2,1:2:0:0:
81,297,53525,1,2,1:2:0:0:
174,90,53681,1,10,0:0:0:0:
225,312,53837,1,2,1:2:0:0:
30,189,53994,5,2,0:0:0:0:
30,189,54150,2,0,L|119:178,1,90,2|8,1:2|0:0,0:0:0:0:
314,323,54462,2,0,L|225:312,1,90,10|0,0:0|1:2,0:0:0:0:
346,143,54775,1,2,1:2:0:0:
390,370,54931,1,10,0:0:0:0:
235,222,55087,1,2,0:0:0:0:
416,58,55244,6,0,B|454:103|454:103|438:222,1,180,2|8,1:2|0:0,0:0:0:0:
246,124,55712,1,10,0:0:0:0:
367,281,55869,1,2,1:2:0:0:
319,61,56025,1,2,1:2:0:0:
180,250,56181,1,10,0:0:0:0:
228,30,56337,1,2,1:2:0:0:
426,143,56494,5,2,0:0:0:0:
426,143,56650,2,0,L|337:154,1,90,2|8,1:2|0:0,0:0:0:0:
131,245,56962,2,0,L|220:256,1,90,10|0,0:0|1:2,0:0:0:0:
138,18,57275,5,10,0:0:0:0:
50,285,57431,1,2,1:2:0:0:
251,67,57587,1,10,0:0:0:0:
393,326,57744,6,0,B|344:331|308:304|308:304|280:339|231:344,1,180,6|8,1:2|0:0,0:0:0:0:
105,171,58212,1,10,0:0:0:0:
144,370,58369,1,2,1:2:0:0:
232,162,58525,1,2,1:2:0:0:
50,285,58681,1,10,0:0:0:0:
11,86,58837,1,2,1:2:0:0:
198,245,58994,5,2,0:0:0:0:
198,245,59150,2,0,P|241:253|283:236,1,90,2|8,1:2|0:0,0:0:0:0:
397,74,59462,2,0,L|408:163,1,90,10|0,0:0|1:2,0:0:0:0:
464,13,59775,1,2,1:2:0:0:
318,152,59931,1,10,0:0:0:0:
490,198,60087,1,2,0:0:0:0:
310,47,60244,6,0,B|254:59|254:59|190:35|190:35|136:47,1,180,2|8,1:2|0:0,0:0:0:0:
20,217,60712,1,10,0:0:0:0:
184,141,60869,1,2,1:2:0:0:
51,15,61025,1,2,1:2:0:0:
131,243,61181,1,10,0:0:0:0:
237,39,61337,1,2,1:2:0:0:
4,117,61494,5,2,0:0:0:0:
4,117,61650,2,0,L|93:128,1,90,2|8,1:2|0:0,0:0:0:0:
231,320,61962,2,0,L|142:331,1,90,10|0,0:0|1:2,0:0:0:0:
325,158,62275,1,2,1:2:0:0:
325,158,62431,2,0,B|353:192|353:192|341:282,1,135,10|0,0:0|0:0,0:0:0:0:
319,307,62744,5,6,1:2:0:0:
470,366,62900,2,0,L|461:286,1,80.9999975280763,2|10,0:0|0:0,0:0:0:0:
451,116,63212,2,0,L|442:196,1,80.9999975280763,10|2,0:0|1:2,0:0:0:0:
361,105,63525,1,2,1:2:0:0:
495,42,63681,2,0,L|415:33,1,80.9999975280763,10|2,0:0|1:2,0:0:0:0:
280,114,63994,6,0,L|360:105,1,80.9999975280763,2|2,0:0|1:2,0:0:0:0:
173,210,64306,1,10,0:0:0:0:
189,123,64462,1,10,0:0:0:0:
241,266,64619,1,2,1:2:0:0:
89,241,64775,1,2,1:2:0:0:
180,43,64931,2,0,L|189:123,1,80.9999975280763,10|0,0:0|0:0,0:0:0:0:
330,282,65244,6,0,L|340:192,1,90,6|0,1:2|0:0,0:0:0:0:
483,19,65556,1,10,0:0:0:0:
424,251,65712,1,0,1:2:0:0:
271,50,65869,5,10,0:0:0:0:
330,282,66025,1,0,1:2:0:0:
380,59,66181,1,10,0:0:0:0:
241,240,66337,1,0,1:2:0:0:
167,14,66494,5,10,0:0:0:0:
321,183,66650,1,0,1:2:0:0:
89,212,66806,1,10,0:0:0:0:
297,96,66962,1,0,1:2:0:0:
76,68,67119,5,10,0:0:0:0:
157,273,67275,1,0,1:2:0:0:
305,77,67431,2,0,L|215:87,1,90,10|0,0:0|1:2,0:0:0:0:
89,212,67744,5,6,1:2:0:0:
256,343,67900,2,0,L|246:263,1,80.9999975280763,2|8,0:0|0:0,0:0:0:0:
367,142,68212,1,10,0:0:0:0:
415,282,68369,2,0,L|335:272,1,80.9999975280763,2|2,1:2|1:2,0:0:0:0:
171,213,68681,2,0,P|197:182|236:172,1,80.9999975280763,10|2,0:0|1:2,0:0:0:0:
165,301,68994,6,0,P|125:291|98:262,1,80.9999975280763,2|2,0:0|1:2,0:0:0:0:
269,92,69306,1,10,0:0:0:0:
235,172,69462,1,10,0:0:0:0:
215,21,69619,1,2,1:2:0:0:
322,162,69775,1,2,1:2:0:0:
101,113,69931,2,0,L|181:104,1,80.9999975280763,10|0,0:0|0:0,0:0:0:0:
375,232,70244,5,14,0:0:0:0:
303,9,70400,1,0,1:2:0:0:
295,267,70556,1,10,0:0:0:0:
446,74,70712,1,0,1:2:0:0:
366,319,70869,5,10,0:0:0:0:
269,92,71025,1,0,1:2:0:0:
446,284,71181,1,10,0:0:0:0:
215,302,71337,1,0,1:2:0:0:
395,148,71494,5,10,0:0:0:0:
286,354,71650,1,0,1:2:0:0:
188,129,71806,1,10,0:0:0:0:
368,339,71962,2,0,L|397:342,3,30,10|10|10|10,0:3|0:3|0:3|0:0,0:0:0:0:
135,337,72275,1,10,0:3:0:0:
225,213,72431,1,8,0:3:0:0:
215,302,72587,1,2,0:0:0:0:
61,284,72744,6,0,B|30:248|30:248|42:152,1,144,2|0,1:2|1:2,0:0:0:0:
169,66,73212,2,0,L|177:137,1,72,2|0,0:0|1:2,0:0:0:0:
137,215,73525,1,2,0:0:0:0:
193,280,73681,2,0,P|228:284|261:270,1,72,2|2,1:2|0:0,0:0:0:0:
325,124,73994,6,0,L|333:195,1,72,2|0,1:2|0:0,0:0:0:0:
447,86,74306,2,0,L|439:157,1,72,2|0,1:2|0:0,0:0:0:0:
281,48,74619,2,0,P|314:35|350:41,1,72,2|0,1:2|0:0,0:0:0:0:
247,185,74931,2,0,P|211:190|178:177,1,72,2|0,1:2|0:0,0:0:0:0:
52,18,75244,6,0,L|34:160,1,144,2|0,1:2|1:2,0:0:0:0:
108,297,75712,2,0,L|100:226,1,72,2|0,0:0|1:2,0:0:0:0:
56,366,76025,1,2,0:0:0:0:
194,308,76181,2,0,P|230:303|263:316,1,72,2|2,1:2|0:0,0:0:0:0:
407,380,76494,6,0,L|399:309,1,72,2|2,1:2|0:0,0:0:0:0:
439,153,76806,1,2,1:2:0:0:
315,211,76962,2,0,L|386:221,1,72,2|0,0:0|1:2,0:0:0:0:
302,103,77275,2,0,L|231:113,1,72,2|0,0:0|1:2,0:0:0:0:
136,294,77587,1,10,0:0:0:0:
136,294,77665,1,10,0:0:0:0:
136,294,77744,6,0,B|105:258|105:258|117:162,1,144,2|0,1:2|1:2,0:0:0:0:
4,50,78212,2,0,L|75:41,1,72,2|0,0:0|1:2,0:0:0:0:
151,82,78525,1,2,0:0:0:0:
289,21,78681,2,0,P|253:16|220:29,1,72,2|2,1:2|0:0,0:0:0:0:
151,82,78994,5,2,1:2:0:0:
203,153,79150,2,0,L|211:224,1,72,2|0,0:0|1:2,0:0:0:0:
341,313,79462,2,0,L|349:242,1,72,2|0,0:0|1:2,0:0:0:0:
292,175,79775,1,2,0:0:0:0:
461,36,79931,2,0,B|487:67|487:67|477:147,1,121.499996292114,2|0,1:2|0:0,0:0:0:0:
456,174,80244,6,0,B|428:208|428:208|440:298,1,135,6|0,1:2|0:0,0:0:0:0:
462,325,80556,1,10,0:0:0:0:
401,100,80712,1,2,1:2:0:0:
202,289,80869,1,10,0:0:0:0:
249,38,81025,1,2,1:2:0:0:
432,233,81181,1,10,0:0:0:0:
137,358,81337,6,0,B|107:321|107:321|120:222,1,148.50000453186,6|0,1:2|0:0,0:0:0:0:
142,195,81650,1,10,0:0:0:0:
365,122,81806,1,2,1:2:0:0:
202,289,81962,1,10,0:0:0:0:
98,90,82119,5,2,1:2:0:0:
125,93,82197,1,8,0:0:0:0:
155,97,82275,1,8,0:0:0:0:
185,100,82353,1,8,0:0:0:0:
215,104,82431,2,0,L|265:110,1,49.5000015106202,2|0,1:2|0:0,0:0:0:0:
401,215,82587,1,10,0:0:0:0:
479,31,82744,6,0,L|467:133,1,103.500001974106,6|2,1:2|1:2,0:0:0:0:
292,349,83056,1,10,0:0:0:0:
365,122,83212,1,2,1:2:0:0:
440,349,83369,1,2,0:0:0:0:
200,203,83525,2,0,L|302:215,1,103.500001974106,2|8,1:2|0:0,0:0:0:0:
125,1,83837,6,0,B|81:50|81:50|97:189,1,207.000003948212,2|2,1:2|1:2,0:0:0:0:
289,317,84306,1,10,0:0:0:0:
188,101,84462,2,0,L|200:203,1,103.500001974106,2|0,0:0|1:2,0:0:0:0:
391,329,84775,2,0,L|403:227,1,103.500001974106,2|8,1:2|0:0,0:0:0:0:
426,40,85087,1,2,0:0:0:0:
302,215,85244,5,6,1:2:0:0:
248,4,85400,1,2,1:2:0:0:
304,235,85556,1,10,0:0:0:0:
428,20,85712,1,2,1:2:0:0:
195,137,85869,1,2,0:0:0:0:
452,224,86025,2,0,L|440:122,1,103.500001974106,2|8,1:2|0:0,0:0:0:0:
174,36,86337,6,0,P|99:101|114:199,1,207.000003948212,2|0,1:2|1:2,0:0:0:0:
352,325,86806,1,10,0:0:0:0:
195,137,86962,1,2,1:2:0:0:
85,357,87119,5,10,0:3:0:0:
85,357,87197,1,8,0:3:0:0:
85,357,87275,2,0,L|137:350,1,51.7500009870529,10|8,0:0|0:0,0:0:0:0:
332,327,87431,1,10,0:0:0:0:
205,124,87587,1,10,0:0:0:0:
205,124,87665,1,8,0:0:0:0:
205,124,87744,6,0,L|192:227,1,103.500001974106,6|0,1:2|1:2,0:0:0:0:
63,39,88056,1,10,0:0:0:0:
312,103,88212,2,0,L|293:257,1,155.250002961159,2|0,1:2|0:0,0:0:0:0:
271,283,88525,1,2,1:2:0:0:
40,226,88681,1,10,0:0:0:0:
182,10,88837,6,0,B|214:48|214:48|200:152,1,155.250002961159,2|0,1:2|0:0,0:0:0:0:
142,233,89150,2,0,P|187:254|237:244,1,103.500001974106,2|8,1:2|0:0,0:0:0:0:
411,65,89462,2,0,L|424:168,1,103.500001974106,2|0,0:0|1:2,0:0:0:0:
469,349,89775,1,2,1:2:0:0:
320,179,89931,1,10,0:0:0:0:
272,361,90087,1,2,0:0:0:0:
308,77,90244,5,2,1:2:0:0:
369,327,90400,1,2,1:2:0:0:
442,34,90556,1,10,0:0:0:0:
373,307,90712,1,2,1:2:0:0:
174,120,90869,5,10,0:0:0:0:
460,192,91025,1,2,1:2:0:0:
174,308,91181,1,10,0:0:0:0:
298,23,91337,6,0,B|330:61|330:61|316:165,1,155.250002961159,2|0,1:2|0:0,0:0:0:0:
249,272,91650,2,0,L|300:265,1,51.7500009870529,10|8,0:0|0:0,0:0:0:0:
493,243,91806,1,10,0:0:0:0:
222,95,91962,1,10,0:0:0:0:
406,320,92119,1,10,0:0:0:0:
419,337,92431,5,2,1:2:0:0:
94,53,92744,6,0,L|100:106,1,53.9999983520508,10|0,1:2|0:0,0:0:0:0:
219,114,92900,2,0,L|213:168,1,53.9999983520508,10|0,0:0|0:0,0:0:0:0:
156,236,93056,1,10,1:2:0:0:
177,250,93134,1,8,0:0:0:0:
201,257,93212,1,8,0:0:0:0:
227,256,93290,1,8,0:0:0:0:
251,247,93369,6,0,P|276:238|303:240,1,53.9999983520508,10|0,1:2|0:0,0:0:0:0:
411,352,93525,1,10,0:0:0:0:
411,352,93603,1,8,0:0:0:0:
411,352,93681,2,0,P|390:334|378:310,1,53.9999983520508,10|0,1:2|0:0,0:0:0:0:
407,156,93837,1,10,0:0:0:0:
407,156,93915,1,8,0:0:0:0:
407,156,93994,6,0,L|401:209,1,53.9999983520508,14|0,1:2|0:0,0:0:0:0:
297,91,94150,1,10,0:0:0:0:
297,91,94228,1,8,0:0:0:0:
297,91,94306,2,0,L|350:85,1,53.9999983520508,10|0,1:2|0:0,0:0:0:0:
459,19,94462,2,0,L|406:13,1,53.9999983520508,10|8,0:0|0:0,0:0:0:0:
234,19,94619,5,10,1:2:0:0:
212,53,94697,1,8,0:0:0:0:
205,94,94775,1,8,0:0:0:0:
215,134,94853,1,8,0:0:0:0:
240,166,94931,5,10,1:3:0:0:
256,186,95009,1,8,0:0:0:0:
266,210,95087,1,8,0:0:0:0:
268,235,95165,1,8,0:0:0:0:
262,259,95244,6,0,L|209:265,5,53.9999983520508,14|0|8|0|8|0,1:2|0:0|0:0|0:0|1:2|0:0,0:0:0:0:
84,188,95712,2,0,L|137:194,1,53.9999983520508,10|0,0:0|0:0,0:0:0:0:
274,273,95869,6,0,L|221:279,1,53.9999983520508,10|0,1:2|0:0,0:0:0:0:
65,330,96025,1,10,0:0:0:0:
65,330,96103,1,8,0:0:0:0:
65,330,96181,2,0,L|71:277,1,53.9999983520508,10|0,1:2|0:0,0:0:0:0:
142,126,96337,1,10,0:0:0:0:
142,126,96415,1,8,0:0:0:0:
142,126,96494,6,0,L|148:179,1,53.9999983520508,14|0,1:2|0:0,0:0:0:0:
209,265,96650,2,0,L|262:259,1,53.9999983520508,10|8,0:0|0:0,0:0:0:0:
401,204,96806,2,0,L|348:198,1,53.9999983520508,10|0,1:2|0:0,0:0:0:0:
228,65,96962,1,10,0:0:0:0:
228,65,97040,1,8,0:0:0:0:
228,65,97119,6,0,L|281:59,1,53.9999983520508,10|0,1:2|0:0,0:0:0:0:
425,13,97275,2,0,L|431:66,1,53.9999983520508,10|8,0:0|0:0,0:0:0:0:
490,215,97431,5,10,1:3:0:0:
487,237,97509,1,8,0:0:0:0:
484,259,97587,1,8,0:0:0:0:
481,281,97665,1,8,0:0:0:0:
478,304,97744,6,0,L|425:310,1,53.9999983520508,14|0,1:2|0:0,0:0:0:0:
311,236,97900,1,10,0:0:0:0:
311,236,97978,1,8,0:0:0:0:
311,236,98056,2,0,P|337:233|363:242,1,53.9999983520508,10|0,1:2|0:0,0:0:0:0:
356,375,98212,2,0,P|339:354|332:328,1,53.9999983520508,10|0,0:0|0:0,0:0:0:0:
429,177,98369,6,0,P|446:196|453:223,1,53.9999983520508,10|0,1:2|0:0,0:0:0:0:
342,147,98525,1,10,0:0:0:0:
342,147,98603,1,8,0:0:0:0:
342,147,98681,2,0,L|336:94,1,53.9999983520508,10|0,1:2|0:0,0:0:0:0:
455,26,98837,2,0,L|402:32,1,53.9999983520508,10|8,0:0|0:0,0:0:0:0:
245,104,98994,6,0,L|192:98,1,53.9999983520508,14|0,1:2|0:0,0:0:0:0:
74,29,99150,1,10,0:0:0:0:
74,29,99228,1,8,0:0:0:0:
74,29,99306,2,0,L|80:82,1,53.9999983520508,10|0,1:2|0:0,0:0:0:0:
188,117,99462,2,0,L|182:170,1,53.9999983520508,10|8,0:0|0:0,0:0:0:0:
110,233,99619,5,10,1:2:0:0:
144,255,99697,1,8,0:0:0:0:
185,262,99775,1,8,0:0:0:0:
225,252,99853,1,8,0:0:0:0:
257,227,99931,5,10,1:3:0:0:
277,211,100009,1,8,0:0:0:0:
301,201,100087,1,8,0:0:0:0:
326,199,100165,1,8,0:0:0:0:
350,205,100244,6,0,P|375:214|402:212,1,53.9999983520508,14|0,1:2|0:0,0:0:0:0:
321,41,100400,2,0,P|300:58|288:82,1,53.9999983520508,10|0,0:0|0:0,0:0:0:0:
489,253,100556,1,10,1:2:0:0:
498,227,100634,1,8,0:0:0:0:
495,200,100712,2,0,P|490:173|475:151,1,53.9999983520508,10|0,0:0|0:0,0:0:0:0:
260,193,100869,5,10,1:2:0:0:
256,221,100947,1,8,0:0:0:0:
252,250,101025,1,8,0:0:0:0:
248,278,101103,1,8,0:0:0:0:
244,308,101181,2,0,L|238:361,1,53.9999983520508,10|0,1:2|0:0,0:0:0:0:
154,296,101337,2,0,L|148:243,1,53.9999983520508,2|0,1:2|1:2,0:0:0:0:
69,78,101494,5,10,0:0:0:0:
105,83,101572,1,8,0:0:0:0:
143,88,101650,1,8,0:3:0:0:
179,93,101728,1,8,0:3:0:0:
218,98,101806,2,0,L|271:104,1,53.9999983520508,10|0,1:2|0:0,0:0:0:0:
409,173,101962,5,10,0:0:0:0:
373,178,102040,1,8,0:0:0:0:
335,183,102119,1,8,0:3:0:0:
299,188,102197,1,8,0:3:0:0:
260,193,102275,2,0,L|207:199,1,53.9999983520508,10|0,1:2|0:0,0:0:0:0:
69,268,102431,5,10,0:0:0:0:
49,270,102744,5,6,1:2:0:0:
373,178,102900,1,2,0:0:0:0:
81,14,103056,5,10,0:0:0:0:
166,287,103212,1,0,1:2:0:0:
337,41,103369,5,10,0:0:0:0:
256,299,103525,1,0,1:2:0:0:
128,90,103681,5,10,0:0:0:0:
201,370,103837,1,0,1:2:0:0:
384,117,103994,5,10,0:0:0:0:
85,169,104150,1,0,1:2:0:0:
291,382,104306,5,10,0:0:0:0:
316,56,104462,1,0,1:2:0:0:
201,370,104619,5,10,0:0:0:0:
128,90,104775,1,0,1:2:0:0:
345,310,104931,6,0,P|396:321|445:298,1,107.999996704102,10|0,0:0|1:2,0:0:0:0:
324,37,105244,5,6,1:2:0:0:
256,299,105400,1,2,0:0:0:0:
81,14,105556,5,10,0:0:0:0:
166,287,105712,1,0,1:2:0:0:
332,18,105869,5,10,0:0:0:0:
52,137,106025,1,0,1:2:0:0:
339,263,106181,5,10,0:0:0:0:
204,43,106337,1,0,1:2:0:0:
111,358,106494,5,10,0:0:0:0:
280,90,106650,1,0,1:2:0:0:
291,382,106806,5,10,0:0:0:0:
140,106,106962,1,0,1:2:0:0:
445,192,107119,5,10,0:0:0:0:
166,287,107275,1,0,1:2:0:0:
288,71,107431,6,0,L|395:84,1,107.999996704102,10|0,0:0|1:2,0:0:0:0:
256,299,107744,5,6,1:2:0:0:
204,43,107900,1,2,0:0:0:0:
111,358,108056,5,10,0:0:0:0:
202,63,108212,1,0,1:2:0:0:
405,328,108369,5,10,0:0:0:0:
131,203,108525,1,0,1:2:0:0:
351,13,108681,5,10,0:0:0:0:
256,299,108837,1,0,1:2:0:0:
135,2,108994,5,10,0:0:0:0:
254,279,109150,1,0,1:2:0:0:
418,74,109306,5,10,0:0:0:0:
151,201,109462,1,0,1:2:0:0:
390,315,109619,5,10,0:0:0:0:
390,315,109775,1,2,1:2:0:0:
272,56,109931,5,8,0:0:0:0:
166,287,110087,1,2,1:2:0:0:
359,189,110244,6,0,L|305:182,1,53.9999983520508,10|0,1:2|0:0,0:0:0:0:
254,279,110400,2,2,L|308:272,1,53.9999983520508,0|0,0:0|0:0,0:0:0:0:
374,176,110556,2,0,L|320:169,3,53.9999983520508,14|0|2|0,0:0|0:0|0:0|0:0,0:0:0:0:
180,73,110869,6,0,L|172:131,1,58.4999973220826,10|0,1:2|0:0,0:0:0:0:
91,215,111025,2,0,L|83:156,1,58.4999973220826,2|0,0:0|0:0,0:0:0:0:
198,60,111181,2,0,L|190:118,3,58.4999973220826,14|0|2|0,0:0|0:0|0:0|0:0,0:0:0:0:
102,304,111494,5,10,1:2:0:0:
133,301,111572,1,8,0:3:0:0:
164,297,111650,1,0,1:2:0:0:
195,293,111728,1,0,1:2:0:0:
227,289,111806,2,0,L|289:281,1,62.9999980773926,10|0,0:0|0:0,0:0:0:0:
385,148,111962,6,0,B|372:206|372:206|397:272|397:272|385:329,1,188.999994232178,6|0,1:2|0:0,0:0:0:0:
362,355,112275,1,2,1:2:0:0:
472,202,112431,1,2,1:2:0:0:
298,94,112587,1,2,1:2:0:0:
306,101,113525,5,2,1:2:0:0:
306,101,113603,1,2,1:2:0:0:
306,101,113681,2,0,L|299:154,1,53.9999983520508,10|0,0:0|0:0,0:0:0:0:
209,223,113837,6,0,L|188:55,1,168.75,6|0,1:2|0:0,0:0:0:0:
165,29,114150,1,2,1:2:0:0:
401,166,114306,1,10,0:0:0:0:
106,235,114462,1,2,1:2:0:0:
316,10,114619,5,10,0:3:0:0:
313,38,114697,1,8,0:0:0:0:
309,69,114775,1,8,0:0:0:0:
306,101,114853,1,8,0:0:0:0:
302,132,114931,2,0,L|295:187,1,56.25,10|0,0:0|0:0,0:0:0:0:
415,288,115087,1,10,0:0:0:0:
415,288,115165,1,8,0:0:0:0:
415,288,115244,6,0,L|403:186,1,103.500001974106,6|0,1:2|1:2,0:0:0:0:
210,25,115556,1,10,0:0:0:0:
456,96,115712,1,2,1:2:0:0:
233,229,115869,1,2,0:0:0:0:
398,15,116025,2,0,P|443:-6|493:4,1,103.500001974106,2|8,1:2|0:0,0:0:0:0:
269,135,116337,6,0,B|162:101|173:192|73:160,1,207.000003948212,2|0,1:2|1:2,0:0:0:0:
210,25,116806,1,10,0:0:0:0:
131,269,116962,1,2,1:2:0:0:
108,65,117119,1,2,1:2:0:0:
108,65,117197,1,2,1:2:0:0:
108,65,117275,1,2,1:2:0:0:
329,218,117431,2,0,P|284:239|234:229,1,103.500001974106,10|2,0:0|0:0,0:0:0:0:
391,43,117744,6,0,L|403:145,1,103.500001974106,6|0,1:2|1:2,0:0:0:0:
227,35,118056,1,10,0:0:0:0:
488,3,118212,2,0,L|506:157,1,155.250002961159,2|0,1:2|0:0,0:0:0:0:
485,183,118525,1,2,1:2:0:0:
239,137,118681,1,10,0:0:0:0:
393,377,118837,6,0,B|425:339|425:339|411:235,1,155.250002961159,2|0,1:2|0:0,0:0:0:0:
310,206,119150,2,0,L|322:308,1,103.500001974106,2|8,1:2|0:0,0:0:0:0:
70,365,119462,2,0,L|82:263,1,103.500001974106,2|0,0:0|1:2,0:0:0:0:
172,75,119775,1,2,1:2:0:0:
219,320,119931,1,10,0:0:0:0:
101,150,120087,1,2,0:0:0:0:
318,61,120244,5,6,1:2:0:0:
217,300,120400,1,2,1:2:0:0:
71,50,120556,1,10,0:0:0:0:
215,280,120712,1,2,1:2:0:0:
330,45,120869,5,2,0:0:0:0:
89,166,121025,1,2,1:2:0:0:
365,200,121181,1,10,0:0:0:0:
53,40,121337,1,2,1:2:0:0:
35,30,121650,5,2,1:2:0:0:
262,187,121806,1,10,0:0:0:0:
262,187,121884,1,8,0:0:0:0:
262,187,121962,2,0,L|210:180,1,51.7500009870529,2|0,1:2|0:0,0:0:0:0:
82,309,122119,1,8,0:3:0:0:
82,309,122197,1,10,0:3:0:0:
82,309,122275,2,0,L|133:303,1,51.7500009870529,2|0,1:2|0:0,0:0:0:0:
210,267,122431,6,0,B|157:263|133:303|133:303|136:242|114:194,1,202.500007724762,10|0,0:0|0:0,0:0:0:0:
55,113,122744,6,0,P|100:92|150:102,1,103.500001974106,6|2,1:2|1:2,0:0:0:0:
356,305,123056,1,10,0:0:0:0:
113,193,123212,1,2,1:2:0:0:
280,25,123369,2,0,L|268:127,1,103.500001974106,2|0,0:0|1:2,0:0:0:0:
142,290,123681,1,10,0:0:0:0:
412,217,123837,6,0,B|348:203|348:203|275:230|275:230|213:217,1,207.000003948212,2|2,1:2|1:2,0:0:0:0:
382,37,124306,1,10,0:0:0:0:
502,178,124462,2,0,P|512:227|491:274,1,103.500001974106,2|0,0:0|1:2,0:0:0:0:
225,319,124775,2,0,L|213:217,1,103.500001974106,2|8,1:2|0:0,0:0:0:0:
423,119,125087,1,2,0:0:0:0:
198,77,125244,5,6,1:2:0:0:
325,286,125400,1,2,1:2:0:0:
382,37,125556,1,10,0:0:0:0:
327,306,125712,1,2,1:2:0:0:
188,57,125869,1,2,0:0:0:0:
412,217,126025,2,0,L|310:205,1,103.500001974106,2|8,1:2|0:0,0:0:0:0:
55,293,126337,6,0,B|-3:344|-3:344|150:325,1,233.999989288331,2|8,1:2|0:0,0:0:0:0:
172,324,126728,1,8,0:0:0:0:
192,322,126806,1,8,0:0:0:0:
452,221,126962,1,10,0:0:0:0:
432,219,127040,1,8,0:0:0:0:
412,217,127119,2,0,L|353:209,1,58.4999973220826,10|0,0:0|0:0,0:0:0:0:
147,134,127275,2,0,B|77:97|77:97|231:79,1,233.999989288331,2|8,1:2|0:0,0:0:0:0:
253,77,127665,1,8,0:0:0:0:
273,75,127744,6,0,L|261:168,1,94.499997116089,2|2,1:2|1:2,0:0:0:0:
463,314,128056,1,10,0:0:0:0:
463,314,128212,2,0,L|451:220,1,94.499997116089,2|0,1:2|0:0,0:0:0:0:
363,46,128525,1,2,1:2:0:0:
304,252,128681,1,10,0:0:0:0:
486,138,128837,6,0,P|440:129|398:148,1,94.499997116089,2|0,1:2|0:0,0:0:0:0:
269,334,129150,2,0,P|314:342|356:323,1,94.499997116089,2|8,1:2|0:0,0:0:0:0:
200,189,129462,1,2,0:0:0:0:
200,189,129619,2,0,L|188:283,1,94.499997116089,2|0,1:2|1:2,0:0:0:0:
48,102,129931,2,0,L|142:114,1,94.499997116089,10|0,0:0|0:0,0:0:0:0:
403,45,130244,5,6,1:2:0:0:
290,294,130400,1,0,1:2:0:0:
192,32,130556,1,10,0:0:0:0:
292,314,130712,1,0,1:2:0:0:
412,27,130869,5,10,0:0:0:0:
185,199,131025,1,0,1:2:0:0:
478,258,131181,1,10,0:0:0:0:
304,38,131337,6,0,B|272:76|272:76|286:180,1,155.250002961159,2|0,1:2|0:0,0:0:0:0:
353,287,131650,2,0,L|302:280,1,51.7500009870529,10|8,0:0|0:0,0:0:0:0:
109,258,131806,1,10,0:0:0:0:
380,110,131962,1,10,0:0:0:0:
196,335,132119,1,10,0:0:0:0:
183,352,132431,5,2,1:2:0:0:
506,68,132744,6,0,L|500:121,1,53.9999983520508,10|0,1:2|0:0,0:0:0:0:
387,183,132900,2,0,L|381:129,1,53.9999983520508,10|0,0:0|0:0,0:0:0:0:
297,30,133056,1,10,1:2:0:0:
273,20,133134,1,8,0:0:0:0:
247,19,133212,1,8,0:0:0:0:
223,26,133290,1,8,0:0:0:0:
202,40,133369,6,0,L|196:94,1,53.9999983520508,10|0,1:2|0:0,0:0:0:0:
125,216,133525,1,10,0:0:0:0:
125,216,133603,1,8,0:0:0:0:
125,216,133681,2,0,L|119:163,1,53.9999983520508,10|0,1:2|0:0,0:0:0:0:
43,65,133837,1,10,0:0:0:0:
43,65,133915,1,8,0:0:0:0:
43,65,133994,6,0,P|68:56|95:59,1,53.9999983520508,14|0,1:2|0:0,0:0:0:0:
217,194,134150,1,10,0:0:0:0:
217,194,134228,1,8,0:0:0:0:
217,194,134306,2,0,P|243:197|269:188,1,53.9999983520508,10|0,1:2|0:0,0:0:0:0:
343,70,134462,2,0,L|349:123,1,53.9999983520508,10|8,0:0|0:0,0:0:0:0:
447,209,134619,5,10,1:2:0:0:
441,246,134697,1,8,0:0:0:0:
436,284,134775,1,8,0:0:0:0:
430,322,134853,1,8,0:0:0:0:
425,361,134931,5,10,1:3:0:0:
403,347,135009,1,8,0:0:0:0:
378,340,135087,1,8,0:0:0:0:
353,341,135165,1,8,0:0:0:0:
329,349,135244,6,0,P|302:351|277:342,5,53.9999983520508,14|0|8|0|8|0,1:2|0:0|0:0|0:0|1:2|0:0,0:0:0:0:
174,242,135712,2,0,P|201:240|226:249,1,53.9999983520508,10|0,0:0|0:0,0:0:0:0:
331,378,135869,6,0,P|304:380|279:371,1,53.9999983520508,10|0,1:2|0:0,0:0:0:0:
141,309,136025,1,10,0:0:0:0:
141,309,136103,1,8,0:0:0:0:
141,309,136181,2,0,L|147:256,1,53.9999983520508,10|0,1:2|0:0,0:0:0:0:
44,169,136337,1,10,0:0:0:0:
44,169,136415,1,8,0:0:0:0:
44,169,136494,6,0,L|97:163,1,53.9999983520508,14|0,1:2|0:0,0:0:0:0:
238,113,136650,2,0,L|185:107,1,53.9999983520508,10|8,0:0|0:0,0:0:0:0:
87,5,136806,2,0,L|93:58,1,53.9999983520508,10|0,1:2|0:0,0:0:0:0:
187,209,136962,1,10,0:0:0:0:
187,209,137040,1,8,0:0:0:0:
187,209,137119,6,0,L|181:262,1,53.9999983520508,10|0,1:2|0:0,0:0:0:0:
57,345,137275,2,0,L|110:339,1,53.9999983520508,10|8,0:0|0:0,0:0:0:0:
283,274,137431,5,10,1:3:0:0:
305,277,137509,1,8,0:0:0:0:
327,280,137587,1,8,0:0:0:0:
349,283,137665,1,8,0:0:0:0:
372,286,137744,6,0,L|378:233,1,53.9999983520508,14|0,1:2|0:0,0:0:0:0:
304,119,137900,1,10,0:0:0:0:
304,119,137978,1,8,0:0:0:0:
304,119,138056,2,0,P|301:145|310:171,1,53.9999983520508,10|0,1:2|0:0,0:0:0:0:
443,164,138212,2,0,P|422:147|396:140,1,53.9999983520508,10|0,0:0|0:0,0:0:0:0:
245,237,138369,6,0,P|264:254|291:261,1,53.9999983520508,10|0,1:2|0:0,0:0:0:0:
215,150,138525,1,10,0:0:0:0:
215,150,138603,1,8,0:0:0:0:
215,150,138681,2,0,L|162:144,1,53.9999983520508,10|0,1:2|0:0,0:0:0:0:
62,42,138837,2,0,L|68:95,1,53.9999983520508,10|8,0:0|0:0,0:0:0:0:
152,216,138994,6,0,L|158:163,1,53.9999983520508,14|0,1:2|0:0,0:0:0:0:
56,256,139150,1,10,0:0:0:0:
56,256,139228,1,8,0:0:0:0:
56,256,139306,2,0,L|50:203,1,53.9999983520508,10|0,1:2|0:0,0:0:0:0:
139,318,139462,2,0,L|192:312,1,53.9999983520508,10|8,0:0|0:0,0:0:0:0:
266,204,139619,5,10,1:2:0:0:
304,209,139697,1,8,0:0:0:0:
342,214,139775,1,8,0:0:0:0:
379,220,139853,1,8,0:0:0:0:
418,225,139931,5,10,1:3:0:0:
405,247,140009,1,8,0:0:0:0:
397,272,140087,1,8,0:0:0:0:
398,297,140165,1,8,0:0:0:0:
407,321,140244,6,0,L|460:327,1,53.9999983520508,14|0,1:2|0:0,0:0:0:0:
405,122,140400,2,0,L|352:128,1,53.9999983520508,10|0,0:0|0:0,0:0:0:0:
192,294,140556,1,10,1:2:0:0:
220,298,140634,1,8,0:0:0:0:
250,302,140712,2,0,L|303:308,1,53.9999983520508,10|0,0:0|0:0,0:0:0:0:
493,167,140869,5,10,1:2:0:0:
502,138,140947,1,8,0:0:0:0:
504,110,141025,1,8,0:0:0:0:
495,80,141103,1,8,0:0:0:0:
479,55,141181,2,0,L|371:41,1,107.999996704102,10|0,1:2|0:0,0:0:0:0:
73,59,141494,5,6,1:2:0:0:
386,181,141650,1,2,1:2:0:0:
63,268,141806,1,10,0:0:0:0:
267,8,141962,1,10,0:0:0:0:
352,343,142119,5,10,0:0:0:0:
181,73,142275,1,10,0:0:0:0:
142,377,142431,1,10,0:0:0:0:
216,226,142744,5,6,1:2:0:0:
256,192,142822,12,0,145244,0:0:0:0:
284,330,147275,5,2,1:2:0:0:
178,181,147431,2,0,L|189:275,1,94.499997116089,10|0,0:0|0:0,0:0:0:0:
195,319,147744,6,0,L|216:141,1,180,6|8,1:2|0:0,0:0:0:0:
108,282,148212,1,10,0:0:0:0:
294,241,148369,1,2,1:2:0:0:
124,160,148525,1,2,1:2:0:0:
284,330,148681,1,10,0:0:0:0:
304,152,148837,1,2,1:2:0:0:
123,295,148994,5,2,0:0:0:0:
123,295,149150,2,0,L|33:285,1,90,2|8,1:2|0:0,0:0:0:0:
113,71,149462,2,0,L|202:61,1,90,10|0,0:0|1:2,0:0:0:0:
391,39,149775,1,2,1:2:0:0:
212,151,149931,2,0,L|301:161,1,90,10|2,0:0|0:0,0:0:0:0:
412,359,150244,5,2,1:2:0:0:
384,129,150400,1,2,0:0:0:0:
322,370,150556,1,10,0:0:0:0:
484,202,150712,1,10,0:0:0:0:
311,76,150869,2,0,P|293:117|301:161,1,90,2|0,1:2|1:2,0:0:0:0:
473,292,151181,1,10,0:0:0:0:
384,129,151337,1,2,1:2:0:0:
249,316,151494,5,2,0:0:0:0:
249,316,151650,2,0,L|239:227,1,90,2|8,1:2|0:0,0:0:0:0:
219,41,151962,1,10,0:0:0:0:
219,41,152040,1,10,0:0:0:0:
219,41,152119,1,10,1:2:0:0:
327,215,152275,1,10,1:2:0:0:
77,139,152431,1,10,1:2:0:0:
308,30,152587,1,10,1:2:0:0:
