osu file format v14

[General]
AudioFilename: audio.mp3
AudioLeadIn: 0
PreviewTime: 112665
Countdown: 0
SampleSet: Soft
StackLeniency: 0.5
Mode: 0
LetterboxInBreaks: 0
WidescreenStoryboard: 1

[Editor]
DistanceSpacing: 1.3
BeatDivisor: 4
GridSize: 32
TimelineZoom: 2.6

[Metadata]
Title:ONE-MAN CIRCUS
TitleUnicode:ワンマン・サーカス
Artist:Iwami Takashi
ArtistUnicode:岩見陸
Creator:FinnaDie
Version:INSANE
Source:
Tags:ONE-MAN CIRCUS japanese rock jrock j-rock silent silent_rock narrative nanahoshi kangengakudan ナナホシ管弦楽団 FujuniseikouyuuP 不純異性交遊P fujun isei kouyuu p monaka モナカ
BeatmapID:2793070
BeatmapSetID:1327719

[Difficulty]
HPDrainRate:4.8
CircleSize:3.5
OverallDifficulty:8
ApproachRate:9
SliderMultiplier:1.6
SliderTickRate:1

[Events]
//Background and Video events
0,0,"ONE-MAN CIRCUS.png",0,0
//Break Periods
//Storyboard Layer 0 (Background)
//Storyboard Layer 1 (Fail)
//Storyboard Layer 2 (Pass)
//Storyboard Layer 3 (Foreground)
//Storyboard Layer 4 (Overlay)
//Storyboard Sound Samples

[TimingPoints]
1494,312.5,4,2,1,45,1,0
2431,-200,4,2,1,45,0,0
2665,-200,4,2,1,5,0,0
2744,-142.857142857143,4,2,1,45,0,0
7431,-100,4,2,1,65,0,0
7744,-100,4,2,1,70,0,0
12665,-100,4,2,1,5,0,0
12744,-111.111111111111,4,2,1,65,0,0
15244,-100,4,2,1,70,0,0
17744,-111.111111111111,4,2,1,65,0,0
20244,-100,4,2,1,70,0,0
22744,-111.111111111111,4,2,1,65,0,0
25244,-100,4,2,1,70,0,0
27744,-111.111111111111,4,2,1,65,0,0
30244,-100,4,2,1,70,0,0
32744,-125,4,2,1,60,0,0
35478,-125,4,2,1,5,0,0
35556,-125,4,2,1,60,0,0
39931,-111.111111111111,4,2,1,65,0,0
40165,-111.111111111111,4,2,1,5,0,0
40244,-100,4,2,1,70,0,0
40478,-100,4,2,1,5,0,0
40556,-100,4,2,1,70,0,0
41337,-90.9090909090909,4,2,1,75,0,0
41572,-90.9090909090909,4,2,1,5,0,0
41650,-90.9090909090909,4,2,1,80,0,0
42431,-71.4285714285714,4,2,1,80,0,0
42665,-71.4285714285714,4,2,1,5,0,0
42744,-86.9565217391304,4,2,1,80,0,1
47744,-86.9565217391304,4,2,1,80,0,1
48447,-86.9565217391304,4,2,1,5,0,1
48525,-86.9565217391304,4,2,1,80,0,1
49072,-86.9565217391304,4,2,1,5,0,1
49150,-86.9565217391304,4,2,1,80,0,1
51572,-86.9565217391304,4,2,1,5,0,1
51650,-86.9565217391304,4,2,1,80,0,1
51806,-86.9565217391304,4,2,1,80,0,1
52744,-100,4,2,1,70,0,0
62665,-100,4,2,1,5,0,0
62744,-111.111111111111,4,2,1,65,0,0
65244,-100,4,2,1,70,0,0
67744,-111.111111111111,4,2,1,65,0,0
70244,-100,4,2,1,70,0,0
72744,-125,4,2,1,60,0,0
79931,-111.111111111111,4,2,1,60,0,0
80165,-111.111111111111,4,2,1,5,0,0
80244,-100,4,2,1,70,0,0
80478,-100,4,2,1,5,0,0
80556,-100,4,2,1,70,0,0
81337,-90.9090909090909,4,2,1,75,0,0
81572,-90.9090909090909,4,2,1,5,0,0
81650,-90.9090909090909,4,2,1,80,0,0
82744,-86.9565217391304,4,2,1,80,0,1
88447,-86.9565217391304,4,2,1,5,0,1
88525,-86.9565217391304,4,2,1,80,0,1
89072,-86.9565217391304,4,2,1,5,0,1
89150,-86.9565217391304,4,2,1,80,0,1
91572,-86.9565217391304,4,2,1,5,0,1
91650,-86.9565217391304,4,2,1,80,0,1
92431,-86.9565217391304,4,2,1,80,0,0
92744,-83.3333333333333,4,2,1,80,0,1
102744,-83.3333333333333,4,2,1,80,0,0
110869,-76.9230769230769,4,2,1,80,0,0
111494,-71.4285714285714,4,2,1,80,0,0
112197,-71.4285714285714,4,2,1,5,0,0
112275,-71.4285714285714,4,2,1,80,0,0
113525,-83.3333333333333,4,2,1,80,0,0
113837,-80,4,2,1,80,0,1
114072,-80,4,2,1,5,0,1
114150,-80,4,2,1,80,0,1
115244,-86.9565217391304,4,2,1,80,0,1
118447,-86.9565217391304,4,2,1,5,0,1
118525,-86.9565217391304,4,2,1,80,0,1
119072,-86.9565217391304,4,2,1,5,0,1
119150,-86.9565217391304,4,2,1,80,0,1
122431,-71.4285714285714,4,2,1,80,0,1
122665,-71.4285714285714,4,2,1,5,0,1
122744,-86.9565217391304,4,2,1,80,0,1
126337,-80,4,2,1,80,0,1
127744,-95.2380952380952,4,2,1,80,0,1
130244,-86.9565217391304,4,2,1,80,0,1
131572,-86.9565217391304,4,2,1,5,0,1
131650,-86.9565217391304,4,2,1,80,0,1
132431,-86.9565217391304,4,2,1,80,0,0
132744,-83.3333333333333,4,2,1,80,0,1
142744,-100,4,2,1,80,0,0
142822,-100,4,2,1,25,0,0
145244,-100,4,2,1,5,0,0
147275,-100,4,2,1,65,0,0
147431,-142.857142857143,4,2,1,65,0,0
147665,-142.857142857143,4,2,1,5,0,0
147744,-100,4,2,1,70,0,0

[Colours]
Combo1 : 206,206,0
Combo2 : 0,166,83

[HitObjects]
99,171,2431,6,0,L|158:178,1,60,2|0,0:0|0:0,0:0:0:0:
188,208,2744,6,0,L|76:221,1,111.999996582031,2|2,0:0|0:0,0:0:0:0:
165,52,3369,2,0,L|276:65,1,111.999996582031,2|2,0:0|0:0,0:0:0:0:
462,27,3994,1,2,0:0:0:0:
462,27,4150,2,0,P|435:19|407:20,1,55.9999982910157,2|0,0:0|0:0,0:0:0:0:
364,144,4462,2,0,L|357:89,1,55.9999982910157,2|0,0:0|0:0,0:0:0:0:
474,142,4775,2,0,L|467:197,1,55.9999982910157,2|0,0:0|0:0,0:0:0:0:
315,285,5087,1,2,0:0:0:0:
315,285,5244,6,0,L|427:272,1,111.999996582031,2|2,0:0|0:0,0:0:0:0:
280,134,5869,2,0,L|169:121,1,111.999996582031,2|2,0:0|0:0,0:0:0:0:
74,287,6494,1,2,0:0:0:0:
74,287,6650,2,0,L|129:280,1,55.9999982910157,2|0,0:0|0:0,0:0:0:0:
202,345,6962,2,0,B|229:369|229:369|305:360,1,111.999996582031,2|0,0:0|0:0,0:0:0:0:
393,309,7431,1,10,0:3:0:0:
393,309,7509,1,8,0:0:0:0:
393,309,7587,2,0,L|388:269,1,40,8|8,0:0|0:0,0:0:0:0:
304,259,7744,6,0,L|324:101,1,160,6|8,1:2|0:0,0:0:0:0:
168,36,8212,1,10,0:0:0:0:
245,67,8369,2,0,P|222:99|187:117,1,80,2|2,1:2|1:2,0:0:0:0:
34,66,8681,1,10,0:0:0:0:
34,66,8837,2,0,P|73:69|106:91,1,80,2|2,1:2|0:0,0:0:0:0:
53,229,9150,6,0,L|43:149,1,80,2|8,1:2|0:0,0:0:0:0:
210,197,9462,2,0,L|200:277,1,80,10|0,0:0|1:2,0:0:0:0:
282,285,9775,1,2,1:2:0:0:
119,300,9931,1,10,0:0:0:0:
232,352,10087,1,2,0:0:0:0:
52,372,10244,6,0,P|22:300|52:228,1,160,2|8,1:2|0:0,0:0:0:0:
208,167,10712,1,10,0:0:0:0:
151,104,10869,2,0,L|71:114,1,80,2|2,1:2|1:2,0:0:0:0:
207,41,11181,1,10,0:0:0:0:
207,41,11337,2,0,L|287:51,1,80,2|2,1:2|0:0,0:0:0:0:
387,170,11650,6,0,P|349:155|325:124,1,80,2|8,1:2|0:0,0:0:0:0:
391,7,11962,2,0,L|401:87,1,80,10|0,0:0|1:2,0:0:0:0:
470,143,12275,1,2,1:2:0:0:
470,143,12431,2,0,L|456:262,1,120,10|0,0:0|0:0,0:0:0:0:
447,278,12744,6,0,P|413:292|378:288,1,71.9999978027344,6|2,1:2|0:0,0:0:0:0:
242,210,13056,1,10,0:0:0:0:
242,210,13212,1,10,0:0:0:0:
294,277,13369,2,0,L|285:348,1,71.9999978027344,2|0,1:2|1:2,0:0:0:0:
167,271,13681,2,0,L|158:199,1,71.9999978027344,10|2,0:0|1:2,0:0:0:0:
33,126,13994,5,2,0:0:0:0:
33,126,14150,2,0,P|67:140|102:136,1,71.9999978027344,2|8,1:2|0:0,0:0:0:0:
206,22,14462,2,0,P|169:16|136:27,1,71.9999978027344,10|0,0:0|1:2,0:0:0:0:
121,38,14697,1,8,0:0:0:0:
111,52,14775,1,10,0:0:0:0:
158,199,14931,1,10,0:0:0:0:
21,111,15087,1,10,0:0:0:0:
179,103,15244,6,0,L|258:112,1,80,6|0,1:2|0:0,0:0:0:0:
398,183,15556,1,10,0:0:0:0:
341,122,15712,1,0,1:2:0:0:
291,282,15869,5,10,0:0:0:0:
316,202,16025,1,0,1:2:0:0:
427,333,16181,2,0,L|348:342,1,80,10|0,0:0|1:2,0:0:0:0:
216,244,16494,5,10,0:0:0:0:
291,282,16650,1,0,1:2:0:0:
149,372,16806,1,10,0:0:0:0:
220,327,16962,1,0,1:2:0:0:
64,255,17119,6,0,L|73:334,1,80,10|0,0:0|1:2,0:0:0:0:
216,244,17431,2,0,L|225:165,1,80,10|0,0:0|1:2,0:0:0:0:
104,69,17744,6,0,P|125:97|158:112,1,71.9999978027344,6|2,1:2|0:0,0:0:0:0:
278,20,18056,1,10,0:0:0:0:
278,20,18212,1,10,0:0:0:0:
344,71,18369,2,0,L|352:142,1,71.9999978027344,2|2,1:2|1:2,0:0:0:0:
441,31,18681,2,0,L|432:102,1,71.9999978027344,10|2,0:0|1:2,0:0:0:0:
328,222,18994,6,0,P|364:225|397:212,1,71.9999978027344,2|2,0:0|1:2,0:0:0:0:
270,161,19306,1,10,0:0:0:0:
270,161,19462,1,10,0:0:0:0:
204,212,19619,2,0,L|196:283,1,71.9999978027344,2|2,1:2|1:2,0:0:0:0:
346,376,19931,2,0,L|338:305,1,71.9999978027344,10|0,0:0|0:0,0:0:0:0:
441,140,20244,5,14,0:0:0:0:
396,212,20400,1,0,1:2:0:0:
244,81,20556,1,10,0:0:0:0:
270,161,20712,1,0,1:2:0:0:
414,31,20869,6,0,L|334:21,1,80,10|0,0:0|1:2,0:0:0:0:
164,90,21181,2,0,L|243:80,1,80,10|0,0:0|1:2,0:0:0:0:
86,60,21494,6,0,P|79:99|94:135,1,80,10|0,0:0|1:2,0:0:0:0:
249,247,21806,1,10,0:0:0:0:
169,220,21962,1,0,1:2:0:0:
354,193,22119,5,10,0:0:0:0:
328,273,22275,1,0,1:2:0:0:
499,340,22431,2,0,L|489:261,1,80,10|0,0:0|1:2,0:0:0:0:
397,122,22744,6,0,P|364:109|329:113,1,71.9999978027344,6|2,1:2|0:0,0:0:0:0:
477,176,23056,1,10,0:0:0:0:
477,176,23212,1,10,0:0:0:0:
484,80,23369,2,0,L|475:8,1,71.9999978027344,2|2,1:2|1:2,0:0:0:0:
337,41,23681,2,0,L|328:112,1,71.9999978027344,10|2,0:0|1:2,0:0:0:0:
201,164,23994,6,0,P|236:159|269:172,1,71.9999978027344,2|2,0:0|1:2,0:0:0:0:
303,338,24306,1,10,0:0:0:0:
303,338,24462,1,10,0:0:0:0:
217,315,24619,2,0,L|226:244,1,71.9999978027344,2|2,1:2|1:2,0:0:0:0:
112,133,24931,2,0,L|121:204,1,71.9999978027344,10|0,0:0|0:0,0:0:0:0:
4,323,25244,6,0,L|83:332,1,80,6|0,1:2|0:0,0:0:0:0:
226,243,25556,1,10,0:0:0:0:
155,288,25712,1,0,1:2:0:0:
265,169,25869,5,10,0:0:0:0:
310,240,26025,1,0,1:2:0:0:
383,104,26181,2,0,L|304:95,1,80,10|0,0:0|1:2,0:0:0:0:
175,29,26494,5,10,0:0:0:0:
220,99,26650,1,0,1:2:0:0:
65,148,26806,1,10,0:0:0:0:
136,103,26962,1,0,1:2:0:0:
226,243,27119,6,0,L|217:322,1,80,10|0,0:0|1:2,0:0:0:0:
373,381,27431,2,0,L|364:302,1,80,10|0,0:0|1:2,0:0:0:0:
482,225,27744,6,0,P|448:238|413:233,1,71.9999978027344,6|2,1:2|0:0,0:0:0:0:
314,125,28056,1,10,0:0:0:0:
314,125,28212,1,10,0:0:0:0:
364,57,28369,2,0,P|398:44|433:49,1,71.9999978027344,2|2,1:2|1:2,0:0:0:0:
338,204,28681,2,0,P|302:208|269:195,1,71.9999978027344,10|2,0:0|1:2,0:0:0:0:
238,49,28994,6,0,L|229:121,1,71.9999978027344,2|2,0:0|1:2,0:0:0:0:
137,241,29306,1,10,0:0:0:0:
137,241,29462,1,10,0:0:0:0:
71,190,29619,2,0,L|63:119,1,71.9999978027344,2|2,1:2|1:2,0:0:0:0:
17,294,29931,2,0,P|49:308|85:306,1,71.9999978027344,10|0,0:0|0:0,0:0:0:0:
187,176,30244,5,14,0:0:0:0:
219,252,30400,1,0,1:2:0:0:
374,153,30556,1,10,0:0:0:0:
362,234,30712,1,0,1:2:0:0:
234,100,30869,6,0,L|313:91,1,80,10|0,0:0|1:2,0:0:0:0:
453,162,31181,2,0,L|374:153,1,80,10|0,0:0|1:2,0:0:0:0:
347,12,31494,6,0,P|380:33|396:69,1,80,10|0,0:0|1:2,0:0:0:0:
255,182,31806,1,10,0:0:0:0:
234,100,31962,1,0,1:2:0:0:
92,222,32119,5,10,0:0:0:0:
173,202,32275,1,0,1:2:0:0:
247,361,32431,2,0,L|168:352,1,80,10|0,0:0|1:2,0:0:0:0:
40,286,32744,6,0,P|9:231|26:171,1,128,6|8,1:2|0:0,0:0:0:0:
95,76,33212,2,0,L|102:139,1,64,10|0,0:0|1:2,0:0:0:0:
168,190,33525,1,2,1:2:0:0:
251,101,33681,2,0,P|282:97|312:108,1,64,10|2,0:0|1:2,0:0:0:0:
368,171,33994,5,2,0:0:0:0:
311,233,34150,2,0,L|318:296,1,64,2|8,1:2|0:0,0:0:0:0:
415,379,34462,2,0,L|422:316,1,64,10|0,0:0|1:2,0:0:0:0:
432,231,34775,1,2,1:2:0:0:
318,296,34931,1,10,0:0:0:0:
229,20,35244,6,0,L|240:115,1,96,2|0,1:2|0:0,0:0:0:0:
242,131,35556,1,10,0:0:0:0:
177,183,35712,2,0,P|147:194|116:190,1,64,10|0,0:0|1:2,0:0:0:0:
46,143,36025,1,2,1:2:0:0:
7,258,36181,2,0,L|14:321,1,64,10|2,0:0|1:2,0:0:0:0:
130,370,36494,6,0,L|137:307,1,64,2|0,0:0|1:2,0:0:0:0:
266,247,36806,1,10,0:0:0:0:
266,247,36962,2,0,L|203:254,1,64,10|0,0:0|1:2,0:0:0:0:
125,223,37275,1,2,1:2:0:0:
231,164,37431,1,10,0:0:0:0:
378,359,37744,6,0,L|393:232,1,128,2|8,1:2|0:0,0:0:0:0:
458,120,38212,2,0,P|433:140|403:147,1,64,10|0,0:0|1:2,0:0:0:0:
334,96,38525,1,2,1:2:0:0:
231,164,38681,2,0,L|238:227,1,64,10|2,0:0|1:2,0:0:0:0:
248,310,38994,5,2,0:0:0:0:
170,277,39150,2,0,P|138:272|108:283,1,64,2|8,1:2|0:0,0:0:0:0:
23,378,39462,2,0,L|30:315,1,64,10|0,0:0|1:2,0:0:0:0:
40,232,39776,1,2,1:2:0:0:
3,127,39931,2,0,B|29:148|29:148|101:140,1,107.999996704102,10|0,0:0|0:0,0:0:0:0:
118,127,40244,6,0,B|147:102|147:102|227:111,1,120,6|0,1:2|0:0,0:0:0:0:
247,115,40556,1,10,0:0:0:0:
366,253,40712,1,2,1:2:0:0:
398,65,40869,1,10,0:0:0:0:
267,211,41025,1,2,1:2:0:0:
227,19,41181,1,10,0:0:0:0:
395,167,41337,6,0,B|511:152|511:152|463:120,1,176.000005371094,6|2,1:2|1:2,0:0:0:0:
312,36,41806,2,0,L|301:123,1,88.000002685547,10|0,0:0|1:2,0:0:0:0:
176,260,42119,2,0,L|170:216,3,44.0000013427735,10|10|10|0,0:3|0:3|0:3|0:0,0:0:0:0:
211,137,42431,6,0,B|170:172|170:172|57:159,1,167.999994873047,10|0,0:0|0:0,0:0:0:0:
51,64,42744,6,0,L|142:75,1,92.0000017547608,6|2,1:2|1:2,0:0:0:0:
324,97,43056,2,0,L|335:188,1,92.0000017547608,10|2,0:0|1:2,0:0:0:0:
239,40,43369,1,2,0:0:0:0:
446,23,43525,2,0,L|435:114,1,92.0000017547608,2|8,1:2|0:0,0:0:0:0:
488,284,43837,6,0,B|430:272|430:272|366:296|366:296|310:284,1,184.000003509522,2|2,1:2|1:2,0:0:0:0:
168,177,44306,1,10,0:0:0:0:
208,347,44462,2,0,L|219:256,1,92.0000017547608,2|0,0:0|1:2,0:0:0:0:
110,102,44775,2,0,P|79:135|73:180,1,92.0000017547608,2|8,1:2|0:0,0:0:0:0:
125,260,45087,1,2,0:0:0:0:
211,94,45244,5,6,1:2:0:0:
211,94,45400,1,2,1:2:0:0:
311,251,45556,1,10,0:0:0:0:
311,251,45712,1,2,1:2:0:0:
168,177,45869,1,2,0:0:0:0:
342,76,46025,2,0,L|353:167,1,92.0000017547608,2|8,1:2|0:0,0:0:0:0:
456,317,46337,6,0,B|359:288|369:367|281:338,1,184.000003509522,2|0,1:2|1:2,0:0:0:0:
116,276,46806,2,0,P|161:268|202:286,1,92.0000017547608,10|2,0:0|1:2,0:0:0:0:
33,356,47119,2,0,L|27:310,3,46.0000008773804,10|8|10|8,0:3|0:3|0:0|0:0,0:0:0:0:
24,287,47431,1,10,0:0:0:0:
213,194,47587,1,10,0:0:0:0:
213,194,47665,1,8,0:0:0:0:
213,194,47744,6,0,L|202:285,1,92.0000017547608,6|0,1:2|1:2,0:0:0:0:
140,137,48056,1,10,0:0:0:0:
314,118,48212,2,0,L|325:209,1,92.0000017547608,2|0,1:2|0:0,0:0:0:0:
463,317,48525,1,2,1:2:0:0:
411,140,48681,1,10,0:0:0:0:
338,302,48837,6,0,L|201:285,1,138.000002632141,2|0,1:2|0:0,0:0:0:0:
128,232,49150,2,0,P|109:274|118:319,1,92.0000017547608,2|8,1:2|0:0,0:0:0:0:
210,195,49462,1,2,0:0:0:0:
45,154,49619,2,0,L|136:143,1,92.0000017547608,2|2,1:2|1:2,0:0:0:0:
30,15,49931,2,0,L|121:26,1,92.0000017547608,10|2,0:0|0:0,0:0:0:0:
289,41,50244,5,2,1:2:0:0:
289,41,50400,1,2,1:2:0:0:
210,195,50556,2,0,L|221:286,1,92.0000017547608,10|2,0:0|1:2,0:0:0:0:
278,133,50869,5,10,0:0:0:0:
101,236,51025,1,2,1:2:0:0:
312,297,51181,1,10,0:0:0:0:
190,105,51337,6,0,B|98:116|98:116|136:142,1,138.000002632141,2|0,1:2|0:0,0:0:0:0:
215,240,51650,2,0,L|210:195,1,46.0000008773804,10|8,0:0|0:0,0:0:0:0:
258,42,51806,1,10,0:0:0:0:
128,232,51962,1,10,0:0:0:0:
356,194,52119,1,10,0:0:0:0:
383,190,52431,5,2,0:0:0:0:
74,34,52744,6,0,B|40:72|40:72|52:180,1,160,6|8,1:2|0:0,0:0:0:0:
164,311,53212,1,10,0:0:0:0:
76,315,53369,2,0,P|82:274|106:244,1,80,2|2,1:2|1:2,0:0:0:0:
268,218,53681,1,10,0:0:0:0:
268,218,53837,2,0,P|229:232|191:226,1,80,2|2,1:2|0:0,0:0:0:0:
211,68,54150,6,0,L|221:148,1,80,2|8,1:2|0:0,0:0:0:0:
351,228,54462,2,0,L|361:148,1,80,10|0,0:0|1:2,0:0:0:0:
297,95,54775,1,2,1:2:0:0:
444,158,54931,1,10,0:0:0:0:
268,218,55087,1,2,0:0:0:0:
415,281,55244,6,0,B|458:310|458:310|353:323,1,160,2|8,1:2|0:0,0:0:0:0:
196,261,55712,1,10,0:0:0:0:
271,301,55869,2,0,L|281:381,1,80,2|2,1:2|1:2,0:0:0:0:
114,383,56181,1,10,0:0:0:0:
114,383,56337,2,0,L|124:303,1,80,2|2,1:2|0:0,0:0:0:0:
27,175,56650,6,0,P|46:211|78:232,1,80,2|8,1:2|0:0,0:0:0:0:
189,165,56962,2,0,L|109:155,1,80,10|0,0:0|1:2,0:0:0:0:
220,17,57275,5,10,0:0:0:0:
246,228,57431,1,2,1:2:0:0:
349,22,57587,1,10,0:0:0:0:
400,228,57744,6,0,B|350:217|350:217|294:238|294:238|246:228,1,160,6|8,1:2|0:0,0:0:0:0:
102,314,58212,1,10,0:0:0:0:
163,256,58369,2,0,L|153:176,1,80,2|2,1:2|1:2,0:0:0:0:
273,59,58681,1,10,0:0:0:0:
273,59,58837,2,0,L|263:139,1,80,2|2,1:2|0:0,0:0:0:0:
106,106,59150,6,0,P|145:92|183:98,1,80,2|8,1:2|0:0,0:0:0:0:
71,183,59462,2,0,P|38:157|23:121,1,80,10|0,0:0|1:2,0:0:0:0:
50,42,59775,1,2,1:2:0:0:
153,176,59931,1,10,0:0:0:0:
218,20,60087,1,2,0:0:0:0:
321,154,60244,6,0,L|301:312,1,160,2|8,1:2|0:0,0:0:0:0:
439,229,60712,1,10,0:0:0:0:
394,300,60869,2,0,L|404:380,1,80,2|2,1:2|1:2,0:0:0:0:
222,302,61181,1,10,0:0:0:0:
222,302,61337,2,0,L|302:312,1,80,2|2,1:2|0:0,0:0:0:0:
151,254,61650,6,0,P|137:293|143:331,1,80,2|8,1:2|0:0,0:0:0:0:
274,191,61962,2,0,L|194:181,1,80,10|0,0:0|1:2,0:0:0:0:
69,108,62275,1,2,1:2:0:0:
69,108,62431,2,0,L|188:93,1,120,10|0,0:0|0:0,0:0:0:0:
206,90,62744,5,6,1:2:0:0:
298,7,62900,2,0,L|289:78,1,71.9999978027344,2|10,0:0|0:0,0:0:0:0:
372,189,63212,2,0,L|363:118,1,71.9999978027344,10|2,0:0|1:2,0:0:0:0:
436,77,63525,1,2,1:2:0:0:
441,237,63681,2,0,P|415:261|381:271,1,71.9999978027344,10|2,0:0|1:2,0:0:0:0:
243,203,63994,6,0,P|277:212|303:237,1,71.9999978027344,2|2,0:0|1:2,0:0:0:0:
193,340,64306,1,10,0:0:0:0:
193,340,64462,1,10,0:0:0:0:
127,289,64619,2,0,L|119:218,1,71.9999978027344,2|2,1:2|1:2,0:0:0:0:
33,92,64931,2,0,L|104:100,1,71.9999978027344,10|0,0:0|0:0,0:0:0:0:
265,27,65244,6,0,L|185:36,1,80,6|0,1:2|0:0,0:0:0:0:
315,155,65556,1,10,0:0:0:0:
336,71,65712,1,0,1:2:0:0:
211,229,65869,5,10,0:0:0:0:
294,239,66025,1,0,1:2:0:0:
159,365,66181,2,0,L|149:285,1,80,10|0,0:0|1:2,0:0:0:0:
60,123,66494,5,10,0:0:0:0:
39,207,66650,1,0,1:2:0:0:
200,143,66806,1,10,0:0:0:0:
211,229,66962,1,0,1:2:0:0:
154,75,67119,6,0,P|189:59|228:66,1,80,10|0,0:0|1:2,0:0:0:0:
356,185,67431,2,0,P|317:192|280:176,1,80,10|0,0:0|1:2,0:0:0:0:
384,46,67744,5,6,1:2:0:0:
439,174,67900,2,0,L|447:103,1,71.9999978027344,2|8,0:0|0:0,0:0:0:0:
366,268,68212,1,10,0:0:0:0:
410,339,68369,2,0,P|444:352|479:347,1,71.9999978027344,2|2,1:2|1:2,0:0:0:0:
366,268,68681,2,0,L|295:276,1,71.9999978027344,10|2,0:0|1:2,0:0:0:0:
202,357,68994,6,0,L|210:286,1,71.9999978027344,2|2,0:0|1:2,0:0:0:0:
282,154,69306,1,10,0:0:0:0:
282,154,69462,1,10,0:0:0:0:
220,96,69619,2,0,P|184:91|151:104,1,71.9999978027344,2|2,1:2|1:2,0:0:0:0:
70,230,69931,2,0,P|103:242|138:238,1,71.9999978027344,10|0,0:0|0:0,0:0:0:0:
45,70,70244,5,14,0:0:0:0:
80,146,70400,1,0,1:2:0:0:
237,14,70556,1,10,0:0:0:0:
220,96,70712,1,0,1:2:0:0:
45,70,70869,6,0,P|83:59|120:73,1,80,10|0,0:0|1:2,0:0:0:0:
210,175,71181,2,0,L|219:95,1,80,10|0,0:0|1:2,0:0:0:0:
383,30,71494,6,0,L|392:109,1,80,10|0,0:0|1:2,0:0:0:0:
412,275,71806,1,10,0:0:0:0:
324,159,71962,2,0,L|320:132,3,26.6666666666667,10|10|10|10,0:3|0:3|0:3|0:0,0:0:0:0:
402,192,72275,1,10,0:3:0:0:
334,242,72431,1,8,0:3:0:0:
256,209,72587,1,2,0:0:0:0:
246,126,72744,6,0,B|215:98|215:98|129:108,1,128,2|0,1:2|1:2,0:0:0:0:
52,54,73212,2,0,L|44:117,1,64,2|0,0:0|1:2,0:0:0:0:
100,196,73525,2,0,L|163:188,2,64,2|2|2,0:0|1:2|0:0,0:0:0:0:
42,265,73994,6,0,P|31:294|35:326,1,64,2|0,1:2|0:0,0:0:0:0:
115,304,74306,2,0,L|178:311,1,64,2|0,1:2|0:0,0:0:0:0:
289,238,74619,2,0,P|257:233|227:244,1,64,2|0,1:2|0:0,0:0:0:0:
272,383,74931,2,0,L|265:320,1,64,2|0,1:2|0:0,0:0:0:0:
378,227,75244,6,0,L|362:354,1,128,2|0,1:2|1:2,0:0:0:0:
289,238,75712,2,0,L|282:175,1,64,2|0,0:0|1:2,0:0:0:0:
332,91,76025,2,0,P|363:85|393:96,2,64,2|2|2,0:0|1:2|0:0,0:0:0:0:
281,174,76494,6,0,P|249:179|219:168,1,64,2|2,1:2|0:0,0:0:0:0:
143,94,76806,1,2,1:2:0:0:
143,94,76962,2,0,L|136:157,1,64,2|0,0:0|1:2,0:0:0:0:
48,50,77275,2,0,L|55:113,1,64,2|0,0:0|1:2,0:0:0:0:
8,244,77587,1,10,0:0:0:0:
8,244,77665,1,10,0:0:0:0:
8,244,77744,6,0,P|68:227|122:258,1,128,2|0,1:2|1:2,0:0:0:0:
195,334,78212,2,0,L|132:341,1,64,2|0,0:0|1:2,0:0:0:0:
232,259,78525,1,2,0:0:0:0:
232,259,78681,2,0,L|295:266,1,64,2|2,1:2|0:0,0:0:0:0:
385,212,78994,5,2,1:2:0:0:
385,212,79150,2,0,L|378:275,1,64,2|0,0:0|1:2,0:0:0:0:
485,347,79462,2,0,L|478:284,1,64,2|0,0:0|1:2,0:0:0:0:
468,201,79776,1,2,0:0:0:0:
505,96,79931,2,0,B|479:117|479:117|407:109,1,107.999996704102,2|0,1:2|0:0,0:0:0:0:
390,96,80244,6,0,B|361:71|361:71|281:80,1,120,6|0,1:2|0:0,0:0:0:0:
261,84,80556,1,10,0:0:0:0:
308,268,80712,1,2,1:2:0:0:
161,127,80869,1,10,0:0:0:0:
201,276,81025,1,2,1:2:0:0:
315,167,81181,1,10,0:0:0:0:
402,350,81337,6,0,B|370:378|370:378|281:368,1,132.00000402832,6|0,1:2|0:0,0:0:0:0:
265,347,81650,1,10,0:0:0:0:
230,185,81806,1,2,1:2:0:0:
130,330,81962,1,10,0:0:0:0:
294,256,82119,6,0,L|338:261,3,44.0000013427735,2|8|8|8,1:2|0:0|0:0|0:0,0:0:0:0:
359,163,82431,2,0,L|315:168,1,44.0000013427735,2|0,1:2|0:0,0:0:0:0:
201,276,82587,1,10,0:0:0:0:
431,216,82744,6,0,P|449:174|440:130,1,92.0000017547608,6|2,1:2|1:2,0:0:0:0:
294,256,83056,2,0,L|305:348,1,92.0000017547608,10|2,0:0|1:2,0:0:0:0:
359,163,83369,1,2,0:0:0:0:
257,103,83525,2,0,L|165:92,1,92.0000017547608,2|8,1:2|0:0,0:0:0:0:
38,2,83837,6,0,B|76:46|76:46|62:170,1,184.000003509522,2|2,1:2|1:2,0:0:0:0:
166,332,84306,1,10,0:0:0:0:
5,270,84462,2,0,P|49:261|91:280,1,92.0000017547608,2|0,0:0|1:2,0:0:0:0:
241,383,84775,2,0,L|333:372,1,92.0000017547608,2|8,1:2|0:0,0:0:0:0:
423,361,85087,1,2,0:0:0:0:
347,191,85244,5,6,1:2:0:0:
347,191,85400,1,2,1:2:0:0:
492,300,85556,1,10,0:0:0:0:
492,300,85712,1,2,1:2:0:0:
321,280,85869,1,2,0:0:0:0:
416,133,86025,2,0,L|508:144,1,92.0000017547608,2|8,1:2|0:0,0:0:0:0:
328,38,86337,6,0,B|270:26|270:26|206:50|206:50|150:38,1,184.000003509522,2|0,1:2|1:2,0:0:0:0:
42,176,86806,2,0,L|134:165,1,92.0000017547608,10|2,0:0|1:2,0:0:0:0:
324,122,87119,2,0,L|278:116,3,46.0000008773804,10|8|10|8,0:3|0:3|0:0|0:0,0:0:0:0:
255,113,87431,1,10,0:0:0:0:
143,256,87587,1,10,0:0:0:0:
143,256,87665,1,8,0:0:0:0:
143,256,87744,6,0,P|134:300|153:342,1,92.0000017547608,6|0,1:2|1:2,0:0:0:0:
299,237,88056,1,10,0:0:0:0:
133,165,88212,2,0,L|41:176,1,92.0000017547608,2|0,1:2|0:0,0:0:0:0:
149,34,88525,1,2,1:2:0:0:
216,201,88681,1,10,0:0:0:0:
288,42,88837,6,0,P|352:24|411:58,1,138.000002632141,2|0,1:2|0:0,0:0:0:0:
452,135,89150,2,0,P|486:106|498:62,1,92.0000017547608,2|8,1:2|0:0,0:0:0:0:
341,115,89462,1,2,0:0:0:0:
470,231,89619,2,0,L|378:220,1,92.0000017547608,2|2,1:2|1:2,0:0:0:0:
254,333,89931,2,0,P|298:342|340:324,1,92.0000017547608,10|2,0:0|0:0,0:0:0:0:
149,263,90244,5,2,1:2:0:0:
149,263,90400,1,2,1:2:0:0:
303,181,90556,2,0,L|292:90,1,92.0000017547608,10|2,0:0|1:2,0:0:0:0:
235,243,90869,5,10,0:0:0:0:
412,140,91025,1,2,1:2:0:0:
201,79,91181,1,10,0:0:0:0:
322,270,91337,6,0,B|414:259|414:259|376:233,1,138.000002632141,2|0,1:2|0:0,0:0:0:0:
297,135,91650,2,0,L|302:180,1,46.0000008773804,10|8,0:0|0:0,0:0:0:0:
254,333,91806,1,10,0:0:0:0:
384,143,91962,1,10,0:0:0:0:
156,181,92119,1,10,0:0:0:0:
129,185,92431,5,2,1:2:0:0:
439,336,92744,6,0,L|486:341,3,47.9999985351563,10|0|10|0,1:2|0:0|0:0|0:0,0:0:0:0:
386,255,93056,1,10,1:2:0:0:
365,242,93134,1,8,0:0:0:0:
342,235,93212,1,8,0:0:0:0:
318,236,93290,1,8,0:0:0:0:
296,245,93369,2,0,L|291:292,5,47.9999985351563,10|0|10|8|10|0,1:2|0:0|0:0|0:0|1:2|0:0,0:0:0:0:
204,335,93837,1,10,0:0:0:0:
200,312,93915,1,8,0:0:0:0:
197,288,93994,6,0,L|191:241,3,47.9999985351563,14|0|10|8,1:2|0:0|0:0|0:0,0:0:0:0:
104,196,94306,2,0,L|98:243,3,47.9999985351563,10|0|10|8,1:2|0:0|0:0|0:0,0:0:0:0:
184,143,94618,1,10,1:2:0:0:
207,135,94696,1,8,0:0:0:0:
231,134,94774,1,8,0:0:0:0:
254,141,94852,1,8,0:0:0:0:
273,155,94931,2,0,P|295:162|319:162,3,47.9999985351563,10|8|8|8,1:3|0:0|0:0|0:0,0:0:0:0:
394,101,95244,6,0,L|388:54,5,47.9999985351563,14|0|8|0|8|0,1:2|0:0|0:0|0:0|1:2|0:0,0:0:0:0:
301,9,95712,2,0,L|295:56,3,47.9999985351563,10|0|10|0,0:0|0:0|1:2|0:0,0:0:0:0:
201,53,96025,2,0,L|207:100,1,47.9999985351563,10|8,0:0|0:0,0:0:0:0:
114,8,96181,2,0,L|108:55,1,47.9999985351563,10|0,1:2|0:0,0:0:0:0:
42,126,96337,1,10,0:0:0:0:
46,149,96415,1,8,0:0:0:0:
49,173,96494,6,0,L|55:220,3,47.9999985351563,14|0|10|8,1:2|0:0|0:0|0:0,0:0:0:0:
142,265,96806,2,0,L|148:218,3,47.9999985351563,10|0|10|8,1:2|0:0|0:0|0:0,0:0:0:0:
11,324,97119,6,0,L|58:318,3,47.9999985351563,10|0|10|8,1:2|0:0|0:0|0:0,0:0:0:0:
144,361,97432,1,10,1:3:0:0:
167,358,97510,1,8,0:0:0:0:
191,355,97588,1,8,0:0:0:0:
215,352,97666,1,8,0:0:0:0:
238,348,97744,6,0,L|244:301,5,47.9999985351563,14|0|10|8|10|0,1:2|0:0|0:0|0:0|1:2|0:0,0:0:0:0:
331,256,98212,2,0,L|337:303,3,47.9999985351563,10|0|10|0,0:0|0:0|1:2|0:0,0:0:0:0:
249,202,98525,2,0,L|202:196,1,47.9999985351563,10|8,0:0|0:0,0:0:0:0:
336,158,98681,2,0,L|383:152,1,47.9999985351563,10|0,1:2|0:0,0:0:0:0:
255,105,98837,1,10,0:0:0:0:
232,101,98915,1,8,0:0:0:0:
208,98,98994,6,0,L|161:92,3,47.9999985351563,14|0|10|8,1:2|0:0|0:0|0:0,0:0:0:0:
243,5,99306,2,0,L|290:0,3,47.9999985351563,10|0|10|8,1:2|0:0|0:0|0:0,0:0:0:0:
395,62,99619,1,10,1:2:0:0:
403,85,99697,1,8,0:0:0:0:
404,109,99775,1,8,0:0:0:0:
397,132,99853,1,8,0:0:0:0:
383,151,99931,2,0,P|375:173|375:197,3,47.9999985351563,10|8|8|8,1:3|0:0|0:0|0:0,0:0:0:0:
434,296,100244,6,0,L|387:290,1,47.9999985351563,14|0,1:2|0:0,0:0:0:0:
256,351,100400,2,0,L|303:345,1,47.9999985351563,10|0,0:0|0:0,0:0:0:0:
290,200,100556,2,0,L|296:247,3,47.9999985351563,10|8|10|0,1:2|0:0|0:0|0:0,0:0:0:0:
185,264,100869,6,0,L|138:258,1,47.9999985351563,10|8,1:2|0:0,0:0:0:0:
34,197,101025,2,0,L|40:244,1,47.9999985351563,8|8,0:0|0:0,0:0:0:0:
71,380,101181,2,0,L|77:333,1,47.9999985351563,10|0,1:2|0:0,0:0:0:0:
352,46,101494,6,0,L|304:40,3,47.9999985351563,10|8|8|8,0:0|0:0|0:3|0:3,0:0:0:0:
208,26,101807,1,10,1:2:0:0:
318,145,101962,6,0,L|365:139,3,47.9999985351563,10|8|8|8,0:0|0:0|0:3|0:3,0:0:0:0:
462,125,102275,1,10,1:2:0:0:
212,228,102431,5,10,0:0:0:0:
185,232,102744,6,0,L|173:136,1,95.9999970703126,6|2,1:2|0:0,0:0:0:0:
392,232,103056,2,0,L|380:328,1,95.9999970703126,10|0,0:0|1:2,0:0:0:0:
291,149,103369,5,10,0:0:0:0:
487,220,103525,1,0,1:2:0:0:
285,340,103681,2,0,P|238:348|196:327,1,95.9999970703126,10|0,0:0|1:2,0:0:0:0:
124,127,103994,5,10,0:0:0:0:
100,317,104150,1,0,1:2:0:0:
127,99,104306,1,10,0:0:0:0:
250,254,104462,1,0,1:2:0:0:
48,231,104619,6,0,L|144:219,1,95.9999970703126,10|0,0:0|1:2,0:0:0:0:
225,16,104931,2,0,L|129:4,1,95.9999970703126,10|0,0:0|1:2,0:0:0:0:
308,178,105244,6,0,L|296:82,1,95.9999970703126,6|2,1:2|0:0,0:0:0:0:
487,21,105556,2,0,L|475:117,1,95.9999970703126,10|0,0:0|1:2,0:0:0:0:
450,317,105869,5,10,0:0:0:0:
392,147,106025,1,0,1:2:0:0:
319,334,106181,2,0,P|272:342|230:321,1,95.9999970703126,10|0,0:0|1:2,0:0:0:0:
135,141,106494,5,10,0:0:0:0:
284,248,106650,1,0,1:2:0:0:
87,311,106806,2,0,L|75:215,1,95.9999970703126,10|0,0:0|1:2,0:0:0:0:
242,57,107119,5,10,0:0:0:0:
170,230,107275,1,0,1:2:0:0:
101,53,107431,2,0,P|54:44|12:65,1,95.9999970703126,10|0,0:0|1:2,0:0:0:0:
230,156,107744,6,0,L|326:144,1,95.9999970703126,6|2,1:2|0:0,0:0:0:0:
473,1,108056,2,0,L|461:97,1,95.9999970703126,10|0,0:0|1:2,0:0:0:0:
436,297,108369,5,10,0:0:0:0:
353,141,108525,1,0,1:2:0:0:
294,333,108681,2,0,L|198:321,1,95.9999970703126,10|0,0:0|1:2,0:0:0:0:
60,172,108994,5,10,0:0:0:0:
229,227,109150,1,0,1:2:0:0:
124,374,109306,2,0,P|103:331|112:285,1,95.9999970703126,10|0,0:0|1:2,0:0:0:0:
178,114,109619,5,10,0:0:0:0:
178,114,109775,1,2,1:2:0:0:
198,321,109931,1,8,0:0:0:0:
60,172,110087,1,2,1:2:0:0:
257,224,110244,6,0,L|304:218,3,47.9999985351563,10|0|0|0,1:2|0:0|0:0|0:0,0:0:0:0:
349,131,110556,2,0,L|302:125,3,47.9999985351563,14|0|2|0,0:0|0:0|0:0|0:0,0:0:0:0:
401,213,110869,6,0,L|394:264,3,51.999997619629,10|0|2|0,1:2|0:0|0:0|0:0,0:0:0:0:
495,314,111181,2,0,L|488:262,3,51.999997619629,14|0|2|0,0:0|0:0|0:0|0:0,0:0:0:0:
401,376,111494,5,10,1:2:0:0:
373,373,111572,1,8,0:3:0:0:
345,370,111650,1,0,1:2:0:0:
317,366,111728,1,0,1:2:0:0:
289,363,111806,2,0,L|233:356,1,55.9999982910157,10|0,0:0|0:0,0:0:0:0:
104,384,111962,6,0,B|138:343|138:343|125:230,1,167.999994873047,6|0,1:2|0:0,0:0:0:0:
121,201,112275,1,2,1:2:0:0:
250,119,112431,1,2,1:2:0:0:
74,86,112587,1,2,1:2:0:0:
81,93,113525,5,2,1:2:0:0:
81,93,113603,1,2,1:2:0:0:
81,93,113681,2,0,L|128:98,1,47.9999985351563,10|0,0:0|0:0,0:0:0:0:
187,20,113837,6,0,B|227:68|227:68|212:203,1,200,6|2,1:2|1:2,0:0:0:0:
410,275,114306,1,10,0:0:0:0:
198,303,114462,1,2,1:2:0:0:
369,179,114619,2,0,L|418:172,3,50,10|8|8|8,0:3|0:0|0:0|0:0,0:0:0:0:
446,169,114931,1,10,0:0:0:0:
325,36,115087,1,10,0:0:0:0:
325,36,115165,1,8,0:0:0:0:
325,36,115244,6,0,L|233:25,1,92.0000017547608,6|0,1:2|1:2,0:0:0:0:
59,115,115556,1,10,0:0:0:0:
59,115,115712,1,2,1:2:0:0:
249,153,115869,1,2,0:0:0:0:
141,14,116025,2,0,L|152:106,1,92.0000017547608,2|8,1:2|0:0,0:0:0:0:
57,273,116337,6,0,B|154:244|144:323|232:294,1,184.000003509522,2|0,1:2|1:2,0:0:0:0:
397,232,116806,2,0,P|352:224|311:242,1,92.0000017547608,10|2,0:0|1:2,0:0:0:0:
437,378,117119,1,2,1:2:0:0:
437,378,117197,1,2,1:2:0:0:
437,378,117275,1,2,1:2:0:0:
488,221,117431,2,0,L|477:129,1,92.0000017547608,10|2,0:0|0:0,0:0:0:0:
249,93,117744,6,0,L|238:184,1,92.0000017547608,6|0,1:2|1:2,0:0:0:0:
176,36,118056,1,10,0:0:0:0:
350,17,118212,2,0,L|361:108,1,92.0000017547608,2|0,1:2|0:0,0:0:0:0:
488,221,118525,1,2,1:2:0:0:
450,31,118681,1,10,0:0:0:0:
360,200,118837,6,0,P|296:218|237:184,1,138.000002632141,2|0,1:2|0:0,0:0:0:0:
175,254,119150,2,0,P|147:217|144:172,1,92.0000017547608,2|8,1:2|0:0,0:0:0:0:
253,16,119462,1,2,0:0:0:0:
107,83,119619,2,0,L|198:94,1,92.0000017547608,2|2,1:2|1:2,0:0:0:0:
344,4,119931,2,0,L|253:15,1,92.0000017547608,10|2,0:0|0:0,0:0:0:0:
398,121,120244,5,6,1:2:0:0:
398,121,120400,1,2,1:2:0:0:
277,259,120556,2,0,L|186:248,1,92.0000017547608,10|2,0:0|1:2,0:0:0:0:
328,337,120869,1,2,0:0:0:0:
289,168,121025,1,2,1:2:0:0:
167,364,121181,1,10,0:0:0:0:
117,150,121337,1,2,1:2:0:0:
110,122,121650,5,2,1:2:0:0:
231,264,121806,2,0,L|276:258,2,46.0000008773804,10|8|2,0:0|0:0|1:2,0:0:0:0:
53,241,122119,1,8,0:3:0:0:
53,241,122197,1,10,0:3:0:0:
53,241,122275,1,2,1:2:0:0:
177,26,122431,6,0,B|212:67|212:67|199:180,1,167.999994873047,10|0,0:0|0:0,0:0:0:0:
145,253,122744,6,0,P|187:272|232:263,1,92.0000017547608,6|2,1:2|1:2,0:0:0:0:
348,73,123056,1,10,0:0:0:0:
322,263,123212,1,2,1:2:0:0:
198,180,123369,2,0,L|289:169,1,92.0000017547608,2|0,0:0|1:2,0:0:0:0:
439,61,123681,1,10,0:0:0:0:
500,263,123837,6,0,B|442:251|442:251|378:275|378:275|322:263,1,184.000003509522,2|2,1:2|1:2,0:0:0:0:
142,247,124306,1,10,0:0:0:0:
241,354,124462,2,0,L|230:263,1,92.0000017547608,2|0,0:0|1:2,0:0:0:0:
66,170,124775,2,0,L|55:261,1,92.0000017547608,2|8,1:2|0:0,0:0:0:0:
110,330,125087,1,2,0:0:0:0:
178,140,125244,5,6,1:2:0:0:
178,140,125400,1,2,1:2:0:0:
308,293,125556,1,10,0:0:0:0:
308,293,125712,1,2,1:2:0:0:
144,235,125869,1,2,0:0:0:0:
330,106,126025,2,0,L|341:197,1,92.0000017547608,2|8,1:2|0:0,0:0:0:0:
414,349,126337,6,0,B|468:312|468:312|336:295,1,200,2|8,1:2|0:0,0:0:0:0:
308,293,126728,1,8,0:0:0:0:
280,290,126806,1,8,0:0:0:0:
137,332,126962,2,0,L|143:382,2,50,10|8|10,0:0|0:0|0:0,0:0:0:0:
65,181,127275,2,0,B|10:217|10:217|142:234,1,200,2|8,1:2|0:0,0:0:0:0:
171,237,127665,1,8,0:0:0:0:
199,240,127744,6,0,L|188:156,1,83.9999974365235,2|2,1:2|1:2,0:0:0:0:
334,71,128056,1,10,0:0:0:0:
334,71,128212,2,0,L|323:155,1,83.9999974365235,2|0,1:2|0:0,0:0:0:0:
248,36,128525,1,2,1:2:0:0:
419,105,128681,1,10,0:0:0:0:
353,233,128837,6,0,P|311:238|273:222,1,83.9999974365235,2|0,1:2|0:0,0:0:0:0:
157,129,129150,2,0,P|195:113|236:118,1,83.9999974365235,2|8,1:2|0:0,0:0:0:0:
99,273,129462,1,2,0:0:0:0:
99,273,129619,2,0,L|88:189,1,83.9999974365235,2|0,1:2|1:2,0:0:0:0:
21,44,129931,2,0,L|105:55,1,83.9999974365235,10|0,0:0|0:0,0:0:0:0:
320,80,130244,5,6,1:2:0:0:
320,80,130400,1,0,1:2:0:0:
229,218,130556,2,0,L|218:309,1,92.0000017547608,10|0,0:0|1:2,0:0:0:0:
161,156,130869,5,10,0:0:0:0:
338,259,131025,1,0,1:2:0:0:
127,320,131181,1,10,0:0:0:0:
248,129,131337,6,0,B|340:140|340:140|302:166,1,138.000002632141,2|0,1:2|0:0,0:0:0:0:
223,264,131650,2,0,L|228:219,1,46.0000008773804,10|8,0:0|0:0,0:0:0:0:
180,67,131806,1,10,0:0:0:0:
310,256,131962,1,10,0:0:0:0:
82,218,132119,1,10,0:0:0:0:
55,214,132431,5,2,1:2:0:0:
393,20,132744,6,0,L|440:14,3,47.9999985351563,10|0|10|0,1:2|0:0|0:0|0:0,0:0:0:0:
328,91,133057,1,10,1:2:0:0:
305,88,133135,1,8,0:0:0:0:
281,85,133213,1,8,0:0:0:0:
257,82,133291,1,8,0:0:0:0:
234,78,133369,2,0,L|187:72,5,47.9999985351563,10|0|10|8|10|0,1:2|0:0|0:0|0:0|1:2|0:0,0:0:0:0:
103,17,133838,1,10,0:0:0:0:
91,37,133916,1,8,0:0:0:0:
88,62,133994,6,0,P|87:85|95:108,3,47.9999985351563,14|0|10|8,1:2|0:0|0:0|0:0,0:0:0:0:
39,186,134306,2,0,P|59:198|82:203,3,47.9999985351563,10|0|10|8,1:2|0:0|0:0|0:0,0:0:0:0:
171,167,134619,1,10,1:2:0:0:
193,158,134697,1,8,0:0:0:0:
217,157,134775,1,8,0:0:0:0:
240,164,134853,1,8,0:0:0:0:
261,177,134931,2,0,L|267:224,3,47.9999985351563,10|8|8|8,1:3|0:0|0:0|0:0,0:0:0:0:
354,269,135244,6,0,L|360:222,5,47.9999985351563,14|0|8|0|8|0,1:2|0:0|0:0|0:0|1:2|0:0,0:0:0:0:
272,322,135712,2,0,L|225:328,3,47.9999985351563,10|0|10|0,0:0|0:0|1:2|0:0,0:0:0:0:
137,365,136025,2,0,P|128:342|129:318,1,47.9999985351563,10|8,0:0|0:0,0:0:0:0:
55,258,136181,2,0,P|70:240|91:229,1,47.9999985351563,10|0,1:2|0:0,0:0:0:0:
170,146,136337,1,10,0:0:0:0:
173,170,136415,1,8,0:0:0:0:
177,193,136493,6,0,L|183:240,3,47.9999985351563,14|0|10|8,1:2|0:0|0:0|0:0,0:0:0:0:
270,158,136806,2,0,L|275:111,3,47.9999985351563,10|0|10|8,1:2|0:0|0:0|0:0,0:0:0:0:
158,50,137119,6,0,L|205:45,3,47.9999985351563,10|0|10|8,1:2|0:0|0:0|0:0,0:0:0:0:
297,16,137432,1,10,1:3:0:0:
320,19,137510,1,8,0:0:0:0:
344,22,137588,1,8,0:0:0:0:
368,25,137666,1,8,0:0:0:0:
391,29,137744,6,0,L|397:76,5,47.9999985351563,14|0|10|8|10|0,1:2|0:0|0:0|0:0|1:2|0:0,0:0:0:0:
484,121,138212,2,0,L|490:74,3,47.9999985351563,10|0|10|0,0:0|0:0|1:2|0:0,0:0:0:0:
402,175,138525,2,0,L|355:169,1,47.9999985351563,10|8,0:0|0:0,0:0:0:0:
400,268,138681,2,0,L|447:262,1,47.9999985351563,10|0,1:2|0:0,0:0:0:0:
329,334,138837,1,10,0:0:0:0:
306,330,138915,1,8,0:0:0:0:
282,327,138994,6,0,L|235:321,3,47.9999985351563,14|0|10|8,1:2|0:0|0:0|0:0,0:0:0:0:
190,234,139306,2,0,L|237:228,3,47.9999985351563,10|0|10|8,1:2|0:0|0:0|0:0,0:0:0:0:
138,316,139618,1,10,1:2:0:0:
116,299,139696,1,8,0:0:0:0:
102,279,139774,1,8,0:0:0:0:
93,257,139852,1,8,0:0:0:0:
93,233,139931,2,0,L|99:186,3,47.9999985351563,10|8|8|8,1:3|0:0|0:0|0:0,0:0:0:0:
34,88,140244,6,0,L|81:82,1,47.9999985351563,14|0,1:2|0:0,0:0:0:0:
191,15,140400,2,0,L|185:62,1,47.9999985351563,10|0,0:0|0:0,0:0:0:0:
249,159,140556,2,0,L|202:165,3,47.9999985351563,10|8|10|0,1:2|0:0|0:0|0:0,0:0:0:0:
93,233,140869,6,0,L|140:239,1,47.9999985351563,10|8,1:2|0:0,0:0:0:0:
264,290,141025,2,0,L|217:296,1,47.9999985351563,8|8,0:0|0:0,0:0:0:0:
76,369,141181,2,0,L|172:381,1,95.9999970703126,10|0,1:2|0:0,0:0:0:0:
428,312,141494,6,0,P|435:264|414:222,1,95.9999970703126,6|2,1:2|1:2,0:0:0:0:
246,131,141806,1,10,0:0:0:0:
347,279,141962,1,10,0:0:0:0:
356,67,142119,5,10,0:0:0:0:
261,262,142275,1,10,0:0:0:0:
235,47,142431,1,10,0:0:0:0:
415,223,142744,5,6,1:2:0:0:
256,192,142822,12,0,145244,0:0:0:0:
402,191,147275,5,2,1:2:0:0:
307,306,147431,2,0,L|390:295,1,83.9999974365235,10|0,0:0|0:0,0:0:0:0:
431,280,147744,6,0,L|272:260,1,160,6|8,1:2|0:0,0:0:0:0:
180,102,148212,1,10,0:0:0:0:
226,181,148369,2,0,L|305:171,1,80,2|2,1:2|1:2,0:0:0:0:
435,115,148681,1,10,0:0:0:0:
435,115,148837,2,0,P|396:101|358:107,1,80,2|2,1:2|0:0,0:0:0:0:
378,265,149150,6,0,L|388:185,1,80,2|8,1:2|0:0,0:0:0:0:
406,343,149462,2,0,P|366:348|329:334,1,80,10|0,0:0|1:2,0:0:0:0:
293,258,149775,1,2,1:2:0:0:
191,354,149931,1,10,0:0:0:0:
205,269,150087,1,2,0:0:0:0:
46,209,150244,6,0,L|56:289,1,80,2|2,1:2|0:0,0:0:0:0:
194,181,150556,1,10,0:0:0:0:
194,181,150712,1,10,0:0:0:0:
57,125,150869,2,0,P|94:111|133:116,1,80,2|0,1:2|1:2,0:0:0:0:
270,189,151181,2,0,P|230:194|193:180,1,80,10|2,0:0|1:2,0:0:0:0:
331,65,151494,5,2,0:0:0:0:
331,65,151650,2,0,L|341:145,1,80,2|8,1:2|0:0,0:0:0:0:
368,318,151962,1,10,0:0:0:0:
368,318,152040,1,10,0:0:0:0:
368,318,152119,1,10,1:2:0:0:
420,171,152275,1,10,1:2:0:0:
259,272,152431,1,10,1:2:0:0:
450,286,152587,1,10,1:2:0:0:
