osu file format v14

[General]
AudioFilename: audio.mp3
AudioLeadIn: 0
PreviewTime: 55339
Countdown: 0
SampleSet: Soft
StackLeniency: 0.7
Mode: 0
LetterboxInBreaks: 0
WidescreenStoryboard: 1

[Editor]
Bookmarks: 1219,2179,17539,29059,32899,40579,54979,100099,102019,117379
DistanceSpacing: 0.8
BeatDivisor: 2
GridSize: 32
TimelineZoom: 2.3

[Metadata]
Title:Noraneko no Shinryaku (Cut Ver.)
TitleUnicode:野良猫の侵略 (Cut Ver.)
Artist:Iwami Takashi
ArtistUnicode:岩見陸
Creator:FinnaDie
Version:Silent's Advanced
Source:
Tags:japanese rock jrock j-rock alternate alternator akane-_ akane silent Silent_Rock YOUTH WITHOUT ナナホシ管弦楽団 fujun isei kouyuu p monaka モナカ nanahoshi kangengakudan FujuniseikouyuuP 不純異性交遊P invasion of a stray cat cats short cut
BeatmapID:2590404
BeatmapSetID:1237488

[Difficulty]
HPDrainRate:3.3
CircleSize:3
OverallDifficulty:5
ApproachRate:6.5
SliderMultiplier:0.9
SliderTickRate:1

[Events]
//Background and Video events
0,0,"catanime.jpeg",0,0
//Break Periods
//Storyboard Layer 0 (Background)
//Storyboard Layer 1 (Fail)
//Storyboard Layer 2 (Pass)
//Storyboard Layer 3 (Foreground)
//Storyboard Layer 4 (Overlay)
//Storyboard Sound Samples

[TimingPoints]
1219,240,4,2,1,65,1,0
1219,-100,4,2,1,65,0,0
2179,-90.9090909090909,4,2,1,65,0,0
17539,-105.263157894737,4,2,1,45,0,0
21379,-100,4,2,1,65,0,0
29059,-105.263157894737,4,2,1,45,0,0
32899,-99.9999999999999,4,2,1,65,0,0
55939,-90.9090909090909,4,2,1,75,0,1
94339,-90.9090909090909,4,2,1,75,0,1
94459,-90.9090909090909,4,2,1,75,0,1
100099,-90.9090909090909,4,2,1,65,0,0
102019,-90.9090909090909,4,2,1,65,0,0

[Colours]
Combo1 : 255,140,85
Combo2 : 192,192,192
Combo3 : 255,85,85
Combo4 : 119,134,202

[HitObjects]
125,306,1219,5,4,1:2:0:0:
144,210,1459,2,0,B|138:181|138:181|121:164|121:164|115:125,2,90,8|8|8,0:0|0:0|0:0,0:0:0:0:
218,274,2179,6,0,B|255:261|255:261|324:295,1,99.0000030212403,6|10,1:2|0:0,0:0:0:0:
353,309,2539,1,2,0:0:0:0:
435,253,2779,2,0,P|405:212|407:161,1,99.0000030212403,2|2,1:2|1:2,0:0:0:0:
417,118,3139,2,0,L|303:139,1,99.0000030212403,2|10,0:0|0:0,0:0:0:0:
239,78,3619,2,0,L|125:99,1,99.0000030212403,2|10,1:2|0:0,0:0:0:0:
64,32,4099,6,0,P|42:75|43:124,1,99.0000030212403,2|10,1:2|0:0,0:0:0:0:
66,168,4459,1,2,0:0:0:0:
69,265,4699,2,0,P|113:245|161:253,1,99.0000030212403,2|2,1:2|1:2,0:0:0:0:
203,281,5059,2,0,L|220:179,1,99.0000030212403,2|10,0:0|0:0,0:0:0:0:
317,165,5539,2,0,L|300:262,1,99.0000030212403,2|10,1:2|0:0,0:0:0:0:
269,355,6019,6,0,P|318:353|366:365,1,99.0000030212403,6|10,1:2|0:0,0:0:0:0:
412,382,6379,1,2,0:0:0:0:
481,310,6619,2,0,P|497:257|485:210,1,99.0000030212403,2|2,1:2|1:2,0:0:0:0:
459,174,6979,2,0,B|425:183|425:183|375:137,1,99.0000030212403,2|10,0:0|0:0,0:0:0:0:
354,43,7459,2,0,B|307:0|307:0|273:8,1,99.0000030212403,2|10,1:2|0:0,0:0:0:0:
173,24,7939,6,0,P|192:69|230:99,1,99.0000030212403,2|10,1:2|0:0,0:0:0:0:
275,121,8299,1,2,0:0:0:0:
208,193,8539,1,2,1:2:0:0:
273,267,8779,2,0,B|307:292|301:395|151:368,1,198.000006042481,2|2,1:2|0:0,0:0:0:0:
125,356,9379,2,0,P|129:326|139:294,2,49.5000015106202,2|2|10,1:2|1:2|0:0,0:0:0:0:
32,318,9859,6,0,P|38:273|28:214,1,99.0000030212403,6|10,1:2|0:0,0:0:0:0:
12,173,10219,1,2,0:0:0:0:
53,83,10459,2,0,P|101:86|142:61,1,99.0000030212403,2|2,1:2|1:2,0:0:0:0:
177,25,10819,2,0,L|193:138,1,99.0000030212403,2|10,0:0|0:0,0:0:0:0:
118,190,11299,2,0,L|134:303,1,99.0000030212403,2|10,1:2|0:0,0:0:0:0:
177,376,11779,6,0,P|213:343|272:336,1,99.0000030212403,2|10,1:2|0:0,0:0:0:0:
310,340,12139,1,2,0:0:0:0:
402,374,12379,2,0,P|452:359|485:315,1,99.0000030212403,2|2,1:2|1:2,0:0:0:0:
492,276,12739,2,0,L|478:177,1,99.0000030212403,2|10,0:0|0:0,0:0:0:0:
379,176,13219,2,0,L|392:274,1,99.0000030212403,2|10,1:2|0:0,0:0:0:0:
401,374,13699,6,0,P|359:356|297:352,1,99.0000030212403,6|10,1:2|0:0,0:0:0:0:
257,355,14059,1,2,0:0:0:0:
159,370,14299,2,0,P|109:370|64:351,1,99.0000030212403,2|2,1:2|1:2,0:0:0:0:
29,316,14659,2,0,B|59:292|59:292|51:231,1,99.0000030212403,2|10,0:0|0:0,0:0:0:0:
1,146,15139,2,0,B|-6:85|-6:85|23:61,1,99.0000030212403,2|10,1:2|0:0,0:0:0:0:
117,30,15619,6,0,L|170:37,2,49.5000015106202,6|2|10,1:2|0:0|0:0,0:0:0:0:
137,127,16099,2,0,L|190:134,2,49.5000015106202,6|2|10,1:2|1:2|0:0,0:0:0:0:
157,224,16579,2,0,L|210:231,1,49.5000015106202,6|2,1:2|1:2,0:0:0:0:
279,163,16939,2,0,L|377:175,1,99.0000030212403,2|8,1:2|0:0,0:0:0:0:
426,182,17299,1,8,0:0:0:0:
488,263,17539,6,0,P|451:295|427:345,1,85.4999977169037,6|10,1:2|0:0,0:0:0:0:
339,339,18019,2,0,P|350:359|354:385,2,42.7499988584519,2|0|10,1:2|1:2|0:0,0:0:0:0:
253,300,18499,2,0,P|219:326|178:337,1,85.4999977169037,2|10,0:0|0:0,0:0:0:0:
84,332,18979,1,2,1:2:0:0:
136,253,19219,1,10,0:0:0:0:
88,172,19459,6,0,L|99:71,1,85.4999977169037,2|10,1:2|0:0,0:0:0:0:
181,44,19939,2,0,L|175:-6,2,42.7499988584519,2|2|10,1:2|1:2|0:0,0:0:0:0:
257,98,20419,2,0,L|247:182,2,85.4999977169037,2|10|2,0:0|0:0|1:2,0:0:0:0:
340,54,21139,2,0,L|392:61,1,42.7499988584519,10|2,0:0|0:0,0:0:0:0:
429,70,21379,6,0,P|413:111|418:155,1,90,6|10,1:2|0:0,0:0:0:0:
479,233,21859,2,0,P|505:268|511:312,1,90,0|8,1:2|0:0,0:0:0:0:
438,380,22339,2,0,L|339:370,1,90,2|10,0:0|0:0,0:0:0:0:
312,336,22699,2,0,L|213:346,1,90,0|2,0:0|1:2,0:0:0:0:
172,350,23059,1,10,0:0:0:0:
75,369,23299,6,0,P|77:325|96:285,1,90,2|10,1:2|0:0,0:0:0:0:
165,213,23779,2,0,P|163:168|144:128,1,90,0|8,1:2|0:0,0:0:0:0:
88,45,24259,2,0,L|187:35,1,90,2|10,0:0|0:0,0:0:0:0:
217,65,24619,2,0,L|316:55,1,90,0|2,0:0|1:2,0:0:0:0:
347,84,24979,1,10,0:0:0:0:
443,61,25219,6,0,B|454:196|338:153|341:299,1,270,6|8,1:2|0:0,0:0:0:0:
264,360,26179,2,0,P|225:338|180:334,1,90,2|10,0:0|0:0,0:0:0:0:
133,349,26539,2,0,P|94:372|50:377,1,90,0|2,0:0|1:2,0:0:0:0:
5,356,26899,1,10,0:0:0:0:
41,262,27139,6,0,L|33:217,1,45,2|2,1:2|0:0,0:0:0:0:
63,122,27499,1,2,0:0:0:0:
160,139,27739,1,2,1:2:0:0:
257,156,27979,2,0,P|241:236|344:241,1,180,2|2,1:2|0:0,0:0:0:0:
363,236,28579,2,0,P|364:218|372:191,2,45,2|0|10,1:2|1:2|0:0,0:0:0:0:
434,297,29059,6,0,P|457:339|457:382,2,85.4999977169037,6|10|2,1:2|0:0|1:2,0:0:0:0:
365,362,29779,1,10,0:0:0:0:
274,341,30019,2,0,L|159:354,2,85.4999977169037,2|10|2,0:0|0:0|1:2,0:0:0:0:
277,247,30739,2,0,L|219:253,1,42.7499988584519,10|2,0:0|0:0,0:0:0:0:
187,258,30979,5,2,1:2:0:0:
105,305,31219,1,10,0:0:0:0:
51,226,31459,2,0,P|60:184|64:141,1,85.4999977169037,2|10,1:2|0:0,0:0:0:0:
66,47,31939,2,0,L|-1:60,2,42.7499988584519,2|2|10,0:0|1:2|0:0,0:0:0:0:
151,99,32419,1,10,0:0:0:0:
151,98,32539,2,0,P|189:81|231:81,1,85.4999977169037,2|0,0:0|0:0,0:0:0:0:
279,97,32899,6,0,P|300:135|342:148,1,90,6|10,1:2|0:0,0:0:0:0:
391,138,33259,1,2,0:0:0:0:
383,236,33499,2,0,L|372:351,1,90,2|2,1:2|1:2,0:0:0:0:
369,373,33859,2,0,P|330:352|286:346,1,90,2|10,0:0|0:0,0:0:0:0:
224,268,34339,2,0,P|185:291|158:326,1,90,2|10,1:2|0:0,0:0:0:0:
70,371,34819,6,0,P|63:327|54:283,1,90,2|10,1:2|0:0,0:0:0:0:
37,236,35179,1,2,0:0:0:0:
125,190,35419,2,0,P|131:145|140:101,1,90,2|2,1:2|1:2,0:0:0:0:
154,53,35779,2,0,P|193:74|237:80,1,90,2|10,0:0|0:0,0:0:0:0:
300,159,36259,2,0,P|338:135|365:100,1,90,2|10,1:2|0:0,0:0:0:0:
417,15,36739,6,0,B|473:50|463:121|463:121|447:156|447:156|436:195|453:225,1,225,6|2,1:2|1:2,0:0:0:0:
481,256,37459,1,8,0:0:0:0:
420,334,37699,2,0,L|313:318,1,90,2|10,0:0|0:0,0:0:0:0:
258,253,38179,2,0,L|151:269,1,90,2|10,1:2|0:0,0:0:0:0:
82,313,38659,6,0,P|67:296|47:285,1,45,2|2,1:2|0:0,0:0:0:0:
97,199,39019,1,2,0:0:0:0:
24,131,39259,1,2,1:2:0:0:
96,63,39499,2,0,B|143:60|143:60|220:101|220:101|265:99,1,180,2|2,1:2|0:0,0:0:0:0:
314,94,40099,2,0,P|316:71|323:50,2,45,2|0|10,1:2|1:2|0:0,0:0:0:0:
338,190,40579,5,6,1:2:0:0:
255,243,40819,1,10,0:0:0:0:
179,181,41059,2,0,L|89:192,1,90,2|10,1:2|0:0,0:0:0:0:
8,249,41539,1,6,1:2:0:0:
25,346,41779,1,10,0:0:0:0:
118,382,42020,2,0,L|207:370,1,90,2|10,1:2|0:0,0:0:0:0:
290,318,42499,5,6,1:2:0:0:
379,361,42739,1,10,0:0:0:0:
446,288,42979,2,0,P|443:244|436:199,1,90,2|10,1:2|0:0,0:0:0:0:
409,104,43459,1,6,1:2:0:0:
324,155,43699,1,10,0:0:0:0:
234,113,43939,2,0,P|237:68|244:23,1,90,2|10,1:2|0:0,0:0:0:0:
145,17,44419,5,6,1:2:0:0:
72,84,44659,1,10,0:0:0:0:
132,171,44899,1,2,1:2:0:0:
132,171,45019,2,0,L|122:279,1,90,2|2,1:2|0:0,0:0:0:0:
120,308,45379,2,0,P|161:290|205:285,1,90,6|10,1:2|0:0,0:0:0:0:
255,289,45739,1,2,0:0:0:0:
327,356,45979,2,0,P|368:374|412:379,1,90,2|2,0:0|0:0,0:0:0:0:
462,374,46339,6,0,L|449:264,1,90,6|10,1:2|0:0,0:0:0:0:
512,208,46819,1,2,1:2:0:0:
512,208,46939,2,0,L|499:98,1,90,2|2,1:2|0:0,0:0:0:0:
492,69,47299,2,0,P|454:93|410:98,1,90,6|10,1:2|0:0,0:0:0:0:
318,135,47779,2,0,P|280:110|236:105,1,90,10|10,0:3|0:3,0:0:0:0:
167,34,48259,6,0,B|129:75|129:75|146:152,1,135,6|2,1:2|1:2,0:0:0:0:
164,198,48739,2,0,B|181:275|181:275|143:316,1,135,2|2,1:2|0:0,0:0:0:0:
103,347,49219,2,0,B|65:345|65:345|57:339|57:339|7:336,2,90,6|10|2,1:2|0:0|1:2,0:0:0:0:
299,373,50179,6,0,P|299:307|353:270,1,135,6|2,1:2|1:2,0:0:0:0:
400,258,50659,2,0,P|453:220|454:155,1,135,2|2,1:2|0:0,0:0:0:0:
428,112,51139,2,0,P|471:105|502:73,2,90,6|10|2,1:2|0:0|1:2,0:0:0:0:
232,77,52099,6,0,P|241:120|220:158,1,90,6|10,1:2|0:0,0:0:0:0:
140,218,52579,1,2,1:2:0:0:
202,292,52819,1,10,0:0:0:0:
166,383,53059,2,0,L|77:375,1,90,2|10,1:2|0:0,0:0:0:0:
6,305,53539,1,2,1:2:0:0:
32,209,53779,2,0,P|35:173|26:109,1,90,14|6,0:0|1:2,0:0:0:0:
86,39,54259,6,0,B|39:53|39:53|6:29,2,90,10|10|10,0:0|0:0|0:0,0:0:0:0:
128,128,54979,1,6,1:2:0:0:
366,60,55939,6,0,P|349:105|355:154,1,99.0000030212403,6|10,1:2|0:0,0:0:0:0:
413,246,56419,2,0,P|426:293|416:340,1,99.0000030212403,2|10,1:2|0:0,0:0:0:0:
315,382,56899,1,2,1:2:0:0:
228,315,57139,2,0,B|174:320|174:320|144:340|144:340|79:347,1,148.50000453186,10|2,0:0|1:2,0:0:0:0:
31,350,57619,1,10,0:0:0:0:
49,243,57859,6,0,P|27:199|30:150,1,99.0000030212403,2|10,1:2|0:0,0:0:0:0:
116,82,58339,2,0,P|164:85|205:112,1,99.0000030212403,2|10,1:2|0:0,0:0:0:0:
220,220,58819,2,0,P|204:238|191:259,1,49.5000015106202,2|0,1:2|0:0,0:0:0:0:
170,310,59059,1,10,0:0:0:0:
251,381,59299,2,0,L|359:367,1,99.0000030212403,2|10,1:2|0:0,0:0:0:0:
457,371,59779,6,0,P|437:327|443:278,1,99.0000030212403,6|10,1:2|0:0,0:0:0:0:
488,179,60259,2,0,P|503:132|492:84,1,99.0000030212403,2|10,1:2|0:0,0:0:0:0:
460,48,60619,1,2,1:2:0:0:
460,47,60739,2,0,P|444:30|432:2,2,49.5000015106202,2|2|10,0:0|1:2|0:0,0:0:0:0:
371,110,61219,1,2,1:2:0:0:
270,67,61459,1,10,0:0:0:0:
190,141,61699,6,0,L|68:134,1,99.0000030212403,2|10,1:2|0:0,0:0:0:0:
36,129,62059,1,2,0:0:0:0:
21,236,62299,2,0,P|21:286|52:341,1,99.0000030212403,2|2,1:2|1:2,0:0:0:0:
89,356,62659,2,0,L|188:350,1,99.0000030212403,2|14,0:0|0:0,0:0:0:0:
282,296,63139,1,2,1:2:0:0:
376,350,63379,1,14,0:0:0:0:
470,295,63619,6,0,L|476:196,1,99.0000030212403,6|10,1:2|0:0,0:0:0:0:
373,143,64099,2,0,L|367:242,1,99.0000030212403,2|10,1:2|0:0,0:0:0:0:
376,350,64579,1,2,1:2:0:0:
282,296,64819,2,0,P|213:277|146:309,1,148.50000453186,10|2,0:0|1:2,0:0:0:0:
117,355,65299,1,10,0:0:0:0:
58,263,65539,6,0,B|38:232|38:232|48:171,1,99.0000030212403,2|10,1:2|0:0,0:0:0:0:
144,120,66019,2,0,B|201:141|201:141|218:174,1,99.0000030212403,2|10,1:2|0:0,0:0:0:0:
268,272,66499,2,0,L|319:245,1,49.5000015106202,2|0,1:2|0:0,0:0:0:0:
361,225,66739,1,10,0:0:0:0:
459,269,66979,2,0,P|467:220|455:172,1,99.0000030212403,2|10,1:2|0:0,0:0:0:0:
388,87,67459,6,0,L|393:31,2,49.5000015106202,6|2|10,1:2|0:0|0:0,0:0:0:0:
295,144,67939,1,2,1:2:0:0:
238,51,68179,2,0,L|182:46,1,49.5000015106202,10|2,0:0|1:2,0:0:0:0:
134,39,68419,2,0,P|134:93|107:130,1,99.0000030212403,2|10,0:0|0:0,0:0:0:0:
14,183,68899,1,2,1:2:0:0:
84,265,69139,1,10,0:0:0:0:
26,357,69379,6,0,P|72:373|120:367,1,99.0000030212403,2|10,1:2|0:0,0:0:0:0:
165,336,69739,1,2,0:0:0:0:
255,275,69979,2,0,P|301:258|349:264,1,99.0000030212403,2|2,1:2|1:2,0:0:0:0:
401,282,70339,2,0,L|412:180,1,99.0000030212403,2|14,0:0|0:0,0:0:0:0:
425,75,70819,1,2,1:2:0:0:
317,60,71059,1,14,0:0:0:0:
208,44,71299,6,0,P|193:90|157:123,1,99.0000030212403,6|10,1:2|0:0,0:0:0:0:
48,136,71779,2,0,P|62:182|98:215,1,99.0000030212403,2|10,1:2|0:0,0:0:0:0:
165,302,72259,1,2,1:2:0:0:
258,246,72499,2,0,B|357:221|355:292|449:270,1,198.000006042481,10|10,0:0|0:0,0:0:0:0:
416,166,73219,6,0,L|434:57,1,99.0000030212403,2|10,1:2|0:0,0:0:0:0:
444,18,73579,1,0,0:0:0:0:
443,18,73699,2,0,P|397:33|347:33,1,99.0000030212403,2|10,1:2|0:0,0:0:0:0:
241,9,74179,2,0,P|191:8|144:24,1,99.0000030212403,2|10,1:2|0:0,0:0:0:0:
58,90,74659,1,2,1:2:0:0:
120,178,74899,1,10,0:0:0:0:
50,262,75139,6,0,L|67:365,1,99.0000030212403,6|10,1:2|0:0,0:0:0:0:
174,377,75619,2,0,L|157:279,1,99.0000030212403,2|10,1:2|0:0,0:0:0:0:
120,178,76099,1,2,0:0:0:0:
227,195,76339,2,8,B|278:208|321:178|321:178|340:122|392:108,1,198.000006042481,10|10,0:0|0:0,0:0:0:0:
487,152,77059,6,0,P|492:200|474:246,1,99.0000030212403,2|10,1:2|0:0,0:0:0:0:
442,290,77419,1,0,0:0:0:0:
442,290,77539,2,0,P|396:271|347:277,1,99.0000030212403,2|10,1:2|0:0,0:0:0:0:
250,326,78019,2,0,P|204:344|155:338,1,99.0000030212403,2|10,0:0|0:0,0:0:0:0:
66,275,78499,1,2,1:2:0:0:
130,187,78739,1,10,0:0:0:0:
93,84,78979,6,0,B|120:70|120:70|187:89,1,99.0000030212403,6|10,1:2|0:0,0:0:0:0:
288,124,79459,2,0,B|355:143|355:143|382:129,1,99.0000030212403,2|10,1:2|0:0,0:0:0:0:
472,69,79939,1,2,1:2:0:0:
511,168,80179,2,8,P|505:264|427:319,1,198.000006042481,10|10,0:0|0:0,0:0:0:0:
326,362,80899,6,0,P|296:323|249:307,1,99.0000030212403,2|10,1:2|0:0,0:0:0:0:
199,312,81259,1,0,0:0:0:0:
199,312,81379,2,0,L|208:206,1,99.0000030212403,2|10,1:2|0:0,0:0:0:0:
266,122,81859,1,2,1:2:0:0:
172,65,82099,2,0,B|133:44|133:44|84:49|49:103|53:159,1,198.000006042481,10|10,0:0|0:0,0:0:0:0:
7,258,82819,6,0,P|55:248|103:257,1,99.0000030212403,6|10,1:2|0:0,0:0:0:0:
199,312,83299,2,0,P|247:320|295:311,1,99.0000030212403,2|10,1:2|0:0,0:0:0:0:
391,259,83779,1,2,0:0:0:0:
488,306,84019,2,0,P|445:250|468:182,1,148.50000453186,10|2,0:0|1:2,0:0:0:0:
512,150,84499,6,0,B|411:207|335:127|347:120|256:35|144:92,1,396.000012084961,10|10,0:0|0:0,0:0:0:0:
63,164,85699,2,0,P|98:198|114:245,1,99.0000030212403,2|10,0:0|0:0,0:0:0:0:
102,352,86179,1,6,1:2:0:0:
204,315,86419,1,14,0:0:0:0:
290,381,86659,6,0,L|387:365,1,99.0000030212403,6|10,1:2|0:0,0:0:0:0:
404,258,87139,2,0,L|306:273,1,99.0000030212403,2|10,1:2|0:0,0:0:0:0:
204,315,87619,1,2,1:2:0:0:
137,228,87859,2,0,B|143:167|143:167|159:139|159:139|165:84,1,148.50000453186,10|2,0:0|1:2,0:0:0:0:
170,30,88339,1,10,0:0:0:0:
275,56,88579,6,0,P|323:53|365:27,2,99.0000030212403,2|10|2,1:2|0:0|1:2,0:0:0:0:
170,30,89299,1,10,0:0:0:0:
69,71,89539,2,0,P|63:47|54:24,2,49.5000015106202,2|2|8,1:2|0:0|0:0,0:0:0:0:
66,124,89899,2,0,P|29:187|48:256,1,148.50000453186,2|10,0:0|0:0,0:0:0:0:
131,328,90499,6,0,L|199:320,1,49.5000015106202,6|2,1:2|0:0,0:0:0:0:
234,316,90739,1,10,0:0:0:0:
308,236,90979,2,0,L|406:247,1,99.0000030212403,2|10,1:2|0:0,0:0:0:0:
464,260,91339,1,2,1:2:0:0:
463,260,91459,2,0,P|460:284|467:308,2,49.5000015106202,2|2|10,0:0|1:2|0:0,0:0:0:0:
504,158,91939,2,0,P|516:110|502:63,1,99.0000030212403,2|10,1:2|0:0,0:0:0:0:
409,7,92419,6,0,L|294:14,1,99.0000030212403,2|10,1:2|0:0,0:0:0:0:
255,19,92779,1,2,1:2:0:0:
312,111,93019,2,0,P|324:158|310:205,1,99.0000030212403,2|2,1:2|0:0,0:0:0:0:
272,244,93379,2,0,L|157:237,1,99.0000030212403,2|14,1:2|0:0,0:0:0:0:
78,292,93859,1,2,1:2:0:0:
0,215,94099,1,14,0:0:0:0:
64,126,94339,6,0,P|56:78|44:30,1,99.0000030212403,6|10,1:2|0:0,0:0:0:0:
152,14,94819,2,0,P|159:62|171:110,1,99.0000030212403,2|10,1:2|0:0,0:0:0:0:
246,189,95299,1,2,1:2:0:0:
341,139,95539,2,8,P|413:132|460:186,1,148.50000453186,10|2,0:0|1:2,0:0:0:0:
471,240,96019,1,10,0:0:0:0:
414,333,96259,6,0,L|305:323,1,99.0000030212403,2|10,1:2|0:0,0:0:0:0:
240,244,96739,2,0,L|131:254,1,99.0000030212403,2|10,1:2|0:0,0:0:0:0:
38,289,97219,2,0,P|42:265|44:240,1,49.5000015106202,2|0,1:2|0:0,0:0:0:0:
40,186,97459,1,10,0:0:0:0:
14,80,97699,2,0,P|66:98|114:92,1,99.0000030212403,2|10,1:2|0:0,0:0:0:0:
207,48,98179,6,0,P|202:23|200:-1,2,49.5000015106202,6|2|10,1:2|0:0|0:0,0:0:0:0:
300,104,98659,2,0,P|297:153|286:201,1,99.0000030212403,2|10,1:2|0:0,0:0:0:0:
277,259,99019,1,2,1:2:0:0:
277,259,99140,2,0,L|327:252,2,49.5000015106202,2|2|10,0:0|1:2|0:0,0:0:0:0:
187,321,99619,1,14,0:0:0:0:
115,238,99859,1,10,0:0:0:0:
10,267,100099,1,6,1:2:0:0:
10,267,102019,6,0,P|62:253|114:264,1,99.0000030212403,6|10,1:2|0:0,0:0:0:0:
152,279,102379,1,2,0:0:0:0:
237,227,102619,2,0,P|241:178|224:131,1,99.0000030212403,2|2,1:2|1:2,0:0:0:0:
188,95,102979,2,0,L|290:78,1,99.0000030212403,2|10,0:0|0:0,0:0:0:0:
349,2,103459,2,0,L|415:82,1,99.0000030212403,2|10,1:2|0:0,0:0:0:0:
511,95,103939,6,0,L|475:193,1,99.0000030212403,2|10,1:2|0:0,0:0:0:0:
454,232,104299,1,2,0:0:0:0:
485,327,104539,2,0,P|438:333|386:308,1,99.0000030212403,2|2,1:2|1:2,0:0:0:0:
354,281,104899,2,0,L|332:393,1,99.0000030212403,2|10,0:0|0:0,0:0:0:0:
248,331,105379,2,0,L|268:234,1,99.0000030212403,2|10,1:2|0:0,0:0:0:0:
302,141,105859,6,0,P|253:129|216:93,1,99.0000030212403,6|10,1:2|0:0,0:0:0:0:
194,54,106218,1,2,0:0:0:0:
111,109,106459,2,0,P|110:159|87:202,1,99.0000030212403,2|2,1:2|1:2,0:0:0:0:
57,241,106819,2,0,B|88:234|88:234|163:260,1,99.0000030212403,2|10,0:0|0:0,0:0:0:0:
203,342,107299,2,0,B|267:365|267:365|298:358,1,99.0000030212403,2|10,1:2|0:0,0:0:0:0:
394,380,107779,6,0,P|396:334|432:282,1,99.0000030212403,2|10,1:2|0:0,0:0:0:0:
461,257,108139,1,2,0:0:0:0:
421,167,108379,1,2,1:2:0:0:
501,108,108619,2,0,B|463:61|413:68|413:68|303:85,1,198.000006042481,2|2,1:2|0:0,0:0:0:0:
269,88,109219,2,0,L|257:26,2,49.5000015106202,2|2|10,1:2|1:2|0:0,0:0:0:0:
212,169,109699,6,0,L|232:280,1,99.0000030212403,6|10,1:2|0:0,0:0:0:0:
241,316,110059,1,2,0:0:0:0:
319,253,110299,2,0,P|365:236|414:242,1,99.0000030212403,2|2,1:2|1:2,0:0:0:0:
461,257,110659,2,0,L|443:160,1,99.0000030212403,2|10,0:0|0:0,0:0:0:0:
502,81,111139,2,0,L|409:49,1,99.0000030212403,2|10,1:2|0:0,0:0:0:0:
318,11,111619,6,0,P|275:45|229:55,1,99.0000030212403,2|10,1:2|0:0,0:0:0:0:
183,52,111979,1,2,0:0:0:0:
146,144,112219,2,0,P|182:179|198:225,1,99.0000030212403,2|2,1:2|1:2,0:0:0:0:
196,274,112579,2,0,L|304:254,1,99.0000030212403,2|10,0:0|0:0,0:0:0:0:
338,346,113059,2,0,L|241:365,1,99.0000030212403,2|10,1:2|0:0,0:0:0:0:
143,357,113539,6,0,B|75:370|75:370|48:356,1,99.0000030212403,6|10,1:2|0:0,0:0:0:0:
7,330,113899,1,2,0:0:0:0:
46,239,114139,2,0,P|47:190|26:147,1,99.0000030212403,2|2,1:2|1:2,0:0:0:0:
4,101,114499,2,0,B|17:83|17:83|100:76,1,99.0000030212403,2|10,0:0|0:0,0:0:0:0:
183,122,114979,2,0,B|260:116|260:116|273:98,1,99.0000030212403,2|10,1:2|0:0,0:0:0:0:
358,48,115459,6,0,L|331:-10,2,49.5000015106202,6|2|10,1:2|0:0|0:0,0:0:0:0:
437,109,115939,2,0,L|474:57,2,49.5000015106202,6|2|10,1:2|1:2|0:0,0:0:0:0:
424,208,116419,2,0,L|488:214,1,49.5000015106202,6|10,1:2|0:0,0:0:0:0:
487,311,116779,2,0,L|389:303,1,99.0000030212403,10|10,0:0|0:0,0:0:0:0:
339,298,117139,1,10,0:0:0:0:
241,290,117379,1,6,1:2:0:0:
