osu file format v14

[General]
AudioFilename: audio.mp3
AudioLeadIn: 0
PreviewTime:55339
Countdown: 0
SampleSet: Soft
StackLeniency: 0.3
Mode: 0
LetterboxInBreaks: 0
WidescreenStoryboard: 1

[Editor]
DistanceSpacing: 1
BeatDivisor: 4
GridSize: 32
TimelineZoom: 2.3

[Metadata]
Title:Noraneko no Shinryaku (Cut Ver.)
TitleUnicode:野良猫の侵略 (Cut Ver.)
Artist:Iwami Takashi
ArtistUnicode:岩見陸
Creator:FinnaDie
Version:Normal
Source:
Tags:japanese rock jrock j-rock alternate alternator akane-_ akane silent Silent_Rock YOUTH WITHOUT ナナホシ管弦楽団 fujun isei kouyuu p monaka モナカ nanahoshi kangengakudan FujuniseikouyuuP 不純異性交遊P invasion of a stray cat cats short cut
BeatmapID:2681450
BeatmapSetID:1237488

[Difficulty]
HPDrainRate:3
CircleSize:2.2
OverallDifficulty:4.5
ApproachRate:6
SliderMultiplier:0.9
SliderTickRate:1

[Events]
//Background and Video events
0,0,"catanime.jpeg",0,0
//Break Periods
//Storyboard Layer 0 (Background)
//Storyboard Layer 1 (Fail)
//Storyboard Layer 2 (Pass)
//Storyboard Layer 3 (Foreground)
//Storyboard Layer 4 (Overlay)
//Storyboard Sound Samples

[TimingPoints]
1219,240,4,2,1,65,1,0
1219,-100,4,2,1,65,0,0
17539,-100,4,2,1,45,0,0
21379,-100,4,2,1,65,0,0
29059,-100,4,2,1,45,0,0
32899,-100,4,2,1,65,0,0
55939,-100,4,2,1,75,0,1
94339,-100,4,2,1,75,0,1
94459,-100,4,2,1,75,0,1
100099,-100,4,2,1,65,0,0
102019,-100,4,2,1,65,0,0

[Colours]
Combo1 : 255,140,85
Combo2 : 192,192,192
Combo3 : 255,85,85
Combo4 : 119,134,202

[HitObjects]
311,48,1219,5,4,1:2:0:0:
376,109,1459,2,0,B|421:119|421:119|459:99,2,90,8|8|8,0:0|0:0|0:0,0:0:0:0:
290,137,2179,6,0,L|306:270,1,135,6|2,1:2|0:0,0:0:0:0:
348,352,2779,1,2,1:2:0:0:
222,303,3139,2,0,P|178:296|136:313,1,90,2|10,0:0|0:0,0:0:0:0:
63,364,3619,2,0,P|46:322|53:278,1,90,2|10,1:2|0:0,0:0:0:0:
122,221,4099,6,0,B|114:173|114:173|130:133|130:133|122:90,1,135,2|2,1:2|0:0,0:0:0:0:
67,18,4699,1,2,1:2:0:0:
199,42,5059,2,0,L|289:32,1,90,2|10,0:0|0:0,0:0:0:0:
366,77,5539,2,0,L|456:87,1,90,2|10,1:2|0:0,0:0:0:0:
512,157,6019,6,0,B|481:214|481:214|496:282,1,135,6|2,1:2|0:0,0:0:0:0:
444,355,6619,1,2,1:2:0:0:
348,260,6979,2,0,P|304:253|262:270,1,90,2|10,0:0|0:0,0:0:0:0:
208,341,7459,2,0,P|164:348|122:331,1,90,2|10,1:2|0:0,0:0:0:0:
61,265,7939,6,0,L|77:132,1,135,2|2,1:2|0:0,0:0:0:0:
56,43,8539,1,2,1:2:0:0:
142,66,8779,2,0,B|212:85|206:29|271:49,1,135,2|10,1:2|0:0,0:0:0:0:
346,99,9379,1,2,1:2:0:0:
430,69,9619,1,10,0:0:0:0:
490,135,9859,6,0,B|482:183|482:183|498:223|498:223|490:266,1,135,6|2,1:2|0:0,0:0:0:0:
435,338,10459,1,2,1:2:0:0:
324,260,10819,2,0,L|234:270,1,90,2|10,0:0|0:0,0:0:0:0:
171,333,11299,2,0,L|81:323,1,90,2|10,1:2|0:0,0:0:0:0:
29,249,11779,6,0,B|60:192|60:192|45:124,1,135,2|2,1:2|0:0,0:0:0:0:
97,51,12379,1,2,1:2:0:0:
207,129,12739,2,0,P|251:136|293:119,1,90,2|10,0:0|0:0,0:0:0:0:
347,48,13219,2,0,P|390:40|432:57,1,90,2|10,1:2|0:0,0:0:0:0:
380,131,13699,6,0,L|396:264,1,135,6|2,1:2|0:0,0:0:0:0:
438,346,14299,1,2,1:2:0:0:
312,297,14659,2,0,L|222:307,1,90,2|10,0:0|0:0,0:0:0:0:
150,361,15139,2,0,L|60:351,1,90,2|10,1:2|0:0,0:0:0:0:
14,273,15619,5,6,1:2:0:0:
63,197,15859,1,10,0:0:0:0:
12,122,16099,2,0,B|50:102|50:102|95:112,1,90,6|10,1:2|0:0,0:0:0:0:
181,137,16579,1,6,1:2:0:0:
312,107,16939,2,0,B|320:155|320:155|304:195|304:195|312:238,1,135,2|8,1:2|0:0,0:0:0:0:
386,288,17539,6,0,L|475:278,1,90,6|10,1:2|0:0,0:0:0:0:
463,368,18019,2,0,L|374:378,1,90,2|10,1:2|0:0,0:0:0:0:
300,326,18499,2,0,L|211:316,1,90,2|10,0:0|0:0,0:0:0:0:
148,380,18979,1,2,1:2:0:0:
58,369,19219,1,10,0:0:0:0:
3,297,19459,6,0,L|13:208,1,90,2|10,1:2|0:0,0:0:0:0:
74,142,19939,2,0,L|163:152,1,90,2|10,1:2|0:0,0:0:0:0:
219,224,20419,1,2,0:0:0:0:
308,213,20659,2,0,L|397:203,2,90,10|2|10,0:0|1:2|0:0,0:0:0:0:
252,141,21379,6,0,B|244:93|244:93|260:53|260:53|252:10,1,135,6|2,1:2|0:0,0:0:0:0:
167,39,21979,1,2,1:2:0:0:
35,10,22339,2,0,P|28:54|45:96,1,90,2|10,0:0|0:0,0:0:0:0:
116,150,22819,2,0,P|123:194|106:236,1,90,2|10,1:2|0:0,0:0:0:0:
36,291,23299,6,0,P|91:325|161:307,1,135,2|2,1:2|0:0,0:0:0:0:
206,235,23899,1,2,1:2:0:0:
295,335,24259,2,0,L|385:325,1,90,2|10,0:0|0:0,0:0:0:0:
468,358,24739,2,0,P|475:314|458:272,1,90,2|10,1:2|0:0,0:0:0:0:
376,232,25219,6,0,P|293:164|399:145,1,270,6|8,1:2|0:0,0:0:0:0:
482,179,26179,2,0,P|489:135|472:93,1,90,2|10,0:0|0:0,0:0:0:0:
419,20,26659,2,0,L|329:30,1,90,2|10,1:2|0:0,0:0:0:0:
246,64,27139,6,0,L|113:48,1,135,2|2,1:2|0:0,0:0:0:0:
33,92,27739,1,2,1:2:0:0:
110,138,27979,2,0,B|129:208|73:202|93:267,1,135,2|10,1:2|0:0,0:0:0:0:
161,325,28579,1,2,1:2:0:0:
244,291,28819,1,10,0:0:0:0:
312,348,29059,6,0,L|401:338,1,90,6|10,1:2|0:0,0:0:0:0:
411,248,29539,2,0,L|322:238,1,90,2|10,1:2|0:0,0:0:0:0:
240,197,30019,2,0,L|230:108,2,90,2|10|2,0:0|0:0|1:2,0:0:0:0:
244,291,30739,1,10,0:0:0:0:
175,350,30979,6,0,L|86:340,1,90,2|10,1:2|0:0,0:0:0:0:
17,281,31459,2,0,L|27:192,1,90,2|10,1:2|0:0,0:0:0:0:
108,152,31939,1,2,0:0:0:0:
88,64,32179,2,0,L|-1:54,2,90,10|10|10,0:0|0:0|0:0,0:0:0:0:
171,31,32899,6,0,B|219:23|219:23|259:39|259:39|302:31,1,135,6|2,1:2|0:0,0:0:0:0:
389,13,33499,1,2,1:2:0:0:
502,86,33859,2,0,L|492:176,1,90,2|10,0:0|0:0,0:0:0:0:
421,231,34339,2,0,L|431:321,1,90,2|10,1:2|0:0,0:0:0:0:
359,375,34819,6,0,B|302:344|302:344|234:359,1,135,2|2,1:2|0:0,0:0:0:0:
161,307,35419,1,2,1:2:0:0:
31,344,35779,2,0,L|41:254,1,90,2|10,0:0|0:0,0:0:0:0:
100,186,36259,2,0,P|141:202|185:195,1,90,2|10,1:2|0:0,0:0:0:0:
240,123,36739,6,0,P|326:58|318:166,1,270,6|8,1:2|0:0,0:0:0:0:
266,240,37699,2,0,L|276:330,1,90,2|10,0:0|0:0,0:0:0:0:
349,381,38179,2,0,L|439:371,1,90,2|10,1:2|0:0,0:0:0:0:
480,290,38659,6,0,L|464:157,1,135,2|2,1:2|0:0,0:0:0:0:
508,77,39259,1,2,1:2:0:0:
442,15,39499,2,0,B|372:-4|378:52|313:32,1,135,2|10,1:2|0:0,0:0:0:0:
227,5,40099,1,2,1:2:0:0:
161,67,40339,1,10,0:0:0:0:
72,49,40579,6,0,L|61:138,1,90,6|10,1:2|0:0,0:0:0:0:
50,227,41059,1,2,1:2:0:0:
194,334,41539,2,0,L|183:245,1,90,6|10,1:2|0:0,0:0:0:0:
172,156,42019,1,2,1:2:0:0:
286,294,42499,6,0,P|327:310|371:302,1,90,6|10,1:2|0:0,0:0:0:0:
427,228,42979,1,2,1:2:0:0:
313,90,43459,2,0,P|272:74|228:82,1,90,6|10,1:2|0:0,0:0:0:0:
172,156,43939,1,2,1:2:0:0:
337,218,44419,5,6,1:2:0:0:
389,291,44659,1,10,0:0:0:0:
332,361,44899,2,0,P|291:377|247:370,1,90,2|10,1:2|0:0,0:0:0:0:
190,297,45379,2,0,L|100:307,2,90,6|10|0,1:2|0:0|1:2,0:0:0:0:
280,288,46099,1,8,0:0:0:0:
337,218,46339,6,0,L|427:228,2,90,6|10|2,1:2|0:0|1:2,0:0:0:0:
284,144,47059,1,8,0:0:0:0:
194,135,47299,2,0,L|104:125,1,90,6|10,1:2|0:0,0:0:0:0:
23,165,47779,1,10,0:3:0:0:
69,241,48019,1,10,0:3:0:0:
17,314,48259,6,0,P|58:330|102:323,1,90,6|8,1:2|0:0,0:0:0:0:
157,251,48739,2,0,L|247:261,1,90,2|8,1:2|0:0,0:0:0:0:
315,318,49219,2,0,L|405:308,2,90,6|10|2,1:2|0:0|1:2,0:0:0:0:
216,167,50179,6,0,L|126:157,1,90,6|8,1:2|0:0,0:0:0:0:
52,106,50659,2,0,P|35:147|43:190,1,90,2|8,1:2|0:0,0:0:0:0:
115,245,51139,2,0,L|105:335,2,90,6|10|2,1:2|0:0|1:2,0:0:0:0:
232,107,52099,6,0,L|322:97,1,90,6|10,1:2|0:0,0:0:0:0:
392,154,52579,1,2,1:2:0:0:
335,224,52819,1,10,0:0:0:0:
387,297,53059,2,0,P|346:313|302:306,1,90,2|10,1:2|0:0,0:0:0:0:
245,233,53539,1,2,1:2:0:0:
155,223,53779,2,0,L|65:213,1,90,14|6,0:0|1:2,0:0:0:0:
4,148,54259,6,0,B|-6:103|-6:103|14:65,2,90,10|10|10,0:0|0:0|0:0,0:0:0:0:
65,213,54979,1,6,1:2:0:0:
384,46,55939,6,0,L|395:135,1,90,6|10,1:2|0:0,0:0:0:0:
456,201,56419,2,0,L|445:290,1,90,2|10,1:2|0:0,0:0:0:0:
375,347,56899,1,2,1:2:0:0:
311,282,57139,2,0,B|247:271|247:271|193:292|193:292|136:282,1,180,10|10,0:0|0:0,0:0:0:0:
54,316,57859,6,0,P|46:272|62:230,1,90,2|10,1:2|0:0,0:0:0:0:
144,191,58339,2,0,L|133:102,1,90,2|10,1:2|0:0,0:0:0:0:
189,31,58819,1,2,1:2:0:0:
266,76,59059,1,10,0:0:0:0:
342,28,59299,2,0,L|432:38,1,90,2|10,1:2|0:0,0:0:0:0:
484,111,59779,5,6,1:2:0:0:
434,186,60019,2,0,L|445:275,1,90,10|2,0:0|1:2,0:0:0:0:
456,364,60499,1,10,0:0:0:0:
373,327,60739,2,0,P|331:311|287:319,1,90,2|10,0:0|0:0,0:0:0:0:
218,376,61219,2,0,L|129:365,1,90,2|10,1:2|0:0,0:0:0:0:
62,302,61699,6,0,B|93:245|93:245|78:177,1,135,2|2,1:2|0:0,0:0:0:0:
43,93,62299,1,2,1:2:0:0:
132,104,62539,2,0,L|265:120,1,135,2|14,1:2|0:0,0:0:0:0:
355,131,63139,1,2,1:2:0:0:
422,71,63379,1,14,0:0:0:0:
482,140,63619,6,0,L|471:229,1,90,6|10,1:2|0:0,0:0:0:0:
506,312,64099,2,0,P|462:319|420:303,1,90,2|10,1:2|0:0,0:0:0:0:
380,222,64579,1,2,1:2:0:0:
290,233,64819,2,0,L|111:254,1,180,10|10,0:0|0:0,0:0:0:0:
27,219,65539,6,0,P|20:263|36:305,1,90,2|10,1:2|0:0,0:0:0:0:
116,346,66019,2,0,L|205:335,1,90,2|10,1:2|0:0,0:0:0:0:
294,324,66499,1,2,1:2:0:0:
371,369,66739,1,10,0:0:0:0:
448,323,66979,2,0,L|437:234,1,90,2|10,1:2|0:0,0:0:0:0:
426,145,67459,5,6,1:2:0:0:
461,62,67699,2,0,P|417:54|375:70,1,90,10|2,0:0|1:2,0:0:0:0:
335,149,68179,1,10,0:0:0:0:
245,137,68419,2,0,L|156:126,1,90,2|10,0:0|0:0,0:0:0:0:
79,76,68899,2,0,P|63:117|71:161,1,90,2|10,1:2|0:0,0:0:0:0:
141,217,69379,6,0,L|274:233,1,135,2|2,1:2|0:0,0:0:0:0:
344,291,69979,1,2,1:2:0:0:
429,262,70219,2,0,B|460:205|460:205|445:137,1,135,2|14,1:2|0:0,0:0:0:0:
398,58,70819,1,2,1:2:0:0:
319,102,71059,1,14,0:0:0:0:
253,40,71299,6,0,P|209:31|167:47,1,90,6|10,1:2|0:0,0:0:0:0:
112,119,71779,2,0,L|123:208,1,90,2|10,1:2|0:0,0:0:0:0:
134,297,72259,1,2,1:2:0:0:
205,242,72499,2,0,B|296:221|296:221|372:263,1,180,10|10,0:0|0:0,0:0:0:0:
447,314,73219,6,0,P|462:272|454:228,1,90,2|10,1:2|0:0,0:0:0:0:
384,171,73699,2,0,L|395:82,1,90,2|10,1:2|0:0,0:0:0:0:
330,18,74179,2,0,L|240:8,1,90,2|10,1:2|0:0,0:0:0:0:
170,65,74659,1,2,1:2:0:0:
89,25,74899,1,10,0:0:0:0:
19,82,75139,6,0,L|29:172,1,90,6|10,1:2|0:0,0:0:0:0:
109,212,75619,2,0,L|99:302,1,90,2|10,1:2|0:0,0:0:0:0:
163,364,76099,1,2,0:0:0:0:
240,319,76339,2,8,B|304:308|304:308|358:329|358:329|415:319,1,180,10|10,0:0|0:0,0:0:0:0:
489,368,77059,6,0,P|504:326|496:282,1,90,2|10,1:2|0:0,0:0:0:0:
423,230,77539,2,0,L|434:141,1,90,2|10,1:2|0:0,0:0:0:0:
483,65,78019,2,0,P|441:49|397:57,1,90,2|10,0:0|0:0,0:0:0:0:
343,129,78499,1,2,1:2:0:0:
272,73,78739,1,10,0:0:0:0:
183,62,78979,6,0,L|94:51,1,90,6|10,1:2|0:0,0:0:0:0:
17,99,79459,2,0,L|6:188,1,90,2|10,1:2|0:0,0:0:0:0:
54,265,79939,1,2,1:2:0:0:
143,276,80179,2,8,L|321:297,1,180,10|10,0:0|0:0,0:0:0:0:
396,347,80899,6,0,P|411:305|403:261,1,90,2|10,1:2|0:0,0:0:0:0:
329,209,81379,2,0,P|321:165|336:123,1,90,2|10,1:2|0:0,0:0:0:0:
425,107,81859,1,2,1:2:0:0:
366,38,82099,2,0,B|272:12|280:87|194:60,1,180,10|10,0:0|0:0,0:0:0:0:
117,12,82819,6,0,P|102:53|109:97,1,90,6|10,1:2|0:0,0:0:0:0:
182,149,83299,2,0,L|171:238,1,90,2|10,1:2|0:0,0:0:0:0:
160,327,83779,1,2,0:0:0:0:
242,292,84019,2,0,P|285:284|327:299,1,90,10|0,0:0|1:2,0:0:0:0:
389,365,84499,6,0,P|453:243|327:298,1,360,10|10,0:0|0:0,0:0:0:0:
291,381,85699,6,0,L|202:370,1,90,2|10,0:0|0:0,0:0:0:0:
113,359,86179,1,6,1:2:0:0:
167,287,86419,1,14,0:0:0:0:
159,197,86659,6,0,L|148:108,1,90,6|10,1:2|0:0,0:0:0:0:
98,32,87139,2,0,P|139:16|183:24,1,90,2|10,1:2|0:0,0:0:0:0:
239,98,87619,1,2,1:2:0:0:
328,110,87859,2,0,B|392:121|392:121|446:100|446:100|503:110,1,180,10|10,0:0|0:0,0:0:0:0:
490,198,88579,6,0,L|479:287,1,90,2|10,1:2|0:0,0:0:0:0:
418,354,89059,2,0,L|329:343,1,90,2|10,1:2|0:0,0:0:0:0:
271,272,89539,1,2,1:2:0:0:
194,317,89779,1,8,0:0:0:0:
131,252,90019,2,0,L|41:242,1,90,2|10,1:2|0:0,0:0:0:0:
9,157,90499,5,6,1:2:0:0:
72,92,90739,2,0,L|161:103,1,90,10|2,0:0|1:2,0:0:0:0:
250,114,91219,1,10,0:0:0:0:
324,64,91459,2,0,P|340:106|332:150,1,90,2|10,0:0|0:0,0:0:0:0:
260,203,91939,2,0,P|253:247|270:289,1,90,2|10,1:2|0:0,0:0:0:0:
340,344,92419,6,0,P|285:378|215:360,1,135,2|2,1:2|1:2,0:0:0:0:
170,288,93019,1,2,1:2:0:0:
87,324,93259,2,0,B|56:267|56:267|71:199,1,135,2|14,0:0|0:0,0:0:0:0:
95,111,93859,1,2,1:2:0:0:
60,28,94099,1,14,0:0:0:0:
150,40,94339,6,0,B|173:46|173:46|194:41|194:41|213:51|213:51|235:51,1,90,6|10,1:2|0:0,0:0:0:0:
284,127,94819,2,0,L|373:116,1,90,2|10,1:2|0:0,0:0:0:0:
462,103,95299,1,2,1:2:0:0:
450,192,95539,2,8,L|428:370,1,180,10|10,0:0|0:0,0:0:0:0:
338,358,96259,6,0,L|249:347,1,90,2|10,1:2|0:0,0:0:0:0:
181,286,96739,2,0,L|91:296,1,90,2|10,1:2|0:0,0:0:0:0:
22,238,97219,1,2,1:2:0:0:
82,172,97459,1,10,0:0:0:0:
30,99,97699,2,0,P|71:83|115:90,1,90,2|10,1:2|0:0,0:0:0:0:
172,163,98179,5,6,1:2:0:0:
262,173,98419,2,0,L|352:183,1,90,10|2,0:0|1:2,0:0:0:0:
417,245,98899,1,10,0:0:0:0:
347,302,99139,2,0,L|257:312,1,90,2|10,0:0|0:0,0:0:0:0:
167,321,99619,5,14,0:0:0:0:
89,275,99859,1,10,0:0:0:0:
167,230,100099,1,6,1:2:0:0:
167,230,102019,6,0,B|215:222|215:222|255:238|255:238|298:230,1,135,6|2,1:2|0:0,0:0:0:0:
370,175,102619,1,2,1:2:0:0:
489,238,102979,2,0,L|499:328,1,90,2|10,0:0|0:0,0:0:0:0:
422,375,103459,2,0,L|332:365,1,90,2|10,1:2|0:0,0:0:0:0:
263,306,103939,6,0,L|130:322,1,135,2|2,1:2|0:0,0:0:0:0:
48,364,104539,1,2,1:2:0:0:
97,238,104899,2,0,L|87:148,1,90,2|10,0:0|0:0,0:0:0:0:
35,74,105379,2,0,P|76:57|120:64,1,90,2|10,1:2|0:0,0:0:0:0:
176,135,105859,6,0,B|244:150|244:150|301:119,1,135,6|2,1:2|0:0,0:0:0:0:
373,63,106459,1,2,1:2:0:0:
475,150,106819,2,0,L|465:240,1,90,2|10,0:0|0:0,0:0:0:0:
405,307,107299,2,0,P|363:290|319:297,1,90,2|10,1:2|0:0,0:0:0:0:
250,355,107779,6,0,L|117:339,1,135,2|2,1:2|0:0,0:0:0:0:
28,360,108379,1,2,1:2:0:0:
51,274,108619,2,0,B|70:204|14:210|34:145,1,135,2|10,1:2|0:0,0:0:0:0:
84,70,109219,1,2,1:2:0:0:
167,104,109459,1,10,0:0:0:0:
245,60,109699,6,0,B|293:52|293:52|333:68|333:68|376:60,1,135,6|2,1:2|0:0,0:0:0:0:
448,5,110299,1,2,1:2:0:0:
424,137,110659,2,0,L|434:227,1,90,2|10,0:0|0:0,0:0:0:0:
486,301,111139,2,0,P|444:317|400:310,1,90,2|10,1:2|0:0,0:0:0:0:
345,240,111619,6,0,B|277:225|277:225|220:256,1,135,2|2,1:2|0:0,0:0:0:0:
148,312,112219,1,2,1:2:0:0:
59,210,112579,2,0,L|69:120,1,90,2|10,0:0|0:0,0:0:0:0:
35,36,113059,2,0,P|79:29|121:46,1,90,2|10,1:2|0:0,0:0:0:0:
160,126,113539,6,0,L|293:110,1,135,6|2,1:2|0:0,0:0:0:0:
375,68,114139,1,2,1:2:0:0:
326,194,114499,2,0,P|319:238|336:280,1,90,2|10,0:0|0:0,0:0:0:0:
387,353,114979,2,0,P|345:370|301:363,1,90,2|10,1:2|0:0,0:0:0:0:
244,293,115459,5,6,1:2:0:0:
163,335,115699,1,10,0:0:0:0:
98,273,115939,1,6,1:2:0:0:
137,191,116179,1,10,0:0:0:0:
120,103,116419,6,0,B|75:93|75:93|37:113,2,90,6|10|10,1:2|0:0|0:0,0:0:0:0:
137,191,117139,1,10,0:0:0:0:
226,203,117379,1,6,1:2:0:0:
