osu file format v14

[General]
AudioFilename: audio.mp3
AudioLeadIn: 0
PreviewTime: 55339
Countdown: 0
SampleSet: Soft
StackLeniency: 0.4
Mode: 0
LetterboxInBreaks: 0
WidescreenStoryboard: 0

[Editor]
DistanceSpacing: 1.7
BeatDivisor: 4
GridSize: 32
TimelineZoom: 2.3

[Metadata]
Title:Noraneko no Shinryaku (Cut Ver.)
TitleUnicode:野良猫の侵略 (Cut Ver.)
Artist:Iwami Takashi
ArtistUnicode:岩見陸
Creator:FinnaDie
Version:Expert
Source:
Tags:japanese rock jrock j-rock alternate alternator akane-_ akane silent Silent_Rock YOUTH WITHOUT ナナホシ管弦楽団 fujun isei kouyuu p monaka モナカ nanahoshi kangengakudan FujuniseikouyuuP 不純異性交遊P invasion of a stray cat cats short cut
BeatmapID:2572132
BeatmapSetID:1237488

[Difficulty]
HPDrainRate:5.2
CircleSize:4
OverallDifficulty:8.5
ApproachRate:9.3
SliderMultiplier:1.7
SliderTickRate:1

[Events]
//Background and Video events
0,0,"catanime.jpeg",0,0
//Break Periods
//Storyboard Layer 0 (Background)
//Storyboard Layer 1 (Fail)
//Storyboard Layer 2 (Pass)
//Storyboard Layer 3 (Foreground)
//Storyboard Layer 4 (Overlay)
//Storyboard Sound Samples

[TimingPoints]
1219,240,4,2,1,65,1,0
1219,-100,4,2,1,65,0,0
17539,-117.647058823529,4,2,1,45,0,0
21379,-100,4,2,1,65,0,0
29059,-117.647058823529,4,2,1,45,0,0
32899,-100,4,2,1,65,0,0
55939,-90.9090909090909,4,2,1,75,0,1
94339,-80,4,2,1,75,0,1
94459,-90.9090909090909,4,2,1,75,0,1
100099,-90.9090909090909,4,2,1,65,0,0
102019,-100,4,2,1,65,0,0

[Colours]
Combo1 : 255,140,85
Combo2 : 192,192,192
Combo3 : 255,85,85
Combo4 : 119,134,202

[HitObjects]
364,221,1219,5,4,1:2:0:0:
296,158,1339,1,8,0:0:0:0:
296,158,1399,1,8,0:0:0:0:
296,158,1459,2,0,L|212:168,1,85,8|8,0:0|0:0,0:0:0:0:
88,287,1699,1,8,0:0:0:0:
132,364,1819,1,8,0:0:0:0:
218,346,1939,1,8,0:0:0:0:
227,260,2059,1,8,0:0:0:0:
146,220,2179,6,0,P|129:182|132:140,1,85,6|2,1:2|0:0,0:0:0:0:
199,86,2419,1,10,0:0:0:0:
153,14,2539,2,0,L|69:4,1,85,2|0,0:0|1:2,0:0:0:0:
47,149,2779,2,0,L|131:139,1,85,2|8,1:2|0:0,0:0:0:0:
199,86,3019,1,2,1:2:0:0:
271,129,3139,6,0,P|288:167|285:209,1,85,2|0,0:0|1:2,0:0:0:0:
363,242,3379,2,0,P|338:275|301:294,1,85,10|0,0:0|0:0,0:0:0:0:
120,279,3619,1,2,1:2:0:0:
120,279,3739,1,2,1:2:0:0:
120,279,3859,2,0,L|204:269,1,85,10|0,0:0|0:0,0:0:0:0:
54,333,4099,6,0,P|37:295|40:253,1,85,2|2,1:2|0:0,0:0:0:0:
107,199,4339,1,10,0:0:0:0:
78,118,4459,2,0,P|43:94|1:89,1,85,2|0,0:0|1:2,0:0:0:0:
152,68,4699,2,0,P|186:91|228:96,1,85,2|8,1:2|0:0,0:0:0:0:
304,57,4939,1,2,1:2:0:0:
376,103,5059,6,0,L|386:187,1,85,2|0,0:0|1:2,0:0:0:0:
491,300,5299,2,0,L|501:216,1,85,10|0,0:0|0:0,0:0:0:0:
305,201,5539,2,0,P|343:184|385:187,1,85,2|2,1:2|1:2,0:0:0:0:
491,300,5779,2,0,P|453:317|411:314,1,85,10|0,0:0|0:0,0:0:0:0:
227,165,6019,6,0,P|219:205|232:246,1,85,6|2,1:2|0:0,0:0:0:0:
312,278,6259,1,10,0:0:0:0:
246,332,6379,2,0,L|162:342,1,85,2|0,0:0|1:2,0:0:0:0:
113,195,6619,2,0,P|121:235|108:276,1,85,2|8,1:2|0:0,0:0:0:0:
35,229,6859,1,2,1:2:0:0:
44,144,6979,6,0,P|75:117|117:109,1,85,2|0,0:0|1:2,0:0:0:0:
175,25,7219,2,0,P|206:51|248:59,1,85,10|0,0:0|0:0,0:0:0:0:
281,224,7459,1,2,1:2:0:0:
281,224,7579,1,2,1:2:0:0:
281,224,7699,2,0,L|271:140,1,85,10|0,0:0|0:0,0:0:0:0:
467,83,7939,6,0,L|457:167,1,85,2|2,1:2|0:0,0:0:0:0:
447,252,8179,1,10,0:0:0:0:
374,296,8299,2,0,P|404:325|444:337,1,85,2|0,0:0|1:2,0:0:0:0:
292,332,8539,2,0,P|262:303|222:291,1,85,2|8,1:2|0:0,0:0:0:0:
85,358,8779,5,2,1:2:0:0:
136,300,8899,5,2,0:0:0:0:
131,265,9019,1,2,1:2:0:0:
80,207,9139,5,10,0:0:0:0:
83,171,9259,1,2,0:0:0:0:
136,114,9379,5,2,1:2:0:0:
132,81,9499,1,2,1:2:0:0:
127,46,9619,2,0,L|211:56,1,85,10|8,0:0|0:0,0:0:0:0:
396,9,9859,6,0,L|406:93,1,85,6|2,1:2|0:0,0:0:0:0:
416,178,10099,1,10,0:0:0:0:
479,234,10219,2,0,L|469:318,1,85,2|0,0:0|1:2,0:0:0:0:
315,299,10459,2,0,P|355:303|390:328,1,85,2|8,1:2|0:0,0:0:0:0:
321,381,10699,1,2,1:2:0:0:
243,347,10819,6,0,P|227:308|231:266,1,85,2|0,0:0|1:2,0:0:0:0:
154,230,11059,2,0,P|180:197|217:180,1,85,10|0,0:0|0:0,0:0:0:0:
366,249,11299,1,2,1:2:0:0:
366,249,11419,1,2,1:2:0:0:
366,249,11539,2,0,P|374:209|361:168,1,85,10|0,0:0|0:0,0:0:0:0:
198,51,11779,6,0,L|282:41,1,85,2|2,1:2|0:0,0:0:0:0:
359,77,12019,1,10,0:0:0:0:
424,23,12139,2,0,P|441:59|438:102,1,85,2|0,0:0|1:2,0:0:0:0:
288,122,12379,2,0,P|274:82|282:40,1,85,2|8,1:2|0:0,0:0:0:0:
359,77,12619,1,2,1:2:0:0:
361,168,12739,6,0,P|330:195|288:203,1,85,2|0,0:0|1:2,0:0:0:0:
230,287,12979,2,0,P|199:261|157:253,1,85,10|0,0:0|0:0,0:0:0:0:
39,372,13219,2,0,L|49:288,1,85,2|2,1:2|1:2,0:0:0:0:
146,168,13459,2,0,L|156:252,1,85,10|0,0:0|0:0,0:0:0:0:
91,103,13699,6,0,P|127:85|170:88,1,85,6|2,1:2|0:0,0:0:0:0:
228,150,13939,1,10,0:0:0:0:
303,111,14059,2,0,L|292:27,1,85,2|0,0:0|1:2,0:0:0:0:
434,82,14299,2,0,L|424:166,1,85,2|8,1:2|0:0,0:0:0:0:
414,251,14539,1,2,1:2:0:0:
351,309,14659,6,0,P|385:332|427:337,1,85,2|0,0:0|1:2,0:0:0:0:
277,359,14899,2,0,P|242:335|200:330,1,85,10|0,0:0|0:0,0:0:0:0:
58,371,15139,1,2,1:2:0:0:
58,371,15259,1,2,1:2:0:0:
58,371,15379,2,0,L|68:287,1,85,10|0,0:0|0:0,0:0:0:0:
52,133,15619,5,6,1:2:0:0:
89,56,15739,1,2,0:0:0:0:
173,49,15859,1,10,0:0:0:0:
223,118,15979,1,2,0:0:0:0:
188,196,16099,5,6,1:2:0:0:
214,286,16219,1,2,1:2:0:0:
304,310,16339,1,10,0:0:0:0:
371,244,16459,1,10,0:0:0:0:
348,153,16579,5,6,1:2:0:0:
348,153,16699,2,0,L|264:143,1,85,2|0,1:2|0:0,0:0:0:0:
129,296,16939,2,0,L|213:286,1,85,2|0,1:2|0:0,0:0:0:0:
100,382,17179,1,8,0:0:0:0:
61,355,17299,1,8,0:0:0:0:
40,314,17419,1,8,0:0:0:0:
38,268,17539,6,0,L|46:196,1,72.2500013780594,6|0,1:2|0:0,0:0:0:0:
154,136,17779,2,0,L|162:207,1,72.2500013780594,10|0,0:0|0:0,0:0:0:0:
107,72,18019,2,0,P|139:57|175:60,1,72.2500013780594,2|0,1:2|1:2,0:0:0:0:
285,113,18259,2,0,P|317:127|353:124,1,72.2500013780594,10|0,0:0|1:2,0:0:0:0:
454,43,18499,6,0,L|445:114,1,72.2500013780594,2|0,0:0|1:2,0:0:0:0:
365,208,18739,2,0,L|373:279,1,72.2500013780594,10|0,0:0|0:0,0:0:0:0:
478,357,18979,2,0,L|486:285,1,72.2500013780594,2|0,1:2|1:2,0:0:0:0:
390,368,19219,1,10,0:0:0:0:
390,368,19339,1,2,0:0:0:0:
390,368,19459,2,0,L|318:376,1,72.2500013780594,2|0,1:2|0:0,0:0:0:0:
212,313,19699,6,0,L|204:241,1,72.2500013780594,10|0,0:0|0:0,0:0:0:0:
101,363,19939,1,2,1:2:0:0:
101,363,20059,1,2,1:2:0:0:
101,363,20179,2,0,L|109:291,1,72.2500013780594,10|0,0:0|1:2,0:0:0:0:
275,249,20419,2,0,L|204:241,1,72.2500013780594,2|0,0:0|1:2,0:0:0:0:
356,228,20659,6,0,P|360:264|345:297,1,72.2500013780594,10|0,0:0|0:0,0:0:0:0:
299,167,20899,2,0,P|328:147|364:144,1,72.2500013780594,2|0,1:2|1:2,0:0:0:0:
478,236,21139,1,10,0:0:0:0:
478,236,21259,1,2,0:0:0:0:
478,236,21379,6,0,L|468:152,1,85,6|2,1:2|0:0,0:0:0:0:
309,82,21619,1,10,0:0:0:0:
309,82,21739,2,0,L|299:166,1,85,2|0,0:0|1:2,0:0:0:0:
362,17,21979,2,0,P|326:-1|283:2,1,85,2|8,1:2|0:0,0:0:0:0:
219,151,22219,1,2,1:2:0:0:
219,151,22339,6,0,P|255:169|298:166,1,85,2|0,0:0|1:2,0:0:0:0:
171,78,22579,2,0,P|142:109|132:150,1,85,10|0,0:0|0:0,0:0:0:0:
48,154,22819,1,2,1:2:0:0:
48,154,22939,1,2,1:2:0:0:
48,154,23059,2,0,P|61:193|90:222,1,85,10|0,0:0|0:0,0:0:0:0:
127,382,23299,6,0,P|118:342|131:301,1,85,2|2,1:2|0:0,0:0:0:0:
288,357,23539,1,10,0:0:0:0:
288,357,23659,2,0,L|205:347,1,85,2|0,0:0|1:2,0:0:0:0:
325,254,23899,2,0,L|240:264,1,85,2|8,1:2|0:0,0:0:0:0:
404,290,24139,1,2,1:2:0:0:
404,290,24259,6,0,P|413:250|400:209,1,85,2|0,0:0|1:2,0:0:0:0:
284,69,24499,2,0,P|271:107|279:150,1,85,10|0,0:0|0:0,0:0:0:0:
436,125,24739,2,0,L|351:115,1,85,2|2,1:2|1:2,0:0:0:0:
509,88,24979,2,0,P|517:129|504:169,1,85,10|0,0:0|0:0,0:0:0:0:
319,300,25219,6,0,L|403:289,1,85,6|2,1:2|0:0,0:0:0:0:
240,263,25459,1,10,0:0:0:0:
240,263,25579,2,0,P|231:303|244:344,1,85,2|0,0:0|1:2,0:0:0:0:
163,213,25819,2,0,P|171:171|159:130,1,85,2|8,1:2|0:0,0:0:0:0:
38,46,26059,1,2,1:2:0:0:
38,46,26179,6,0,L|123:56,1,85,2|0,0:0|1:2,0:0:0:0:
4,186,26419,2,0,L|88:175,1,85,10|0,0:0|0:0,0:0:0:0:
146,326,26659,1,2,1:2:0:0:
146,326,26779,1,2,1:2:0:0:
146,326,26899,2,0,P|137:284|150:244,1,85,10|0,0:0|0:0,0:0:0:0:
222,289,27139,5,2,1:2:0:0:
271,219,27259,2,0,L|355:229,1,85,2|8,0:0|0:0,0:0:0:0:
454,99,27499,2,0,L|370:109,1,85,2|0,0:0|1:2,0:0:0:0:
429,323,27739,2,0,L|439:239,1,85,2|8,1:2|0:0,0:0:0:0:
275,34,27979,1,2,1:2:0:0:
275,34,28099,6,0,L|285:118,1,85,2|2,0:0|1:2,0:0:0:0:
454,99,28339,2,0,L|370:109,1,85,10|2,0:0|0:0,0:0:0:0:
260,343,28579,2,0,L|344:333,1,85,2|0,1:2|1:2,0:0:0:0:
409,196,28819,1,10,0:0:0:0:
409,196,28939,1,10,0:0:0:0:
409,196,29059,6,0,L|337:188,1,72.2500013780594,6|0,1:2|0:0,0:0:0:0:
489,173,29299,2,0,P|493:208|478:241,1,72.2500013780594,10|0,0:0|0:0,0:0:0:0:
325,256,29539,2,0,P|322:220|337:187,1,72.2500013780594,2|0,1:2|1:2,0:0:0:0:
443,104,29779,1,10,0:0:0:0:
443,104,29899,1,2,1:2:0:0:
443,104,30019,6,0,L|371:96,1,72.2500013780594,2|0,0:0|1:2,0:0:0:0:
264,195,30259,2,0,L|336:187,1,72.2500013780594,10|0,0:0|0:0,0:0:0:0:
187,172,30499,2,0,P|183:208|198:241,1,72.2500013780594,2|0,1:2|1:2,0:0:0:0:
244,110,30739,5,10,0:0:0:0:
213,93,30859,1,2,0:0:0:0:
177,90,30979,1,2,1:2:0:0:
144,102,31099,1,2,0:0:0:0:
118,127,31219,1,10,0:0:0:0:
105,160,31339,1,2,0:0:0:0:
107,196,31459,2,0,L|115:268,1,72.2500013780594,2|0,1:2|1:2,0:0:0:0:
268,352,31699,5,10,0:0:0:0:
300,325,31819,1,2,1:2:0:0:
319,286,31939,1,2,0:0:0:0:
319,244,32059,1,2,1:2:0:0:
303,205,32179,1,10,0:0:0:0:
273,175,32299,1,2,0:0:0:0:
231,162,32419,6,0,L|184:167,2,48.1666675853729,10|8|8,0:0|0:0|0:0,0:0:0:0:
319,244,32659,6,0,L|367:249,2,48.1666675853729,10|8|8,0:0|0:0|0:0,0:0:0:0:
444,284,32899,6,0,P|453:244|440:203,1,85,6|2,1:2|0:0,0:0:0:0:
512,155,33139,1,10,0:0:0:0:
512,155,33259,2,0,P|481:127|439:118,1,85,2|0,0:0|1:2,0:0:0:0:
326,6,33499,2,0,P|342:44|336:85,1,85,2|8,1:2|0:0,0:0:0:0:
176,65,33739,1,2,1:2:0:0:
176,65,33859,6,0,L|259:55,1,85,2|0,0:0|1:2,0:0:0:0:
123,139,34099,2,0,L|133:222,1,85,10|0,0:0|0:0,0:0:0:0:
287,271,34339,1,2,1:2:0:0:
287,271,34459,1,2,1:2:0:0:
287,271,34579,2,0,L|202:281,1,85,10|0,0:0|0:0,0:0:0:0:
362,301,34819,6,0,P|368:260|351:222,1,85,2|2,1:2|0:0,0:0:0:0:
298,355,35059,1,10,0:0:0:0:
298,355,35179,2,0,P|331:380|372:385,1,85,2|0,0:0|1:2,0:0:0:0:
431,224,35419,2,0,P|391:211|351:221,1,85,2|8,1:2|0:0,0:0:0:0:
212,365,35659,1,2,1:2:0:0:
212,365,35779,6,0,L|202:282,1,85,2|0,0:0|1:2,0:0:0:0:
74,195,36019,2,0,L|64:278,1,85,10|0,0:0|0:0,0:0:0:0:
46,118,36259,2,0,P|87:112|125:129,1,85,2|2,1:2|1:2,0:0:0:0:
282,272,36499,2,0,P|243:287|202:280,1,85,10|0,0:0|0:0,0:0:0:0:
334,101,36739,6,0,L|345:186,1,85,6|2,1:2|0:0,0:0:0:0:
496,228,36979,1,10,0:0:0:0:
496,228,37099,2,0,L|506:143,1,85,2|0,0:0|1:2,0:0:0:0:
362,24,37339,2,0,P|321:18|283:35,1,85,2|8,1:2|0:0,0:0:0:0:
131,87,37579,1,2,1:2:0:0:
131,87,37699,6,0,P|172:81|210:98,1,85,2|0,0:0|1:2,0:0:0:0:
75,151,37939,2,0,P|49:119|45:77,1,85,10|0,0:0|0:0,0:0:0:0:
167,172,38179,1,2,1:2:0:0:
167,172,38299,1,2,1:2:0:0:
167,172,38419,2,0,L|156:257,1,85,10|0,0:0|0:0,0:0:0:0:
145,340,38659,5,2,1:2:0:0:
224,308,38779,2,0,P|265:302|303:319,1,85,2|8,0:0|0:0,0:0:0:0:
455,379,39019,2,0,L|445:295,1,85,2|0,0:0|1:2,0:0:0:0:
324,97,39259,2,0,L|314:181,1,85,2|8,1:2|0:0,0:0:0:0:
125,264,39499,1,2,1:2:0:0:
125,264,39619,6,0,L|115:180,1,85,2|2,0:0|1:2,0:0:0:0:
95,341,39859,2,0,P|136:347|174:330,1,85,10|2,0:0|0:0,0:0:0:0:
394,190,40099,2,0,P|355:174|314:181,1,85,2|0,1:2|1:2,0:0:0:0:
336,340,40339,1,10,0:0:0:0:
336,340,40459,1,10,0:0:0:0:
336,340,40579,6,0,L|347:257,1,85,6|2,1:2|0:0,0:0:0:0:
215,178,40819,2,0,L|226:261,1,85,10|0,0:0|0:0,0:0:0:0:
257,103,41059,2,0,L|342:91,1,85,2|0,1:2|1:2,0:0:0:0:
431,267,41299,2,0,L|347:255,1,85,10|0,0:0|0:0,0:0:0:0:
507,238,41539,5,6,1:2:0:0:
507,238,41659,1,2,0:0:0:0:
507,238,41779,2,0,P|513:279|496:317,1,85,10|0,0:0|0:0,0:0:0:0:
335,334,42019,2,0,P|329:293|346:255,1,85,2|0,1:2|1:2,0:0:0:0:
495,141,42259,2,0,L|412:130,1,85,10|0,0:0|0:0,0:0:0:0:
309,28,42499,5,6,1:2:0:0:
309,28,42619,1,2,0:0:0:0:
309,28,42739,2,0,L|298:111,1,85,10|0,0:0|0:0,0:0:0:0:
164,52,42979,2,0,L|175:135,1,85,2|0,1:2|1:2,0:0:0:0:
38,237,43219,2,0,P|76:221|117:228,1,85,10|0,0:0|0:0,0:0:0:0:
269,356,43459,5,6,1:2:0:0:
269,356,43579,1,2,0:0:0:0:
269,356,43699,2,0,P|228:362|190:345,1,85,10|0,0:0|0:0,0:0:0:0:
248,194,43939,2,0,L|236:278,1,85,2|0,1:2|1:2,0:0:0:0:
409,349,44179,2,0,L|397:264,1,85,10|0,0:0|0:0,0:0:0:0:
451,112,44419,5,6,1:2:0:0:
416,107,44539,1,2,0:0:0:0:
358,56,44659,5,10,0:0:0:0:
322,59,44779,1,2,1:2:0:0:
260,104,44899,5,2,1:2:0:0:
226,100,45019,1,2,1:2:0:0:
193,96,45139,1,10,0:0:0:0:
158,91,45259,1,2,0:0:0:0:
97,43,45379,6,0,P|81:81|88:122,1,85,6|0,1:2|0:0,0:0:0:0:
13,160,45619,1,10,0:0:0:0:
13,160,45739,2,0,P|37:192|76:207,1,85,2|0,0:0|1:2,0:0:0:0:
154,349,45979,2,0,P|138:311|145:270,1,85,2|8,0:0|0:0,0:0:0:0:
309,291,46219,1,2,0:0:0:0:
309,291,46339,6,0,L|224:303,1,85,6|0,1:2|0:0,0:0:0:0:
385,336,46579,1,10,0:0:0:0:
395,299,46699,1,2,0:0:0:0:
390,263,46819,1,2,1:2:0:0:
373,227,46939,2,0,P|357:189|364:148,1,85,2|8,1:2|0:0,0:0:0:0:
503,77,47179,1,2,0:0:0:0:
503,77,47299,6,0,L|418:65,1,85,6|0,1:2|0:0,0:0:0:0:
288,238,47539,2,0,L|373:226,1,85,10|0,0:0|1:2,0:0:0:0:
228,169,47779,1,10,0:3:0:0:
204,203,47899,1,10,0:3:0:0:
198,244,48019,1,10,0:3:0:0:
211,284,48139,1,10,0:3:0:0:
245,314,48259,6,0,B|201:319|165:291|165:291|138:327|94:332,1,170,6|8,1:2|0:0,0:0:0:0:
13,301,48619,1,2,1:2:0:0:
81,248,48739,2,0,L|60:79,1,170,2|8,1:2|0:0,0:0:0:0:
127,27,49099,1,2,0:0:0:0:
194,79,49219,6,0,L|206:164,1,85,6|0,1:2|0:0,0:0:0:0:
354,200,49459,2,0,L|269:212,1,85,10|0,0:0|0:0,0:0:0:0:
428,231,49699,2,0,P|436:190|420:152,1,85,2|0,1:2|1:2,0:0:0:0:
362,288,49939,1,10,0:0:0:0:
362,288,50059,1,0,0:0:0:0:
362,288,50179,6,0,P|437:318|504:271,1,170,6|8,1:2|0:0,0:0:0:0:
428,231,50539,1,2,1:2:0:0:
354,200,50659,2,0,B|269:206|305:278|209:273,1,170,2|8,1:2|0:0,0:0:0:0:
137,227,51019,1,2,0:0:0:0:
212,188,51139,6,0,L|200:103,1,85,6|0,1:2|0:0,0:0:0:0:
378,38,51379,2,0,L|366:123,1,85,10|0,0:0|0:0,0:0:0:0:
232,31,51619,2,0,P|190:23|152:39,1,85,2|0,1:2|1:2,0:0:0:0:
70,180,51859,1,10,0:0:0:0:
70,180,51979,1,0,0:0:0:0:
70,180,52099,6,0,L|61:95,1,85,6|0,1:2|0:0,0:0:0:0:
37,255,52339,2,0,P|78:263|116:247,1,85,10|0,0:0|0:0,0:0:0:0:
173,381,52579,6,0,P|164:339|180:301,1,85,2|0,1:2|1:2,0:0:0:0:
330,360,52819,2,0,L|245:348,1,85,10|0,0:0|0:0,0:0:0:0:
391,301,53059,6,0,L|403:216,1,85,2|0,1:2|0:0,0:0:0:0:
187,136,53299,2,0,L|199:221,1,85,10|0,0:0|0:0,0:0:0:0:
454,151,53539,6,0,P|415:133|374:139,1,85,2|0,1:2|1:2,0:0:0:0:
170,298,53779,2,0,P|211:303|249:285,1,85,14|0,0:0|0:0,0:0:0:0:
279,106,54019,5,6,1:2:0:0:
221,32,54139,1,10,0:0:0:0:
128,45,54259,1,10,0:0:0:0:
93,132,54379,1,10,0:0:0:0:
149,206,54499,5,10,0:0:0:0:
186,120,54619,1,10,0:0:0:0:
241,222,54739,5,10,0:0:0:0:
279,106,54859,1,10,0:0:0:0:
337,235,54979,5,6,1:2:0:0:
337,235,55939,6,0,L|241:223,1,93.5000028533936,6|0,1:2|0:0,0:0:0:0:
164,73,56179,2,0,L|259:61,1,93.5000028533936,10|0,0:0|0:0,0:0:0:0:
90,36,56419,2,0,P|80:81|99:124,1,93.5000028533936,2|0,1:2|1:2,0:0:0:0:
233,311,56659,2,0,P|251:268|244:223,1,93.5000028533936,10|0,0:0|0:0,0:0:0:0:
77,245,56899,2,0,L|172:256,1,93.5000028533936,2|0,1:2|0:0,0:0:0:0:
18,330,57139,2,0,L|203:352,1,187.000005706787,10|0,0:0|1:2,0:0:0:0:
295,363,57499,5,2,1:2:0:0:
366,303,57619,2,0,L|461:314,1,93.5000028533936,10|0,0:0|0:0,0:0:0:0:
313,229,57859,2,0,L|324:133,1,93.5000028533936,2|0,1:2|0:0,0:0:0:0:
407,91,58099,2,0,P|377:55|333:42,1,93.5000028533936,10|0,0:0|0:0,0:0:0:0:
245,176,58339,2,0,P|290:168|323:136,1,93.5000028533936,2|0,1:2|1:2,0:0:0:0:
172,128,58579,2,0,P|155:171|167:215,1,93.5000028533936,10|0,0:0|0:0,0:0:0:0:
314,314,58819,6,0,P|284:278|240:265,1,93.5000028533936,2|0,1:2|0:0,0:0:0:0:
49,373,59059,1,10,0:0:0:0:
89,288,59179,1,2,0:0:0:0:
143,364,59299,2,0,L|239:353,1,93.5000028533936,2|0,1:2|1:2,0:0:0:0:
392,240,59539,2,0,L|403:336,1,93.5000028533936,10|0,0:0|0:0,0:0:0:0:
467,116,59779,5,6,1:2:0:0:
409,42,59899,1,2,0:0:0:0:
317,55,60019,1,10,0:0:0:0:
280,141,60139,1,2,0:0:0:0:
190,113,60259,2,0,P|170:70|180:25,1,93.5000028533936,2|0,1:2|1:2,0:0:0:0:
319,225,60499,5,10,0:0:0:0:
282,311,60619,1,2,1:2:0:0:
190,324,60739,1,2,0:0:0:0:
132,250,60859,1,2,1:2:0:0:
52,298,60979,2,0,P|42:344|63:385,1,93.5000028533936,10|0,0:0|0:0,0:0:0:0:
190,113,61219,6,0,L|94:102,1,93.5000028533936,2|0,1:2|1:2,0:0:0:0:
224,239,61459,2,0,L|128:250,1,93.5000028533936,10|0,0:0|0:0,0:0:0:0:
298,186,61699,6,0,P|318:229|308:274,1,93.5000028533936,2|0,1:2|0:0,0:0:0:0:
234,331,61939,1,10,0:0:0:0:
320,366,62059,2,0,L|416:355,1,93.5000028533936,2|0,0:0|1:2,0:0:0:0:
507,345,62299,2,0,L|496:249,1,93.5000028533936,2|8,1:2|0:0,0:0:0:0:
434,180,62539,1,2,1:2:0:0:
487,103,62659,6,0,P|445:83|400:92,1,93.5000028533936,2|0,0:0|1:2,0:0:0:0:
211,175,62899,2,0,P|252:194|297:185,1,93.5000028533936,14|0,0:0|0:0,0:0:0:0:
136,55,63139,1,2,1:2:0:0:
54,101,63259,1,2,1:2:0:0:
78,191,63379,2,0,L|67:287,1,93.5000028533936,14|0,0:0|0:0,0:0:0:0:
320,366,63619,6,0,L|309:270,1,93.5000028533936,6|0,1:2|0:0,0:0:0:0:
221,82,63859,2,0,L|210:178,1,93.5000028533936,10|0,0:0|0:0,0:0:0:0:
16,349,64099,2,0,P|58:367|103:358,1,93.5000028533936,2|0,1:2|1:2,0:0:0:0:
297,185,64339,2,0,P|254:166|209:175,1,93.5000028533936,10|0,0:0|0:0,0:0:0:0:
67,283,64579,2,0,L|78:187,1,93.5000028533936,2|0,1:2|0:0,0:0:0:0:
32,20,64819,2,0,P|82:93|172:91,1,187.000005706787,10|0,0:0|1:2,0:0:0:0:
125,8,65179,5,2,1:2:0:0:
218,8,65299,2,0,P|253:36|266:80,1,93.5000028533936,10|0,0:0|0:0,0:0:0:0:
170,252,65539,2,0,P|176:207|208:174,1,93.5000028533936,2|0,1:2|0:0,0:0:0:0:
218,324,65779,2,0,P|176:340|131:329,1,93.5000028533936,10|0,0:0|0:0,0:0:0:0:
258,249,66019,2,0,L|354:260,1,93.5000028533936,2|0,1:2|1:2,0:0:0:0:
439,103,66259,2,0,L|343:114,1,93.5000028533936,10|0,0:0|0:0,0:0:0:0:
421,312,66499,6,0,P|439:270|430:225,1,93.5000028533936,2|0,1:2|0:0,0:0:0:0:
227,164,66739,1,10,0:0:0:0:
169,239,66859,1,2,0:0:0:0:
206,323,66979,2,0,L|110:334,1,93.5000028533936,2|0,1:2|1:2,0:0:0:0:
40,141,67219,2,0,L|136:152,1,93.5000028533936,10|0,0:0|0:0,0:0:0:0:
359,91,67459,5,6,1:2:0:0:
291,26,67579,1,2,0:0:0:0:
209,72,67699,1,10,0:0:0:0:
227,164,67819,1,2,0:0:0:0:
319,176,67939,2,0,P|337:218|328:263,1,93.5000028533936,2|0,1:2|1:2,0:0:0:0:
128,340,68179,5,10,0:0:0:0:
84,255,68299,1,2,1:2:0:0:
134,176,68419,2,0,L|229:163,1,93.5000028533936,2|0,0:0|1:2,0:0:0:0:
420,274,68659,2,0,L|324:263,1,93.5000028533936,10|0,0:0|0:0,0:0:0:0:
502,238,68899,6,0,P|511:283|493:325,1,93.5000028533936,2|0,1:2|1:2,0:0:0:0:
319,350,69139,2,0,P|309:304|327:262,1,93.5000028533936,10|0,0:0|0:0,0:0:0:0:
470,158,69379,6,0,L|374:147,1,93.5000028533936,2|0,1:2|0:0,0:0:0:0:
284,136,69619,1,10,0:0:0:0:
207,81,69739,2,0,L|111:92,1,93.5000028533936,2|0,0:0|1:2,0:0:0:0:
26,56,69979,2,0,P|16:101|34:143,1,93.5000028533936,2|8,1:2|0:0,0:0:0:0:
118,186,70219,1,2,1:2:0:0:
40,238,70339,6,0,L|29:334,1,93.5000028533936,2|0,0:0|1:2,0:0:0:0:
210,196,70579,2,0,L|114:185,1,93.5000028533936,14|0,0:0|0:0,0:0:0:0:
350,110,70819,1,2,1:2:0:0:
396,192,70939,1,2,1:2:0:0:
331,260,71059,2,0,P|322:305|340:347,1,93.5000028533936,14|0,0:0|0:0,0:0:0:0:
445,112,71299,6,0,P|438:66|406:33,1,93.5000028533936,6|0,1:2|0:0,0:0:0:0:
171,117,71539,2,0,P|178:163|210:196,1,93.5000028533936,10|0,0:0|0:0,0:0:0:0:
350,110,71779,2,0,L|258:121,1,93.5000028533936,2|0,1:2|1:2,0:0:0:0:
423,271,72019,2,0,L|331:260,1,93.5000028533936,10|0,0:0|0:0,0:0:0:0:
504,240,72259,6,0,P|510:285|490:326,1,93.5000028533936,2|0,1:2|0:0,0:0:0:0:
324,364,72499,2,0,B|275:358|245:318|245:318|206:349|157:344,1,187.000005706787,10|0,0:0|1:2,0:0:0:0:
71,309,72859,1,2,1:2:0:0:
146,251,72979,2,0,L|135:159,1,93.5000028533936,10|0,0:0|0:0,0:0:0:0:
122,65,73219,6,0,P|168:67|205:94,1,93.5000028533936,2|0,1:2|0:0,0:0:0:0:
310,239,73459,2,0,P|265:224|237:188,1,93.5000028533936,10|0,0:0|0:0,0:0:0:0:
333,54,73699,1,2,1:2:0:0:
333,54,73819,1,0,1:2:0:0:
333,54,73939,2,0,L|322:146,1,93.5000028533936,10|0,0:0|0:0,0:0:0:0:
436,123,74179,6,0,L|447:215,1,93.5000028533936,2|0,1:2|0:0,0:0:0:0:
299,332,74419,2,0,L|310:240,1,93.5000028533936,10|0,0:0|0:0,0:0:0:0:
497,284,74659,2,0,P|454:302|409:292,1,93.5000028533936,2|0,1:2|1:2,0:0:0:0:
235,155,74899,2,0,P|277:136|322:146,1,93.5000028533936,10|0,0:0|0:0,0:0:0:0:
115,309,75139,6,0,L|104:217,1,93.5000028533936,6|0,1:2|0:0,0:0:0:0:
332,53,75379,2,0,L|321:145,1,93.5000028533936,10|0,0:0|0:0,0:0:0:0:
506,169,75619,2,0,L|414:158,1,93.5000028533936,2|0,1:2|1:2,0:0:0:0:
390,342,75859,2,0,L|401:250,1,93.5000028533936,10|0,0:0|1:2,0:0:0:0:
215,226,76099,6,0,L|307:237,1,93.5000028533936,2|0,0:0|1:2,0:0:0:0:
155,299,76339,2,8,P|120:215|172:141,1,187.000005706787,10|0,0:0|1:2,0:0:0:0:
265,130,76699,1,2,1:2:0:0:
212,52,76819,2,0,L|120:41,1,93.5000028533936,10|0,0:0|0:0,0:0:0:0:
265,130,77059,6,0,L|357:119,1,93.5000028533936,2|0,1:2|0:0,0:0:0:0:
438,14,77299,2,0,L|449:106,1,93.5000028533936,10|0,0:0|0:0,0:0:0:0:
511,190,77539,1,2,1:2:0:0:
511,190,77659,1,0,1:2:0:0:
510,189,77779,2,0,L|499:285,1,93.5000028533936,10|0,0:0|1:2,0:0:0:0:
488,373,78019,6,0,P|444:358|415:322,1,93.5000028533936,2|0,0:0|1:2,0:0:0:0:
247,313,78259,2,0,P|293:309|329:281,1,93.5000028533936,10|0,0:0|0:0,0:0:0:0:
269,127,78499,2,0,L|258:219,1,93.5000028533936,2|0,1:2|1:2,0:0:0:0:
90,324,78739,2,0,L|79:232,1,93.5000028533936,10|0,0:0|0:0,0:0:0:0:
351,94,78979,6,0,L|340:186,1,93.5000028533936,6|0,1:2|0:0,0:0:0:0:
172,357,79219,2,0,L|161:265,1,93.5000028533936,10|0,0:0|0:0,0:0:0:0:
28,158,79459,2,0,P|71:141|116:150,1,93.5000028533936,2|0,1:2|1:2,0:0:0:0:
204,6,79699,2,0,P|187:49|196:94,1,93.5000028533936,10|0,0:0|0:0,0:0:0:0:
372,73,79939,6,0,L|279:62,1,93.5000028533936,2|0,1:2|0:0,0:0:0:0:
435,0,80179,2,8,P|470:84|418:158,1,187.000005706787,10|0,0:0|1:2,0:0:0:0:
326,155,80539,1,2,1:2:0:0:
371,236,80659,2,0,L|382:328,1,93.5000028533936,10|0,0:0|0:0,0:0:0:0:
239,189,80899,6,0,L|228:281,1,93.5000028533936,2|0,1:2|0:0,0:0:0:0:
250,96,81139,2,0,P|203:100|167:129,1,93.5000028533936,10|0,0:0|0:0,0:0:0:0:
100,77,81379,1,2,1:2:0:0:
100,77,81499,1,0,1:0:0:0:
100,77,81619,2,0,P|80:119|88:164,1,93.5000028533936,10|0,0:0|0:0,0:0:0:0:
227,281,81859,2,0,P|198:243|155:228,1,93.5000028533936,2|0,1:2|0:0,0:0:0:0:
233,371,82099,6,0,P|305:315|297:225,1,187.000005706787,10|0,0:0|1:2,0:0:0:0:
245,154,82459,1,2,1:2:0:0:
338,142,82579,2,0,L|430:130,1,93.5000028533936,10|0,0:0|0:0,0:0:0:0:
227,281,82819,6,0,L|135:269,1,93.5000028533936,6|0,1:2|0:0,0:0:0:0:
210,73,83059,2,0,P|240:107|245:153,1,93.5000028533936,10|0,0:0|0:0,0:0:0:0:
41,255,83299,2,0,P|55:210|93:183,1,93.5000028533936,2|0,1:2|1:2,0:0:0:0:
319,293,83539,2,0,P|304:337|266:364,1,93.5000028533936,10|0,0:0|1:2,0:0:0:0:
285,215,83779,6,0,P|330:205|372:225,1,93.5000028533936,2|0,0:0|1:2,0:0:0:0:
448,376,84019,2,0,L|470:190,1,187.000005706787,10|0,0:0|1:2,0:0:0:0:
481,97,84379,1,2,1:2:0:0:
421,28,84499,2,0,P|375:18|333:36,1,93.5000028533936,10|0,0:0|0:0,0:0:0:0:
199,180,84739,6,0,P|153:189|111:171,1,93.5000028533936,2|0,1:2|0:0,0:0:0:0:
177,5,84979,2,0,L|165:97,1,93.5000028533936,10|0,0:0|0:0,0:0:0:0:
300,214,85219,1,2,1:2:0:0:
300,214,85339,1,0,1:2:0:0:
299,215,85459,2,0,L|288:119,1,93.5000028533936,10|0,0:0|1:2,0:0:0:0:
266,297,85699,6,0,P|311:306|353:288,1,93.5000028533936,2|0,0:0|1:2,0:0:0:0:
200,218,85939,2,0,P|169:252|163:297,1,93.5000028533936,10|0,0:0|0:0,0:0:0:0:
372,383,86179,1,6,1:2:0:0:
446,325,86299,1,2,1:2:0:0:
433,233,86419,2,0,L|444:137,1,93.5000028533936,14|0,0:0|0:0,0:0:0:0:
200,38,86659,6,0,L|211:134,1,93.5000028533936,6|0,1:2|0:0,0:0:0:0:
23,156,86899,2,0,L|119:145,1,93.5000028533936,10|0,0:0|0:0,0:0:0:0:
70,287,87139,2,0,L|166:298,1,93.5000028533936,2|0,1:2|1:2,0:0:0:0:
265,214,87379,2,0,L|254:310,1,93.5000028533936,10|0,0:0|0:0,0:0:0:0:
434,361,87619,6,0,L|423:265,1,93.5000028533936,2|0,1:2|0:0,0:0:0:0:
452,99,87859,2,0,B|361:73|372:161|274:119,1,187.000005706787,10|0,0:0|1:2,0:0:0:0:
317,34,88219,1,2,1:2:0:0:
223,40,88339,2,0,P|189:71|180:116,1,93.5000028533936,10|0,0:0|0:0,0:0:0:0:
268,268,88579,6,0,P|256:222|222:191,1,93.5000028533936,2|0,1:2|0:0,0:0:0:0:
82,267,88819,2,0,L|178:278,1,93.5000028533936,10|0,0:0|0:0,0:0:0:0:
326,343,89059,2,0,L|230:354,1,93.5000028533936,2|0,1:2|1:2,0:0:0:0:
140,364,89299,1,10,0:0:0:0:
175,278,89419,1,2,0:0:0:0:
92,174,89539,5,2,1:2:0:0:
92,174,89659,2,0,L|103:78,1,93.5000028533936,2|8,0:0|0:0,0:0:0:0:
271,16,89899,1,2,0:0:0:0:
271,16,90019,2,0,L|282:112,1,93.5000028533936,2|0,1:2|1:2,0:0:0:0:
455,152,90259,2,0,L|359:163,1,93.5000028533936,10|0,0:0|0:0,0:0:0:0:
175,278,90499,5,6,1:2:0:0:
219,359,90619,1,2,0:0:0:0:
311,338,90739,1,10,0:0:0:0:
319,244,90859,1,2,0:0:0:0:
236,206,90979,2,0,P|218:164|227:119,1,93.5000028533936,2|0,1:2|1:2,0:0:0:0:
409,43,91219,5,10,0:0:0:0:
459,117,91339,1,2,1:2:0:0:
398,190,91459,1,2,0:0:0:0:
310,154,91579,1,2,1:2:0:0:
316,63,91699,2,0,P|282:31|237:24,1,93.5000028533936,10|0,0:0|0:0,0:0:0:0:
153,168,91939,6,0,P|197:154|226:119,1,93.5000028533936,2|0,1:2|1:2,0:0:0:0:
144,74,92179,1,10,0:0:0:0:
68,129,92299,1,2,0:0:0:0:
79,221,92419,2,0,P|112:252|158:259,1,93.5000028533936,2|0,1:2|0:0,0:0:0:0:
238,208,92659,5,10,0:0:0:0:
275,294,92779,1,2,1:2:0:0:
367,307,92899,1,2,0:0:0:0:
425,233,93019,2,0,P|434:188|416:146,1,93.5000028533936,2|8,1:2|0:0,0:0:0:0:
329,106,93259,1,2,0:0:0:0:
406,53,93379,6,0,L|502:42,1,93.5000028533936,2|0,1:2|0:0,0:0:0:0:
329,106,93619,2,0,L|233:95,1,93.5000028533936,14|0,0:0|0:0,0:0:0:0:
63,42,93859,1,2,1:2:0:0:
148,82,93979,1,2,1:2:0:0:
72,136,94099,2,0,L|83:232,1,93.5000028533936,14|0,0:0|0:0,0:0:0:0:
330,295,94339,6,0,B|342:265|342:265|331:247|331:247|346:233|346:233|341:201,1,106.25,6|0,1:2|0:0,0:0:0:0:
148,82,94579,2,0,L|158:179,1,93.5000028533936,10|0,0:0|0:0,0:0:0:0:
47,309,94819,2,0,P|92:318|134:300,1,93.5000028533936,2|0,1:2|1:2,0:0:0:0:
245,166,95059,2,0,P|199:157|157:175,1,93.5000028533936,10|0,0:0|0:0,0:0:0:0:
223,341,95299,2,0,L|211:249,1,93.5000028533936,2|0,1:2|0:0,0:0:0:0:
148,82,95539,2,8,P|74:133|77:223,1,187.000005706787,10|0,0:0|1:2,0:0:0:0:
157,174,95899,5,2,1:2:0:0:
210,248,96019,2,0,L|305:259,1,93.5000028533936,10|0,0:0|0:0,0:0:0:0:
379,109,96259,2,0,L|367:201,1,93.5000028533936,2|0,1:2|0:0,0:0:0:0:
262,69,96499,2,0,L|274:161,1,93.5000028533936,10|0,0:0|0:0,0:0:0:0:
453,214,96739,2,0,P|411:194|366:201,1,93.5000028533936,2|0,1:2|1:2,0:0:0:0:
250,324,96979,2,0,P|291:343|336:336,1,93.5000028533936,10|0,0:0|0:0,0:0:0:0:
170,218,97219,6,0,L|157:313,1,93.5000028533936,2|0,1:2|0:0,0:0:0:0:
20,199,97459,1,10,0:0:0:0:
102,153,97579,1,2,0:0:0:0:
170,218,97699,2,0,P|211:237|256:230,1,93.5000028533936,2|0,1:2|1:2,0:0:0:0:
326,60,97939,2,0,L|337:156,1,93.5000028533936,10|0,0:0|0:0,0:0:0:0:
276,379,98179,5,6,1:2:0:0:
211,311,98299,1,2,0:0:0:0:
257,229,98419,1,10,0:0:0:0:
349,247,98539,1,2,0:0:0:0:
361,339,98659,2,0,P|406:346|447:326,1,93.5000028533936,2|0,1:2|1:2,0:0:0:0:
331,97,98899,5,10,0:0:0:0:
245,135,99019,1,2,1:2:0:0:
257,229,99139,1,2,0:0:0:0:
172,267,99259,1,2,1:2:0:0:
107,198,99379,2,0,P|79:236|79:282,1,93.5000028533936,10|0,0:0|0:0,0:0:0:0:
248,321,99619,6,0,L|309:329,2,62.3333352355958,14|8|8,0:0|0:0|0:0,0:0:0:0:
163,361,99859,6,0,L|101:369,2,62.3333352355958,10|8|8,0:0|0:0|0:0,0:0:0:0:
172,267,100099,5,6,1:2:0:0:
172,267,101539,6,0,L|233:275,2,62.3333352355958,10|8|8,0:0|0:0|0:0,0:0:0:0:
87,307,101779,6,0,L|25:315,2,62.3333352355958,10|8|8,0:0|0:0|0:0,0:0:0:0:
96,213,102019,6,0,L|86:129,1,85,6|2,1:2|0:0,0:0:0:0:
32,62,102259,1,10,0:0:0:0:
116,51,102379,2,0,L|200:41,1,85,2|0,0:0|1:2,0:0:0:0:
269,178,102619,2,0,L|185:168,1,85,2|8,1:2|0:0,0:0:0:0:
348,153,102859,1,2,1:2:0:0:
348,153,102979,6,0,P|352:195|334:233,1,85,2|0,0:0|1:2,0:0:0:0:
397,289,103219,2,0,P|362:313|320:316,1,85,10|0,0:0|0:0,0:0:0:0:
188,259,103459,1,2,1:2:0:0:
188,259,103579,1,2,1:2:0:0:
188,259,103699,2,0,L|178:343,1,85,10|0,0:0|0:0,0:0:0:0:
36,282,103939,6,0,L|26:198,1,85,2|2,1:2|0:0,0:0:0:0:
14,112,104179,1,10,0:0:0:0:
92,144,104299,2,0,P|132:151|173:138,1,85,2|0,0:0|1:2,0:0:0:0:
300,61,104539,2,0,P|260:53|219:66,1,85,2|8,1:2|0:0,0:0:0:0:
264,137,104779,1,2,1:2:0:0:
348,126,104899,6,0,L|358:210,1,85,2|0,0:0|1:2,0:0:0:0:
242,305,105139,2,0,L|252:221,1,85,10|0,0:0|0:0,0:0:0:0:
438,224,105379,2,0,P|400:207|358:210,1,85,2|2,1:2|1:2,0:0:0:0:
242,305,105619,2,0,P|280:322|322:319,1,85,10|0,0:0|0:0,0:0:0:0:
167,209,105859,6,0,L|157:293,1,85,6|2,1:2|0:0,0:0:0:0:
71,303,106099,1,10,0:0:0:0:
82,219,106219,2,0,L|92:135,1,85,2|0,0:0|1:2,0:0:0:0:
261,134,106459,2,0,L|177:124,1,85,2|8,1:2|0:0,0:0:0:0:
41,59,106699,1,2,1:2:0:0:
41,59,106819,6,0,L|125:49,1,85,2|0,0:0|1:2,0:0:0:0:
261,134,107059,2,0,L|177:124,1,85,10|0,0:0|0:0,0:0:0:0:
293,27,107299,1,2,1:2:0:0:
293,27,107419,1,2,1:2:0:0:
293,27,107539,2,0,L|209:37,1,85,10|0,0:0|0:0,0:0:0:0:
345,123,107779,6,0,L|355:207,1,85,2|2,1:2|0:0,0:0:0:0:
365,291,108019,1,10,0:0:0:0:
302,348,108139,2,0,P|336:371|378:375,1,85,2|0,0:0|1:2,0:0:0:0:
431,235,108379,2,0,P|396:211|354:207,1,85,2|8,1:2|0:0,0:0:0:0:
119,332,108619,5,2,1:2:0:0:
170,274,108739,5,2,0:0:0:0:
165,239,108859,1,2,1:2:0:0:
114,181,108979,5,10,0:0:0:0:
117,145,109099,1,2,0:0:0:0:
170,88,109219,5,2,1:2:0:0:
166,55,109339,1,2,1:2:0:0:
161,20,109459,2,0,L|77:10,1,85,10|8,0:0|0:0,0:0:0:0:
246,127,109699,6,0,L|330:117,1,85,6|2,1:2|0:0,0:0:0:0:
397,63,109939,1,10,0:0:0:0:
469,106,110059,2,0,L|479:190,1,85,2|0,0:0|1:2,0:0:0:0:
329,285,110299,2,0,L|339:201,1,85,2|8,1:2|0:0,0:0:0:0:
358,362,110539,1,2,1:2:0:0:
358,362,110659,6,0,P|316:365|277:348,1,85,2|0,0:0|1:2,0:0:0:0:
166,254,110899,2,0,P|208:251|247:268,1,85,10|0,0:0|0:0,0:0:0:0:
81,243,111139,1,2,1:2:0:0:
81,243,111259,1,2,1:2:0:0:
81,243,111379,2,0,P|96:203|129:176,1,85,10|0,0:0|0:0,0:0:0:0:
171,26,111619,6,0,P|162:65|175:106,1,85,2|2,1:2|0:0,0:0:0:0:
248,63,111859,1,10,0:0:0:0:
312,117,111979,2,0,L|396:107,1,85,2|0,0:0|1:2,0:0:0:0:
471,240,112219,2,0,L|461:155,1,85,2|8,1:2|0:0,0:0:0:0:
422,306,112459,1,2,1:2:0:0:
422,306,112579,6,0,L|338:316,1,85,2|0,0:0|1:2,0:0:0:0:
263,183,112819,2,0,L|273:268,1,85,10|0,0:0|0:0,0:0:0:0:
140,342,113059,2,0,L|225:332,1,85,2|2,1:2|1:2,0:0:0:0:
103,247,113299,2,0,L|188:257,1,85,10|0,0:0|0:0,0:0:0:0:
23,271,113539,6,0,P|19:229|38:192,1,85,6|2,1:2|0:0,0:0:0:0:
118,163,113779,1,10,0:0:0:0:
83,85,113899,2,0,L|-2:75,1,85,2|0,0:0|1:2,0:0:0:0:
118,163,114139,2,0,L|203:153,1,85,2|8,1:2|0:0,0:0:0:0:
287,143,114379,1,2,1:2:0:0:
343,80,114499,6,0,L|427:90,1,85,2|0,0:0|1:2,0:0:0:0:
472,237,114739,2,0,L|482:153,1,85,10|0,0:0|0:0,0:0:0:0:
409,291,114979,1,2,1:2:0:0:
409,291,115099,1,2,1:2:0:0:
409,291,115219,2,0,L|325:281,1,85,10|0,0:0|0:0,0:0:0:0:
177,322,115459,5,6,1:2:0:0:
91,317,115579,1,2,0:0:0:0:
52,243,115699,1,10,0:0:0:0:
96,170,115819,1,2,0:0:0:0:
182,171,115939,5,6,1:2:0:0:
248,117,116059,1,2,1:2:0:0:
236,34,116179,1,10,0:0:0:0:
158,3,116299,1,2,0:0:0:0:
91,53,116419,5,6,1:2:0:0:
168,86,116539,1,10,0:0:0:0:
76,135,116659,5,10,0:0:0:0:
182,171,116779,1,10,0:0:0:0:
62,219,116899,5,10,0:0:0:0:
194,252,117019,1,10,0:0:0:0:
48,301,117139,5,10,0:0:0:0:
207,335,117259,1,10,0:0:0:0:
34,383,117379,5,6,1:2:0:0:
