osu file format v14

[General]
AudioFilename: audio.mp3
AudioLeadIn: 0
PreviewTime:55339
Countdown: 0
SampleSet: Soft
StackLeniency: 0.3
Mode: 0
LetterboxInBreaks: 0
WidescreenStoryboard: 1

[Editor]
DistanceSpacing: 1.5
BeatDivisor: 4
GridSize: 32
TimelineZoom: 2.3

[Metadata]
Title:Noraneko no Shinryaku (Cut Ver.)
TitleUnicode:野良猫の侵略 (Cut Ver.)
Artist:Iwami Takashi
ArtistUnicode:岩見陸
Creator:FinnaDie
Version:Akane-_'s Hard
Source:
Tags:japanese rock jrock j-rock alternate alternator akane-_ akane silent Silent_Rock YOUTH WITHOUT ナナホシ管弦楽団 fujun isei kouyuu p monaka モナカ nanahoshi kangengakudan FujuniseikouyuuP 不純異性交遊P invasion of a stray cat cats short cut
BeatmapID:2584441
BeatmapSetID:1237488

[Difficulty]
HPDrainRate:4.7
CircleSize:3.7
OverallDifficulty:6
ApproachRate:8
SliderMultiplier:1.2
SliderTickRate:1

[Events]
//Background and Video events
0,0,"catanime.jpeg",0,0
//Break Periods
//Storyboard Layer 0 (Background)
//Storyboard Layer 1 (Fail)
//Storyboard Layer 2 (Pass)
//Storyboard Layer 3 (Foreground)
//Storyboard Layer 4 (Overlay)
//Storyboard Sound Samples

[TimingPoints]
1219,240,4,2,1,65,1,0
1219,-100,4,2,1,65,0,0
17539,-125,4,2,1,45,0,0
21379,-111.111111111111,4,2,1,65,0,0
29059,-125,4,2,1,45,0,0
32899,-111.111111111111,4,2,1,65,0,0
55939,-90.9090909090909,4,2,1,75,0,1
94339,-90.9090909090909,4,2,1,75,0,1
94459,-90.9090909090909,4,2,1,75,0,1
100099,-100,4,2,1,65,0,0
102019,-100,4,2,1,65,0,0

[Colours]
Combo1 : 255,140,85
Combo2 : 192,192,192
Combo3 : 255,85,85
Combo4 : 119,134,202

[HitObjects]
43,53,1219,5,4,1:2:0:0:
43,53,1339,1,8,0:0:0:0:
102,112,1459,2,0,L|90:176,2,60,8|8|8,0:0|0:0|0:0,0:0:0:0:
173,66,1819,1,8,0:0:0:0:
173,66,1939,2,0,P|202:91|208:117,1,60,8|8,0:0|0:0,0:0:0:0:
172,187,2179,6,0,B|209:216|209:216|297:211,1,120,6|10,1:2|0:0,0:0:0:0:
353,165,2539,2,0,P|375:188|379:220,1,60,2|0,0:0|1:2,0:0:0:0:
455,252,2779,2,0,P|438:283|413:299,1,60,2|8,1:2|0:0,0:0:0:0:
379,373,3019,1,2,1:2:0:0:
379,373,3139,6,0,L|255:341,1,120,2|10,0:0|0:0,0:0:0:0:
219,276,3499,1,0,0:0:0:0:
219,276,3619,2,0,L|95:308,1,120,2|10,1:2|0:0,0:0:0:0:
38,150,4099,6,0,L|154:120,1,120,2|10,1:2|0:0,0:0:0:0:
226,77,4459,2,0,P|241:110|238:136,1,60,2|0,0:0|1:2,0:0:0:0:
193,204,4699,2,0,P|185:235|197:266,1,60,2|8,1:2|0:0,0:0:0:0:
257,325,4939,1,2,1:2:0:0:
257,325,5059,6,0,B|307:325|307:325|336:335|336:335|381:335,1,120,2|10,0:0|0:0,0:0:0:0:
451,295,5419,1,0,0:0:0:0:
451,295,5539,2,0,P|416:240|437:187,1,120,2|10,1:2|0:0,0:0:0:0:
487,32,6019,6,0,B|459:60|459:60|370:48,1,120,6|10,1:2|0:0,0:0:0:0:
297,26,6379,2,0,L|311:87,1,60,2|0,0:0|1:2,0:0:0:0:
247,141,6619,2,0,L|261:202,1,60,2|8,1:2|0:0,0:0:0:0:
323,264,6859,1,2,1:2:0:0:
323,264,6979,6,0,P|272:241|215:266,1,120,2|10,0:0|0:0,0:0:0:0:
151,318,7339,1,0,0:0:0:0:
151,318,7459,2,0,P|97:341|43:316,1,120,2|10,1:2|0:0,0:0:0:0:
91,155,7939,6,0,B|170:153|136:188|217:186,1,120,2|10,1:2|0:0,0:0:0:0:
272,136,8299,2,0,L|255:73,1,60,2|0,0:0|1:2,0:0:0:0:
338,61,8539,2,0,L|321:-2,1,60,2|8,1:2|0:0,0:0:0:0:
425,36,8779,6,0,L|401:165,1,120,2|2,1:2|1:2,0:0:0:0:
464,211,9139,2,0,L|449:277,1,60,10|2,0:0|0:0,0:0:0:0:
377,312,9379,2,0,L|364:378,1,60,2|2,1:2|1:2,0:0:0:0:
291,330,9619,1,10,0:0:0:0:
180,203,9859,6,0,P|209:148|185:95,1,120,6|10,1:2|0:0,0:0:0:0:
120,47,10219,2,0,L|51:54,1,60,2|0,0:0|1:2,0:0:0:0:
32,136,10459,2,0,L|91:129,1,60,2|8,1:2|0:0,0:0:0:0:
73,213,10699,1,2,1:2:0:0:
73,213,10819,6,0,B|99:241|99:241|83:330,1,120,2|10,0:0|0:0,0:0:0:0:
157,372,11179,1,0,0:0:0:0:
157,372,11299,2,0,P|207:347|269:376,1,120,2|10,1:2|0:0,0:0:0:0:
398,268,11779,6,0,L|381:143,1,120,2|10,1:2|0:0,0:0:0:0:
363,66,12139,2,0,P|334:58|299:72,1,60,2|0,0:0|1:2,0:0:0:0:
228,101,12379,2,0,P|199:109|164:95,1,60,2|8,1:2|0:0,0:0:0:0:
106,55,12619,1,2,1:2:0:0:
106,55,12739,6,0,L|72:179,1,120,2|10,0:0|0:0,0:0:0:0:
160,193,13099,1,0,0:0:0:0:
160,193,13219,2,0,L|126:317,1,120,2|10,1:2|0:0,0:0:0:0:
288,362,13699,6,0,B|327:334|327:334|410:342,1,120,6|10,1:2|0:0,0:0:0:0:
467,293,14059,2,0,P|475:261|463:230,1,60,2|0,0:0|1:2,0:0:0:0:
411,173,14299,2,0,P|405:141|414:114,1,60,2|8,1:2|0:0,0:0:0:0:
463,48,14539,1,2,1:2:0:0:
463,48,14659,6,0,L|334:20,1,120,2|10,0:0|0:0,0:0:0:0:
317,103,15019,1,0,0:0:0:0:
317,103,15139,2,0,L|188:75,1,120,2|10,1:2|0:0,0:0:0:0:
40,22,15619,6,0,P|14:78|41:133,1,120,6|10,1:2|0:0,0:0:0:0:
104,186,15979,1,2,0:0:0:0:
104,186,16099,2,0,P|128:244|104:295,1,120,6|10,1:2|0:0,0:0:0:0:
44,350,16459,1,10,0:0:0:0:
44,350,16579,2,0,P|100:312|168:331,1,120,6|0,1:2|0:0,0:0:0:0:
225,355,16939,1,2,1:2:0:0:
225,355,17179,6,0,L|295:368,2,60,8|8|8,0:0|0:0|0:0,0:0:0:0:
294,286,17539,2,0,L|406:265,1,96,6|10,1:2|0:0,0:0:0:0:
500,162,18019,2,0,L|388:141,1,96,2|10,1:2|0:0,0:0:0:0:
294,38,18499,2,0,L|181:56,1,96,2|10,0:0|0:0,0:0:0:0:
46,69,18979,2,0,P|24:109|42:163,1,96,2|10,1:2|0:0,0:0:0:0:
90,217,19339,1,2,0:0:0:0:
90,217,19459,6,0,P|133:195|187:224,1,96,2|10,1:2|0:0,0:0:0:0:
293,310,19939,2,0,L|282:373,2,48,2|2|10,1:2|1:2|0:0,0:0:0:0:
351,258,20299,1,0,1:2:0:0:
351,258,20419,2,0,L|332:150,1,96,2|10,0:0|0:0,0:0:0:0:
186,120,20899,2,0,L|167:12,1,96,2|10,1:2|0:0,0:0:0:0:
342,32,21379,6,0,B|384:32|384:32|414:46|414:46|460:46,1,107.999996704102,6|10,1:2|0:0,0:0:0:0:
489,122,21739,2,0,B|447:122|447:122|417:136|417:136|384:136,1,107.999996704102,2|2,0:0|1:2,0:0:0:0:
303,102,22099,2,0,L|239:101,1,53.9999983520508,8|2,0:0|1:2,0:0:0:0:
188,162,22339,2,0,P|165:209|180:259,1,107.999996704102,2|10,0:0|0:0,0:0:0:0:
261,303,22699,1,0,0:0:0:0:
261,303,22819,2,0,L|316:288,2,53.9999983520508,2|2|10,1:2|1:2|0:0,0:0:0:0:
99,365,23299,6,0,L|-2:326,1,107.999996704102,2|10,1:2|0:0,0:0:0:0:
16,241,23659,2,0,L|116:279,1,107.999996704102,2|2,0:0|1:2,0:0:0:0:
177,217,24019,2,0,L|165:157,1,53.9999983520508,8|2,0:0|1:2,0:0:0:0:
94,116,24259,2,0,P|132:89|199:93,1,107.999996704102,2|10,0:0|0:0,0:0:0:0:
276,62,24619,1,0,0:0:0:0:
276,62,24739,2,0,L|256:0,2,53.9999983520508,2|2|10,1:2|1:2|0:0,0:0:0:0:
351,208,25219,6,0,L|468:208,1,107.999996704102,6|10,1:2|0:0,0:0:0:0:
490,127,25579,2,0,L|382:127,1,107.999996704102,2|2,0:0|1:2,0:0:0:0:
324,62,25939,2,0,L|264:62,1,53.9999983520508,8|2,0:0|1:2,0:0:0:0:
205,4,26179,2,0,P|186:42|206:109,1,107.999996704102,2|10,0:0|0:0,0:0:0:0:
269,165,26539,1,0,0:0:0:0:
269,165,26659,2,0,L|333:166,2,53.9999983520508,2|2|10,1:2|1:2|0:0,0:0:0:0:
102,118,27139,6,0,P|58:129|21:191,1,107.999996704102,2|8,1:2|0:0,0:0:0:0:
2,262,27499,2,0,L|14:325,1,53.9999983520508,2|0,0:0|1:2,0:0:0:0:
93,345,27739,2,0,L|82:284,1,53.9999983520508,2|8,1:2|0:0,0:0:0:0:
123,214,27979,6,0,B|161:192|161:192|241:203,1,107.999996704102,2|2,1:2|1:2,0:0:0:0:
250,283,28339,2,0,L|317:289,1,53.9999983520508,10|2,0:0|0:0,0:0:0:0:
341,366,28579,2,0,L|404:372,1,53.9999983520508,2|0,1:2|1:2,0:0:0:0:
481,376,28819,1,10,0:0:0:0:
500,223,29059,6,0,B|474:191|474:191|483:122,1,96,6|10,1:2|0:0,0:0:0:0:
357,44,29539,2,0,B|383:76|383:76|374:145,1,96,2|10,1:2|0:0,0:0:0:0:
423,276,30019,2,0,P|378:296|331:277,1,96,2|10,0:0|0:0,0:0:0:0:
146,195,30499,2,0,P|100:175|53:194,1,96,2|10,1:2|0:0,0:0:0:0:
98,261,30859,1,2,0:0:0:0:
98,261,30979,6,0,B|116:291|116:291|98:362,1,96,2|10,1:2|0:0,0:0:0:0:
256,317,31459,2,0,B|238:287|238:287|256:216,1,96,2|10,1:2|0:0,0:0:0:0:
270,147,31819,1,2,1:2:0:0:
270,147,31939,2,0,L|211:153,2,48,2|2|10,0:0|1:2|0:0,0:0:0:0:
411,92,32419,2,0,L|466:102,1,48,10|0,0:0|0:0,0:0:0:0:
433,173,32659,2,0,L|490:184,1,48,10|0,0:0|0:0,0:0:0:0:
431,258,32899,6,0,L|313:280,1,107.999996704102,6|10,1:2|0:0,0:0:0:0:
276,350,33259,2,0,L|158:328,1,107.999996704102,2|2,0:0|1:2,0:0:0:0:
93,373,33619,2,0,L|80:309,1,53.9999983520508,8|2,0:0|1:2,0:0:0:0:
10,270,33859,2,0,L|39:164,1,107.999996704102,2|10,0:0|0:0,0:0:0:0:
124,144,34219,1,0,0:0:0:0:
124,144,34339,2,0,L|182:156,2,53.9999983520508,2|2|10,1:2|1:2|0:0,0:0:0:0:
16,8,34819,6,0,B|49:31|49:31|132:21,1,107.999996704102,2|10,1:2|0:0,0:0:0:0:
203,14,35179,2,0,P|228:64|205:114,1,107.999996704102,2|2,0:0|1:2,0:0:0:0:
131,146,35539,2,0,L|141:202,1,53.9999983520508,8|2,0:0|1:2,0:0:0:0:
90,269,35779,2,0,P|127:255|193:302,1,107.999996704102,2|10,0:0|0:0,0:0:0:0:
267,324,36139,1,0,0:0:0:0:
267,324,36259,2,0,L|247:378,2,53.9999983520508,2|2|10,1:2|1:2|0:0,0:0:0:0:
372,186,36739,6,0,L|482:213,1,107.999996704102,6|10,1:2|0:0,0:0:0:0:
498,127,37099,2,0,L|393:101,1,107.999996704102,2|2,0:0|1:2,0:0:0:0:
330,41,37459,2,0,L|273:51,1,53.9999983520508,8|2,0:0|1:2,0:0:0:0:
226,120,37699,2,0,L|106:101,1,107.999996704102,2|10,0:0|0:0,0:0:0:0:
33,89,38059,1,0,0:0:0:0:
33,89,38179,2,0,L|22:29,2,53.9999983520508,2|2|10,1:2|1:2|0:0,0:0:0:0:
14,260,38659,6,0,L|36:365,1,107.999996704102,2|8,1:2|0:0,0:0:0:0:
123,362,39019,2,0,P|152:368|181:362,1,53.9999983520508,2|0,0:0|1:2,0:0:0:0:
237,302,39259,2,0,P|270:296|296:304,1,53.9999983520508,2|8,1:2|0:0,0:0:0:0:
351,361,39499,6,0,B|327:332|327:332|343:256,1,107.999996704102,2|2,1:2|1:2,0:0:0:0:
389,191,39859,2,0,L|374:130,1,53.9999983520508,10|2,0:0|0:0,0:0:0:0:
302,106,40099,2,0,L|314:53,1,53.9999983520508,2|0,1:2|1:2,0:0:0:0:
385,5,40339,1,10,0:0:0:0:
221,17,40579,6,0,L|159:16,1,53.9999983520508,6|2,1:2|0:0,0:0:0:0:
125,85,40819,2,0,L|63:85,1,53.9999983520508,10|0,0:0|0:0,0:0:0:0:
19,147,41059,2,0,B|0:193|0:193|28:261,1,107.999996704102,2|10,1:2|0:0,0:0:0:0:
128,369,41539,6,0,L|193:369,1,53.9999983520508,6|2,1:2|0:0,0:0:0:0:
240,313,41779,2,0,L|305:313,1,53.9999983520508,10|0,0:0|0:0,0:0:0:0:
365,274,42019,2,0,P|381:238|341:171,1,107.999996704102,2|10,1:2|0:0,0:0:0:0:
203,119,42499,6,0,L|141:123,1,53.9999983520508,6|2,1:2|0:0,0:0:0:0:
167,43,42739,2,0,L|230:38,1,53.9999983520508,10|0,0:0|0:0,0:0:0:0:
294,5,42979,2,0,L|414:21,1,107.999996704102,2|10,1:2|0:0,0:0:0:0:
493,152,43459,6,0,L|440:137,1,53.9999983520508,6|2,1:2|0:0,0:0:0:0:
393,203,43699,2,0,L|340:188,1,53.9999983520508,10|0,0:0|0:0,0:0:0:0:
270,148,43939,2,0,L|156:165,1,107.999996704102,2|10,1:2|0:0,0:0:0:0:
16,232,44419,6,0,P|-2:195|1:174,1,53.9999983520508,6|2,1:2|0:0,0:0:0:0:
4,102,44659,2,0,P|25:79|50:68,1,53.9999983520508,10|2,0:0|1:2,0:0:0:0:
110,20,44899,2,0,L|223:46,1,107.999996704102,2|10,1:2|0:0,0:0:0:0:
274,107,45259,1,2,0:0:0:0:
274,107,45379,6,0,P|300:153|275:215,1,107.999996704102,6|10,1:2|0:0,0:0:0:0:
225,258,45739,1,2,0:0:0:0:
68,217,45979,2,0,B|86:153|86:153|46:102,1,107.999996704102,2|2,0:0|0:0,0:0:0:0:
15,51,46339,6,0,L|79:45,1,53.9999983520508,6|0,1:2|0:0,0:0:0:0:
149,54,46579,2,0,L|215:46,1,53.9999983520508,10|2,0:0|0:0,0:0:0:0:
284,30,46819,1,2,1:2:0:0:
284,30,46939,2,0,B|358:23|325:63|406:57,1,107.999996704102,2|2,1:2|0:0,0:0:0:0:
456,18,47299,6,0,P|483:67|456:120,1,107.999996704102,6|10,1:2|0:0,0:0:0:0:
403,164,47659,1,0,1:2:0:0:
403,164,47779,2,0,L|348:154,2,53.9999983520508,10|10|10,0:3|0:3|0:3,0:0:0:0:
422,325,48259,6,0,L|310:352,1,107.999996704102,6|8,1:2|0:0,0:0:0:0:
240,363,48619,1,2,1:2:0:0:
240,363,48739,2,0,P|258:308|229:262,1,107.999996704102,2|8,1:2|0:0,0:0:0:0:
116,155,49219,2,0,L|57:165,1,53.9999983520508,6|0,1:2|0:0,0:0:0:0:
19,95,49459,2,0,L|78:85,1,53.9999983520508,10|0,0:0|0:0,0:0:0:0:
128,26,49699,2,0,L|239:47,1,107.999996704102,2|10,1:2|0:0,0:0:0:0:
393,73,50179,6,0,P|414:129|392:175,1,107.999996704102,6|8,1:2|0:0,0:0:0:0:
339,223,50539,1,2,1:2:0:0:
339,223,50659,2,0,B|310:199|310:199|225:203,1,107.999996704102,2|8,1:2|0:0,0:0:0:0:
77,202,51139,2,0,P|59:226|56:258,1,53.9999983520508,6|0,1:2|0:0,0:0:0:0:
9,317,51379,2,0,P|39:346|58:348,1,53.9999983520508,10|0,0:0|0:0,0:0:0:0:
126,320,51619,2,0,L|234:343,1,107.999996704102,2|10,1:2|0:0,0:0:0:0:
391,371,52099,6,0,P|369:317|403:268,1,107.999996704102,6|10,1:2|0:0,0:0:0:0:
494,151,52579,2,0,L|381:151,1,107.999996704102,2|10,1:2|0:0,0:0:0:0:
456,4,53059,2,0,L|339:4,1,107.999996704102,2|10,1:2|0:0,0:0:0:0:
202,74,53539,2,0,L|91:73,1,107.999996704102,2|14,1:2|0:0,0:0:0:0:
12,213,54019,6,0,L|68:214,1,53.9999983520508,6|10,1:2|0:0,0:0:0:0:
117,276,54259,2,0,L|187:273,1,53.9999983520508,10|10,0:0|0:0,0:0:0:0:
240,231,54499,2,0,P|246:199|235:177,1,53.9999983520508,10|10,0:0|0:0,0:0:0:0:
182,120,54739,2,0,P|176:88|187:66,1,53.9999983520508,10|10,0:0|0:0,0:0:0:0:
239,10,54979,1,6,1:2:0:0:
239,10,55939,6,0,B|272:42|272:42|368:35,1,132.00000402832,6|10,1:2|0:0,0:0:0:0:
447,30,56299,1,0,0:0:0:0:
447,30,56419,2,0,P|434:65|429:99,1,66.0000020141602,2|0,1:2|1:2,0:0:0:0:
360,145,56659,2,0,P|373:180|378:214,1,66.0000020141602,10|0,0:0|0:0,0:0:0:0:
445,261,56899,6,0,B|358:253|415:302|315:294,1,132.00000402832,2|10,1:2|0:0,0:0:0:0:
149,246,57379,1,0,1:2:0:0:
149,246,57499,2,0,L|162:314,2,66.0000020141602,2|10|0,1:2|0:0|0:0,0:0:0:0:
64,225,57859,6,0,L|36:86,1,132.00000402832,2|10,1:2|0:0,0:0:0:0:
136,43,58219,1,0,0:0:0:0:
136,43,58339,2,0,L|119:110,1,66.0000020141602,2|0,1:2|1:2,0:0:0:0:
225,26,58579,2,0,L|208:93,1,66.0000020141602,10|0,0:0|0:0,0:0:0:0:
185,173,58819,6,0,P|246:203|304:172,1,132.00000402832,2|10,1:2|0:0,0:0:0:0:
364,121,59179,2,0,P|421:91|479:116,1,132.00000402832,2|0,0:0|1:2,0:0:0:0:
425,183,59539,1,10,0:0:0:0:
494,333,59779,6,0,B|455:368|455:368|366:366,1,132.00000402832,6|10,1:2|0:0,0:0:0:0:
305,316,60139,1,2,0:0:0:0:
305,316,60259,2,0,P|288:277|297:248,1,66.0000020141602,2|0,1:2|1:2,0:0:0:0:
348,189,60499,2,0,P|363:160|360:128,1,66.0000020141602,10|2,0:0|1:2,0:0:0:0:
302,64,60739,6,0,B|252:64|252:64|220:80|220:80|168:80,1,132.00000402832,2|10,0:0|0:0,0:0:0:0:
21,160,61219,2,0,B|71:160|71:160|103:176|103:176|155:176,1,132.00000402832,2|10,1:2|0:0,0:0:0:0:
239,178,61579,1,0,0:0:0:0:
239,178,61699,2,0,P|268:239|236:300,1,132.00000402832,2|10,1:2|0:0,0:0:0:0:
192,368,62059,2,0,L|270:369,1,66.0000020141602,2|0,0:0|1:2,0:0:0:0:
325,314,62299,2,0,L|402:314,1,66.0000020141602,2|8,1:2|0:0,0:0:0:0:
464,359,62539,2,0,B|432:321|432:321|449:220,1,132.00000402832,2|0,1:2|1:2,0:0:0:0:
468,156,62899,1,14,0:0:0:0:
346,35,63139,6,0,L|363:100,1,66.0000020141602,2|2,1:2|1:2,0:0:0:0:
292,156,63379,2,0,L|276:93,1,66.0000020141602,14|0,0:0|0:0,0:0:0:0:
207,35,63619,6,0,B|123:27|169:74|75:71,1,132.00000402832,6|10,1:2|0:0,0:0:0:0:
10,40,63979,1,0,0:0:0:0:
10,40,64099,2,0,P|26:68|35:100,1,66.0000020141602,2|0,1:2|1:2,0:0:0:0:
97,158,64339,2,0,P|79:190|71:232,1,66.0000020141602,10|0,0:0|0:0,0:0:0:0:
25,291,64579,6,0,B|66:264|66:264|164:273,1,132.00000402832,2|10,1:2|0:0,0:0:0:0:
315,352,65059,1,0,1:2:0:0:
315,352,65179,2,0,L|384:364,2,66.0000020141602,2|10|0,1:2|0:0|0:0,0:0:0:0:
271,278,65539,6,0,P|261:242|275:209,1,66.0000020141602,2|0,1:2|0:0,0:0:0:0:
331,156,65779,2,0,P|341:120|327:87,1,66.0000020141602,10|0,0:0|0:0,0:0:0:0:
296,15,66019,2,0,B|265:45|265:45|162:38,1,132.00000402832,2|10,1:2|0:0,0:0:0:0:
96,19,66379,1,0,0:0:0:0:
96,19,66499,6,0,P|65:78|95:140,1,132.00000402832,2|10,1:2|0:0,0:0:0:0:
148,197,66859,2,0,P|179:256|149:318,1,132.00000402832,2|0,0:0|1:2,0:0:0:0:
87,260,67219,1,10,0:0:0:0:
224,362,67459,6,0,B|269:334|269:334|369:344,1,132.00000402832,6|10,1:2|0:0,0:0:0:0:
437,356,67819,1,2,0:0:0:0:
437,356,67939,2,0,P|447:322|436:290,1,66.0000020141602,2|0,1:2|1:2,0:0:0:0:
371,239,68179,2,0,P|361:205|372:173,1,66.0000020141602,10|2,0:0|1:2,0:0:0:0:
432,117,68419,6,0,B|398:89|398:89|297:89,1,132.00000402832,2|10,0:0|0:0,0:0:0:0:
170,189,68899,2,0,B|136:217|136:217|35:217,1,132.00000402832,2|10,1:2|0:0,0:0:0:0:
4,148,69259,1,0,0:0:0:0:
4,148,69379,2,0,P|55:105|54:42,1,132.00000402832,2|10,1:2|0:0,0:0:0:0:
134,9,69739,2,0,L|203:11,1,66.0000020141602,2|0,0:0|1:2,0:0:0:0:
254,77,69979,2,0,L|323:79,1,66.0000020141602,2|8,1:2|0:0,0:0:0:0:
386,23,70219,2,0,P|418:81|385:146,1,132.00000402832,2|0,1:2|1:2,0:0:0:0:
334,198,70579,1,14,0:0:0:0:
446,327,70819,6,0,L|432:260,1,66.0000020141602,2|2,1:2|1:2,0:0:0:0:
354,297,71059,2,0,L|368:362,1,66.0000020141602,14|0,0:0|0:0,0:0:0:0:
277,374,71299,6,0,B|251:342|251:342|144:348,1,132.00000402832,6|10,1:2|0:0,0:0:0:0:
75,358,71659,1,0,0:0:0:0:
75,358,71779,2,0,P|85:318|105:288,1,66.0000020141602,2|0,1:2|1:2,0:0:0:0:
47,226,72019,2,0,P|37:186|17:156,1,66.0000020141602,10|0,0:0|0:0,0:0:0:0:
85,105,72259,6,0,B|169:95|129:147|219:135,1,132.00000402832,2|10,1:2|0:0,0:0:0:0:
289,101,72619,1,0,0:0:0:0:
289,101,72739,2,0,P|301:135|289:167,1,66.0000020141602,0|2,1:2|1:2,0:0:0:0:
229,221,72979,2,0,P|217:255|229:287,1,66.0000020141602,10|0,0:0|0:0,0:0:0:0:
270,355,73219,6,0,B|312:329|312:329|403:340,1,132.00000402832,2|10,1:2|0:0,0:0:0:0:
478,353,73579,1,0,0:0:0:0:
478,353,73699,2,0,B|450:317|450:317|466:220,1,132.00000402832,2|10,1:2|0:0,0:0:0:0:
485,148,74059,1,0,0:0:0:0:
485,148,74179,2,0,P|434:184|363:142,1,132.00000402832,2|10,1:2|0:0,0:0:0:0:
254,36,74659,6,0,L|184:36,1,66.0000020141602,2|0,1:2|1:2,0:0:0:0:
127,97,74899,2,0,L|57:96,1,66.0000020141602,10|0,0:0|0:0,0:0:0:0:
15,168,75139,6,0,B|45:199|45:199|27:296,1,132.00000402832,6|10,1:2|0:0,0:0:0:0:
8,370,75499,1,0,0:0:0:0:
8,370,75619,2,0,P|39:348|78:344,1,66.0000020141602,2|0,1:2|1:2,0:0:0:0:
124,279,75859,2,0,P|159:290|190:318,1,66.0000020141602,10|0,0:0|1:2,0:0:0:0:
252,357,76099,6,0,L|389:339,1,132.00000402832,2|10,0:0|0:0,0:0:0:0:
400,258,76459,1,0,0:0:0:0:
400,258,76579,2,0,L|269:275,1,132.00000402832,0|10,1:2|0:0,0:0:0:0:
202,227,76939,1,0,0:0:0:0:
202,227,77059,6,0,P|169:169|194:107,1,132.00000402832,2|10,1:2|0:0,0:0:0:0:
248,48,77419,1,0,0:0:0:0:
248,48,77539,2,0,L|331:57,1,66.0000020141602,2|0,1:2|1:2,0:0:0:0:
365,123,77779,2,0,L|440:132,1,66.0000020141602,10|0,0:0|1:2,0:0:0:0:
478,59,78019,2,0,B|442:84|442:84|461:183,1,132.00000402832,2|10,0:0|0:0,0:0:0:0:
501,337,78499,6,0,L|430:326,1,66.0000020141602,2|0,1:2|1:2,0:0:0:0:
359,367,78739,2,0,L|288:356,1,66.0000020141602,10|0,0:0|0:0,0:0:0:0:
241,288,78979,6,0,L|109:315,1,132.00000402832,6|10,1:2|0:0,0:0:0:0:
42,271,79339,1,0,0:0:0:0:
42,271,79459,2,0,P|32:238|43:202,1,66.0000020141602,2|0,1:2|1:2,0:0:0:0:
92,140,79699,2,0,P|102:107|91:71,1,66.0000020141602,10|0,0:0|0:0,0:0:0:0:
26,24,79939,6,0,B|73:25|73:25|107:41|107:41|169:43,1,132.00000402832,2|10,1:2|0:0,0:0:0:0:
237,40,80299,1,0,0:0:0:0:
237,40,80419,2,0,L|219:109,1,66.0000020141602,0|2,1:2|1:2,0:0:0:0:
293,149,80659,2,0,L|275:218,1,66.0000020141602,10|0,0:0|0:0,0:0:0:0:
247,294,80899,6,0,P|310:324|368:294,1,132.00000402832,2|10,1:2|0:0,0:0:0:0:
418,234,81259,1,0,0:0:0:0:
418,234,81379,2,0,B|418:188|418:188|436:153|436:153|436:90,1,132.00000402832,2|10,1:2|0:0,0:0:0:0:
358,66,81739,1,0,0:0:0:0:
358,66,81859,2,0,B|358:112|358:112|340:147|340:147|340:210,1,132.00000402832,2|10,1:2|0:0,0:0:0:0:
251,340,82339,6,0,P|189:374|132:344,1,132.00000402832,0|10,1:2|0:0,0:0:0:0:
83,291,82699,1,0,0:0:0:0:
83,291,82819,6,0,B|106:255|106:255|90:148,1,132.00000402832,6|10,1:2|0:0,0:0:0:0:
55,80,83179,1,0,0:0:0:0:
55,80,83299,2,0,L|126:81,1,66.0000020141602,2|0,1:2|1:2,0:0:0:0:
191,31,83539,2,0,L|266:31,1,66.0000020141602,10|0,0:0|1:2,0:0:0:0:
320,89,83779,6,0,P|343:155|312:213,1,132.00000402832,2|10,0:0|0:0,0:0:0:0:
255,267,84139,1,0,0:0:0:0:
255,267,84259,2,0,P|321:239|384:270,1,132.00000402832,0|10,1:2|0:0,0:0:0:0:
442,311,84619,1,0,0:0:0:0:
442,311,84739,6,0,L|423:177,1,132.00000402832,2|10,1:2|0:0,0:0:0:0:
511,204,85099,1,0,0:0:0:0:
511,204,85219,2,0,L|502:136,1,66.0000020141602,2|0,1:2|1:2,0:0:0:0:
430,91,85459,2,0,L|421:15,1,66.0000020141602,10|0,0:0|1:2,0:0:0:0:
336,19,85699,2,0,B|288:19|288:19|259:37|259:37|190:36,1,132.00000402832,2|10,0:0|0:0,0:0:0:0:
37,19,86179,6,0,P|54:54|67:93,1,66.0000020141602,6|2,1:2|1:2,0:0:0:0:
143,109,86419,2,0,P|126:144|113:183,1,66.0000020141602,14|0,0:0|0:0,0:0:0:0:
159,244,86659,6,0,B|122:216|122:216|19:216,1,132.00000402832,6|10,1:2|0:0,0:0:0:0:
11,301,87019,1,0,0:0:0:0:
11,301,87139,2,0,L|83:301,1,66.0000020141602,2|0,1:2|1:2,0:0:0:0:
133,366,87379,2,0,L|203:366,1,66.0000020141602,10|0,0:0|0:0,0:0:0:0:
281,339,87619,6,0,P|312:278|280:213,1,132.00000402832,2|10,1:2|0:0,0:0:0:0:
203,76,88099,1,0,1:2:0:0:
203,76,88219,2,0,L|269:88,2,66.0000020141602,2|10|0,1:2|0:0|0:0,0:0:0:0:
152,7,88579,6,0,L|83:17,1,66.0000020141602,2|0,1:2|0:0,0:0:0:0:
97,102,88819,2,0,L|18:112,1,66.0000020141602,10|0,0:0|0:0,0:0:0:0:
71,187,89059,2,0,L|146:178,1,66.0000020141602,2|0,1:2|1:2,0:0:0:0:
203,232,89299,2,0,L|278:223,1,66.0000020141602,10|2,0:0|0:0,0:0:0:0:
334,167,89539,6,0,L|467:193,1,132.00000402832,2|8,1:2|0:0,0:0:0:0:
482,107,89899,2,0,L|352:81,1,132.00000402832,2|0,0:0|1:2,0:0:0:0:
273,60,90259,1,10,0:0:0:0:
144,174,90499,6,0,P|134:216|145:242,1,66.0000020141602,6|2,1:2|0:0,0:0:0:0:
218,274,90739,2,0,P|228:316|217:342,1,66.0000020141602,10|2,0:0|0:0,0:0:0:0:
140,368,90979,2,0,B|108:343|108:343|4:351,1,132.00000402832,2|10,1:2|0:0,0:0:0:0:
7,268,91339,1,2,1:2:0:0:
7,268,91459,6,0,L|-2:200,1,66.0000020141602,2|2,0:0|1:2,0:0:0:0:
84,211,91699,2,0,L|75:143,1,66.0000020141602,10|0,0:0|0:0,0:0:0:0:
153,108,91939,2,0,L|162:40,2,66.0000020141602,2|0|10,1:2|1:2|0:0,0:0:0:0:
214,168,92299,1,2,0:0:0:0:
214,168,92419,2,0,B|252:191|252:191|346:182,1,132.00000402832,2|10,1:2|0:0,0:0:0:0:
401,124,92779,1,2,1:2:0:0:
474,168,92899,2,0,L|486:92,2,66.0000020141602,2|2|8,0:0|1:2|0:0,0:0:0:0:
452,251,93259,6,0,P|408:248|346:312,1,132.00000402832,2|0,0:0|0:0,0:0:0:0:
291,370,93619,1,14,0:0:0:0:
119,373,93859,2,0,P|95:342|100:309,1,66.0000020141602,2|2,1:2|1:2,0:0:0:0:
17,282,94099,2,0,P|38:248|62:234,1,66.0000020141602,14|0,0:0|0:0,0:0:0:0:
95,157,94339,6,0,B|130:154|152:184|125:215|150:237|194:243,1,132.00000402832,6|10,1:2|0:0,0:0:0:0:
257,284,94699,1,0,0:0:0:0:
257,284,94819,2,0,L|387:264,1,132.00000402832,2|10,1:2|0:0,0:0:0:0:
470,238,95179,1,0,0:0:0:0:
470,238,95299,6,0,L|479:171,1,66.0000020141602,2|0,1:2|0:0,0:0:0:0:
420,108,95539,2,8,L|431:42,1,66.0000020141602,10|0,0:0|0:0,0:0:0:0:
348,17,95779,1,0,1:2:0:0:
277,65,95899,2,0,L|205:56,2,66.0000020141602,2|10|0,1:2|0:0|0:0,0:0:0:0:
292,150,96259,6,0,B|317:186|317:186|419:186,1,132.00000402832,2|10,1:2|0:0,0:0:0:0:
495,188,96619,1,0,0:0:0:0:
495,188,96739,2,0,L|455:325,1,132.00000402832,2|10,1:2|0:0,0:0:0:0:
364,354,97099,1,0,0:0:0:0:
364,354,97219,6,0,L|400:227,1,132.00000402832,2|10,1:2|0:0,0:0:0:0:
335,170,97579,2,0,P|295:166|219:238,1,132.00000402832,2|0,0:0|1:2,0:0:0:0:
303,255,97939,1,10,0:0:0:0:
276,85,98179,6,0,L|207:95,1,66.0000020141602,6|2,1:2|0:0,0:0:0:0:
163,21,98419,2,0,L|94:31,1,66.0000020141602,10|2,0:0|0:0,0:0:0:0:
34,89,98659,2,0,P|23:121|39:158,1,66.0000020141602,2|0,1:2|1:2,0:0:0:0:
106,194,98899,2,0,P|117:226|101:263,1,66.0000020141602,10|2,0:0|1:2,0:0:0:0:
65,331,99139,6,0,B|103:359|103:359|200:350,1,132.00000402832,2|10,0:0|0:0,0:0:0:0:
363,335,99619,2,0,P|372:302|361:269,1,66.0000020141602,14|0,0:0|0:0,0:0:0:0:
300,213,99859,2,0,P|292:177|304:144,1,66.0000020141602,10|0,0:0|0:0,0:0:0:0:
356,90,100099,1,6,1:2:0:0:
356,92,101539,6,0,L|290:72,1,60,10|0,0:0|0:0,0:0:0:0:
228,108,101779,2,0,L|162:88,1,60,10|0,0:0|0:0,0:0:0:0:
92,58,102019,6,0,B|117:89|117:89|99:173,1,120,6|10,1:2|0:0,0:0:0:0:
51,235,102379,2,0,L|117:250,1,60,2|0,0:0|1:2,0:0:0:0:
118,331,102619,2,0,L|180:343,1,60,2|8,1:2|0:0,0:0:0:0:
226,275,102859,1,2,1:2:0:0:
226,275,102979,6,0,B|304:266|268:316|356:303,1,120,2|10,0:0|0:0,0:0:0:0:
415,348,103339,1,0,0:0:0:0:
415,348,103459,2,0,P|387:293|411:226,1,120,2|10,1:2|0:0,0:0:0:0:
489,95,103939,6,0,L|369:69,1,120,2|10,1:2|0:0,0:0:0:0:
288,60,104299,2,0,P|276:91|283:118,1,60,2|0,0:0|1:2,0:0:0:0:
330,185,104539,2,0,P|342:216|335:243,1,60,2|8,1:2|0:0,0:0:0:0:
269,292,104779,1,2,1:2:0:0:
269,292,104899,6,0,B|230:292|230:292|196:310|196:310|141:310,1,120,2|10,0:0|0:0,0:0:0:0:
95,370,105259,1,0,0:0:0:0:
95,370,105379,2,0,P|64:309|96:254,1,120,2|10,1:2|0:0,0:0:0:0:
188,135,105859,6,0,L|308:158,1,120,6|10,1:2|0:0,0:0:0:0:
355,225,106219,2,0,L|417:213,1,60,2|0,0:0|1:2,0:0:0:0:
432,295,106459,2,0,L|499:282,1,60,2|8,1:2|0:0,0:0:0:0:
368,364,106699,1,2,1:2:0:0:
368,364,106819,6,0,L|242:331,1,120,2|10,0:0|0:0,0:0:0:0:
198,275,107179,1,0,0:0:0:0:
198,275,107299,2,0,L|81:305,1,120,2|10,1:2|0:0,0:0:0:0:
26,146,107779,6,0,L|145:116,1,120,2|10,1:2|0:0,0:0:0:0:
202,56,108139,2,0,L|263:75,1,60,2|0,0:0|1:2,0:0:0:0:
290,151,108379,2,0,L|350:170,1,60,2|8,1:2|0:0,0:0:0:0:
418,123,108619,6,0,B|393:158|393:158|404:246,1,120,2|2,1:2|1:2,0:0:0:0:
414,317,108979,2,0,P|383:328|356:322,1,60,10|2,0:0|0:0,0:0:0:0:
287,274,109219,2,0,P|257:268|230:279,1,60,2|2,1:2|1:2,0:0:0:0:
161,329,109459,1,10,0:0:0:0:
34,218,109699,6,0,L|59:92,1,120,6|10,1:2|0:0,0:0:0:0:
141,90,110059,2,0,L|128:29,1,60,2|0,0:0|1:2,0:0:0:0:
212,41,110299,2,0,L|225:104,1,60,2|8,1:2|0:0,0:0:0:0:
249,184,110539,1,2,1:2:0:0:
249,184,110659,6,0,P|307:212|362:183,1,120,2|10,0:0|0:0,0:0:0:0:
415,132,111019,1,0,0:0:0:0:
415,132,111139,2,0,L|394:5,1,120,2|10,1:2|0:0,0:0:0:0:
227,28,111619,6,0,B|185:28|185:28|153:44|153:44|97:44,1,120,2|10,1:2|0:0,0:0:0:0:
26,45,111979,2,0,P|39:75|46:109,1,60,2|0,0:0|1:2,0:0:0:0:
114,149,112219,2,0,P|101:179|94:213,1,60,2|8,1:2|0:0,0:0:0:0:
44,273,112459,1,2,1:2:0:0:
44,273,112579,6,0,B|70:302|70:302|168:289,1,120,2|10,0:0|0:0,0:0:0:0:
218,348,112939,1,0,0:0:0:0:
218,348,113059,2,0,B|244:319|244:319|342:332,1,120,2|10,1:2|0:0,0:0:0:0:
489,359,113539,6,0,L|470:237,1,120,6|10,1:2|0:0,0:0:0:0:
447,159,113899,2,0,P|417:151|382:162,1,60,2|0,0:0|1:2,0:0:0:0:
316,200,114139,2,0,P|287:207|258:201,1,60,2|8,1:2|0:0,0:0:0:0:
193,145,114379,1,2,1:2:0:0:
193,145,114499,6,0,B|171:108|171:108|183:25,1,120,2|10,0:0|0:0,0:0:0:0:
256,80,114859,1,0,0:0:0:0:
256,80,114979,2,0,B|278:117|278:117|266:200,1,120,2|10,1:2|0:0,0:0:0:0:
219,263,115339,1,0,0:0:0:0:
278,321,115459,6,0,L|345:311,1,60,6|2,1:2|0:0,0:0:0:0:
407,359,115699,2,0,L|474:349,1,60,10|2,0:0|0:0,0:0:0:0:
507,276,115939,2,0,P|515:245|505:217,1,60,6|2,1:2|1:2,0:0:0:0:
439,166,116179,2,0,P|431:135|441:107,1,60,10|2,0:0|0:0,0:0:0:0:
490,42,116419,1,6,1:2:0:0:
490,42,116539,1,10,0:0:0:0:
402,17,116659,5,10,0:0:0:0:
402,17,116779,2,0,L|338:23,1,60,10|10,0:0|0:0,0:0:0:0:
261,63,117019,2,0,L|253:-1,2,60,10|10|10,0:0|0:0|0:0,0:0:0:0:
272,152,117379,1,6,1:2:0:0:
