osu file format v14

[General]
AudioFilename: audio.mp3
AudioLeadIn: 0
PreviewTime: 66720
Countdown: 0
SampleSet: Drum
StackLeniency: 0.5
Mode: 0
LetterboxInBreaks: 0
WidescreenStoryboard: 0

[Editor]
Bookmarks: 4213,7889,11134,14811,23246,28653,35575,42496,56339,69966,80564,87485,94407,101328,122093
DistanceSpacing: 1.2
BeatDivisor: 4
GridSize: 4
TimelineZoom: 2.699999

[Metadata]
Title:Mikata 7 [Last Battle]
TitleUnicode:味方7 [Last Battle]
Artist:Iwadare Noriyuki
ArtistUnicode:岩垂徳行
Creator:mezelyus
Version:Finale
Source:ラングリッサーII
Tags:Langrisser II 2 Der Endkampf 幡手 康隆 Yasutaka Hatade YOUMEX studio TERRA 溝口 功 Isao Mizoguchi Entry instrumental video game SEGA Genesis Mega Drive Rangurissa Final Battle
BeatmapID:2348523
BeatmapSetID:1123907

[Difficulty]
HPDrainRate:6
CircleSize:4
OverallDifficulty:8.3
ApproachRate:8
SliderMultiplier:1.4
SliderTickRate:1

[Events]
//Background and Video events
0,0,"asfasfs.jpg",0,0
//Break Periods
//Storyboard Layer 0 (Background)
//Storyboard Layer 1 (Fail)
//Storyboard Layer 2 (Pass)
//Storyboard Layer 3 (Foreground)
//Storyboard Layer 4 (Overlay)
//Storyboard Sound Samples

[TimingPoints]
969,416.666666666667,4,3,4,65,1,0
969,-90.9090909090909,4,3,4,65,0,0
1385,444.444444444444,4,3,4,65,1,0
1829,431.654676258993,4,2,1,65,1,0
1829,-90.9090909090909,4,2,1,65,0,0
2044,-90.9090909090909,4,2,1,65,0,0
2692,434.782608695652,4,2,1,65,1,0
2692,-83.3333333333333,4,2,1,65,0,0
4213,432.588320115357,4,2,1,75,1,0
4213,-83.3333333333333,4,2,1,75,0,0
4429,432.588320115357,4,2,1,75,1,0
5726,-100,4,3,3,75,0,0
5834,-100,4,3,4,75,0,0
5943,-83.3333333333333,4,3,5,75,0,0
6375,-83.3333333333333,4,2,1,75,0,0
7457,-83.3333333333333,4,3,4,75,0,0
7673,-83.3333333333333,4,3,3,75,0,0
7889,-90.9090909090909,4,2,1,65,0,0
8863,-90.9090909090909,4,3,5,65,0,0
9079,-90.9090909090909,4,3,4,65,0,0
9187,-90.9090909090909,4,3,3,65,0,0
9620,-90.9090909090909,4,2,1,65,0,0
10701,-90.9090909090909,4,2,1,65,0,0
11134,-83.3333333333333,4,2,1,75,0,0
12648,-83.3333333333333,4,3,3,75,0,0
12756,-83.3333333333333,4,3,4,75,0,0
12864,-83.3333333333333,4,3,5,75,0,0
13080,-83.3333333333333,4,2,1,75,0,0
13945,-83.3333333333333,4,3,5,75,0,0
14162,-83.3333333333333,4,3,4,75,0,0
14378,-83.3333333333333,4,3,3,75,0,0
14594,-83.3333333333333,4,2,1,70,0,0
14811,-83.3333333333333,4,2,1,70,0,0
19569,-83.3333333333333,4,3,3,70,0,0
19677,-83.3333333333333,4,3,4,70,0,0
19785,-83.3333333333333,4,3,5,70,0,0
20002,-83.3333333333333,4,2,1,70,0,0
20218,-83.3333333333333,4,2,1,70,0,0
20867,-83.3333333333333,4,3,5,70,0,0
21083,-83.3333333333333,4,3,4,70,0,0
21299,-83.3333333333333,4,3,3,70,0,0
21516,-83.3333333333333,4,3,2,70,0,0
21732,-83.3333333333333,4,2,1,70,0,0
23246,-83.3333333333333,4,2,1,75,0,0
26491,-83.3333333333333,4,3,3,75,0,0
26599,-83.3333333333333,4,3,4,75,0,0
26707,-83.3333333333333,4,3,5,75,0,0
26923,-83.3333333333333,4,2,1,75,0,0
28221,-83.3333333333333,4,3,4,75,0,0
28437,-83.3333333333333,4,3,3,75,0,0
28653,-83.3333333333333,4,2,1,75,0,0
33412,-83.3333333333333,4,3,3,70,0,0
33520,-83.3333333333333,4,3,4,70,0,0
33628,-83.3333333333333,4,3,5,70,0,0
34060,-83.3333333333333,4,2,1,70,0,0
34710,-83.3333333333333,4,3,5,70,0,0
34926,-83.3333333333333,4,3,4,70,0,0
35142,-83.3333333333333,4,3,3,70,0,0
35359,-83.3333333333333,4,3,2,70,0,0
35575,-83.3333333333333,4,2,1,70,0,0
37089,-76.9230769230769,4,2,1,75,0,0
38819,-83.3333333333333,4,2,1,75,0,0
40333,-83.3333333333333,4,3,3,75,0,0
40441,-83.3333333333333,4,3,4,75,0,0
40550,-83.3333333333333,4,3,5,75,0,0
40766,-83.3333333333333,4,2,1,75,0,0
42064,-83.3333333333333,4,3,4,75,0,0
42280,-83.3333333333333,4,3,3,75,0,0
42496,-83.3333333333333,4,2,1,70,0,0
59800,-83.3333333333333,4,3,5,75,0,0
60449,-83.3333333333333,4,3,4,75,0,0
61098,-83.3333333333333,4,3,3,75,0,0
61746,-83.3333333333333,4,3,2,75,0,0
62395,-83.3333333333333,4,2,1,75,0,0
62719,-83.3333333333333,4,2,1,20,0,0
62828,-83.3333333333333,4,2,1,75,0,0
66721,-90.9090909090909,4,3,4,65,0,0
67586,-90.9090909090909,4,2,1,65,0,0
67802,-90.9090909090909,4,2,1,65,0,0
68452,-83.3333333333333,4,2,1,75,0,0
71480,-83.3333333333333,4,3,3,75,0,0
71588,-83.3333333333333,4,3,4,75,0,0
71696,-83.3333333333333,4,3,5,75,0,0
72128,-83.3333333333333,4,2,1,75,0,0
73210,-83.3333333333333,4,3,4,75,0,0
73426,-83.3333333333333,4,3,3,75,0,0
73643,-90.9090909090909,4,2,1,65,0,0
74616,-90.9090909090909,4,3,5,65,0,0
74832,-90.9090909090909,4,3,4,65,0,0
74940,-90.9090909090909,4,3,3,65,0,0
75374,-90.9090909090909,4,2,1,65,0,0
76454,-90.9090909090909,4,2,1,65,0,0
76887,-83.3333333333333,4,2,1,75,0,0
78401,-83.3333333333333,4,3,3,75,0,0
78509,-83.3333333333333,4,3,4,75,0,0
78617,-83.3333333333333,4,3,5,75,0,0
78834,-83.3333333333333,4,2,1,75,0,0
79699,-83.3333333333333,4,3,5,75,0,0
79915,-83.3333333333333,4,3,4,75,0,0
80131,-83.3333333333333,4,3,3,75,0,0
80348,-83.3333333333333,4,2,1,70,0,0
80564,-83.3333333333333,4,2,1,70,0,0
85323,-83.3333333333333,4,3,3,70,0,0
85431,-83.3333333333333,4,3,4,70,0,0
85539,-83.3333333333333,4,3,5,70,0,0
85755,-83.3333333333333,4,2,1,70,0,0
85971,-83.3333333333333,4,2,1,70,0,0
86620,-83.3333333333333,4,3,5,70,0,0
86837,-83.3333333333333,4,3,4,70,0,0
87053,-83.3333333333333,4,3,3,70,0,0
87269,-83.3333333333333,4,3,2,70,0,0
87485,-83.3333333333333,4,2,1,70,0,0
89000,-83.3333333333333,4,2,1,75,0,0
92244,-83.3333333333333,4,3,3,75,0,0
92352,-83.3333333333333,4,3,4,75,0,0
92460,-83.3333333333333,4,3,5,75,0,0
92677,-83.3333333333333,4,2,1,75,0,0
93974,-83.3333333333333,4,3,4,75,0,0
94191,-83.3333333333333,4,3,3,75,0,0
94407,-83.3333333333333,4,2,1,75,0,0
99165,-83.3333333333333,4,3,3,70,0,0
99273,-83.3333333333333,4,3,4,70,0,0
99382,-83.3333333333333,4,3,5,70,0,0
99814,-83.3333333333333,4,2,1,70,0,0
100463,-83.3333333333333,4,3,5,70,0,0
100679,-83.3333333333333,4,3,4,70,0,0
100896,-83.3333333333333,4,3,3,70,0,0
101112,-83.3333333333333,4,3,2,70,0,0
101328,-83.3333333333333,4,2,1,70,0,0
102842,-76.9230769230769,4,2,1,75,0,0
104573,-83.3333333333333,4,2,1,75,0,0
106087,-83.3333333333333,4,3,3,75,0,0
106195,-83.3333333333333,4,3,4,75,0,0
106303,-83.3333333333333,4,3,5,75,0,0
106519,-83.3333333333333,4,2,1,75,0,0
107817,-83.3333333333333,4,3,4,75,0,0
108033,-83.3333333333333,4,3,3,75,0,0
108250,-83.3333333333333,4,2,1,70,0,0
125553,-83.3333333333333,4,3,5,75,0,0
126202,-83.3333333333333,4,3,4,75,0,0
126851,-83.3333333333333,4,3,3,75,0,0
127500,-83.3333333333333,4,3,2,75,0,0
128149,-83.3333333333333,4,2,1,75,0,0
128473,-83.3333333333333,4,2,1,20,0,0
128581,-83.3333333333333,4,2,1,75,0,0
132475,-90.9090909090909,4,3,4,65,0,0
133340,-90.9090909090909,4,2,1,65,0,0
133556,-90.9090909090909,4,2,1,65,0,0
135719,-83.3333333333333,4,2,1,75,0,0
137233,-83.3333333333333,4,3,3,75,0,0
137341,-83.3333333333333,4,3,4,75,0,0
137449,-83.3333333333333,4,3,5,75,0,0
137881,-83.3333333333333,4,2,1,75,0,0
138963,-83.3333333333333,4,3,4,75,0,0
139180,-83.3333333333333,4,3,3,75,0,0
139396,-90.9090909090909,4,2,1,65,0,0
140369,-90.9090909090909,4,3,5,65,0,0
140585,-90.9090909090909,4,3,4,65,0,0
140694,-90.9090909090909,4,3,3,65,0,0
141127,-90.9090909090909,4,2,1,65,0,0
142208,-90.9090909090909,4,2,1,65,0,0
142640,-83.3333333333333,4,2,1,75,0,0
144155,-83.3333333333333,4,3,3,75,0,0
144263,-83.3333333333333,4,3,4,75,0,0
144371,-83.3333333333333,4,3,5,75,0,0
144587,-83.3333333333333,4,2,1,75,0,0
145452,-83.3333333333333,4,3,5,75,0,0
145669,-83.3333333333333,4,3,4,75,0,0
145885,-83.3333333333333,4,3,3,75,0,0
146101,-83.3333333333333,4,2,1,50,0,0
146317,-83.3333333333333,4,2,1,50,0,0

[Colours]
Combo1 : 255,180,79
Combo2 : 248,231,112
Combo3 : 255,77,77
Combo4 : 104,180,255
Combo5 : 255,145,200
Combo6 : 40,88,255

[HitObjects]
98,120,969,6,0,P|70:123|41:115,2,51.3333348999024
178,184,1385,1,2,0:2:0:0:
178,192,1496,1,0,0:0:0:0:
179,201,1607,1,0,0:0:0:0:
180,210,1718,1,0,0:0:0:0:
181,218,1829,2,0,L|170:310,1,77.0000023498536,10|0,0:0|3:0,0:0:0:0:
229,377,2260,2,0,L|324:384,1,77.0000023498536,2|0,0:0|3:0,0:0:0:0:
362,237,2692,6,0,P|317:243|267:230,1,83.9999974365235,2|0,3:2|3:0,0:0:0:0:
272,134,3126,1,2,3:2:0:0:
355,76,3344,1,0,3:0:0:0:
181,92,3561,1,10,0:0:0:0:
177,85,3670,1,8,0:0:0:0:
173,78,3778,1,0,3:0:0:0:
264,34,3996,1,2,3:2:0:0:
71,4,4213,6,0,L|80:170,1,167.999994873047,14|2,0:0|3:0,0:0:0:0:
83,178,4753,1,2,3:0:0:0:
86,184,4861,1,10,0:3:0:0:
42,273,5077,2,0,L|-12:279,2,35,2|2|2,3:0|3:0|3:0,0:0:0:0:
184,136,5510,1,2,3:0:0:0:
192,161,5618,1,2,3:0:0:0:
194,187,5726,1,8,0:0:0:0:
189,213,5834,1,0,0:0:0:0:
178,237,5943,6,0,P|173:318|233:378,1,167.999994873047,0|2,0:0|3:0,0:0:0:0:
238,378,6483,1,2,3:0:0:0:
246,378,6591,1,10,3:0:0:0:
476,278,6808,1,2,3:0:0:0:
443,268,6916,1,2,3:0:0:0:
410,269,7024,1,2,3:0:0:0:
378,280,7132,1,2,0:3:0:0:
345,291,7240,1,2,0:3:0:0:
312,292,7348,1,2,0:3:0:0:
279,283,7457,2,0,L|280:241,3,41.9999987182618,8|0|0|0,0:0|0:0|0:0|0:0,0:0:0:0:
361,167,7889,6,0,L|459:177,1,77.0000023498536,8|0,3:2|3:0,0:0:0:0:
386,62,8322,2,0,L|288:72,1,77.0000023498536,10|0,0:0|0:0,0:0:0:0:
112,131,8754,5,2,0:0:0:0:
112,131,8863,2,0,P|94:134|79:130,4,19.2500005874634,0|0|0|0|8,0:0|0:0|0:0|0:0|0:2,0:0:0:0:
124,126,9187,2,0,P|119:95|126:66,2,51.3333348999024,2|2|2,0:2|0:0|0:0,0:0:0:0:
234,157,9620,5,10,0:0:0:0:
54,208,10052,1,2,0:0:0:0:
343,257,10485,2,0,P|346:218|335:182,1,77.0000023498536,10|0,0:0|3:0,0:0:0:0:
240,152,10917,1,2,3:2:0:0:
296,345,11134,6,0,B|330:374|373:367|373:367|405:332|466:331,1,167.999994873047,14|2,0:0|3:0,0:0:0:0:
454,338,11674,1,2,3:0:0:0:
458,344,11783,1,10,0:3:0:0:
506,263,11999,2,0,L|498:221,2,41.9999987182618,2|2|2,3:0|3:0|3:0,0:0:0:0:
349,164,12431,1,2,3:0:0:0:
339,188,12540,1,2,3:0:0:0:
335,213,12648,1,8,0:0:0:0:
336,239,12756,1,0,0:0:0:0:
343,264,12864,6,0,B|369:164|315:199|344:95,1,167.999994873047,8|2,0:0|3:0,0:0:0:0:
350,95,13405,1,2,3:0:0:0:
357,91,13513,1,10,0:3:0:0:
293,12,13729,2,0,L|244:7,2,41.9999987182618,2|2|10,3:0|3:0|3:0,0:0:0:0:
457,85,14162,1,2,0:0:0:0:
461,118,14270,1,2,0:0:0:0:
465,151,14378,1,10,0:0:0:0:
465,151,14811,6,0,L|458:239,1,83.9999974365235,2|0,3:2|0:0,0:0:0:0:
370,354,15243,2,0,L|364:271,1,83.9999974365235,10|0,0:0|0:0,0:0:0:0:
177,217,15676,1,2,3:2:0:0:
273,249,15892,1,0,0:0:0:0:
273,249,16000,1,0,0:0:0:0:
273,249,16108,1,10,0:0:0:0:
95,284,16325,6,0,B|85:299|85:299|77:193|77:193|92:172|95:150,1,167.999994873047,2|0,3:2|3:0,0:0:0:0:
94,144,16865,1,0,0:0:0:0:
93,135,16974,1,8,0:0:0:0:
178,81,17190,1,2,0:0:0:0:
89,35,17406,1,2,3:2:0:0:
267,127,17622,2,0,L|359:116,1,83.9999974365235,2|8,0:0|0:0,0:0:0:0:
474,34,18055,6,0,L|299:13,1,167.999994873047,2|0,3:2|0:0,0:0:0:0:
300,18,18596,1,0,0:0:0:0:
292,22,18704,1,8,0:0:0:0:
261,118,18920,2,0,L|267:176,2,41.9999987182618,0|0|0,0:0|0:0|3:0,0:0:0:0:
448,229,19353,5,0,0:0:0:0:
455,205,19461,1,0,0:0:0:0:
457,180,19569,1,8,0:2:0:0:
453,155,19677,1,0,0:0:0:0:
443,132,19785,6,0,L|320:117,1,83.9999974365235
240,257,20218,1,0,3:0:0:0:
240,257,20326,1,0,3:0:0:0:
240,257,20434,1,8,0:0:0:0:
334,228,20651,2,0,P|339:248|337:269,1,41.9999987182618
235,356,20867,1,0,0:0:0:0:
214,353,20975,1,0,0:0:0:0:
193,350,21083,1,0,0:0:0:0:
172,348,21191,1,0,0:0:0:0:
151,345,21299,1,8,0:2:0:0:
130,342,21408,1,2,0:2:0:0:
109,339,21516,1,2,0:2:0:0:
88,337,21624,1,2,0:2:0:0:
67,334,21732,6,0,P|74:286|66:250,1,83.9999974365235,2|0,3:2|0:0,0:0:0:0:
122,84,22165,2,0,P|114:125|122:167,1,83.9999974365235,10|0,0:0|0:0,0:0:0:0:
315,179,22597,1,2,3:2:0:0:
222,138,22814,1,2,0:0:0:0:
397,118,23030,1,10,0:0:0:0:
211,36,23246,6,0,P|128:49|48:25,1,167.999994873047,6|2,0:0|0:0,0:0:0:0:
233,240,23895,1,10,0:0:0:0:
233,240,24003,1,2,0:0:0:0:
233,240,24111,1,10,0:0:0:0:
397,118,24328,2,0,L|392:34,1,83.9999974365235,10|2,0:0|0:0,0:0:0:0:
297,0,24760,1,0,3:2:0:0:
315,179,24976,6,0,B|339:213|339:213|405:238|465:199,1,167.999994873047,14|2,0:0|0:3,0:0:0:0:
467,186,25517,1,2,0:3:0:0:
473,170,25625,1,10,0:3:0:0:
486,317,25842,1,2,0:3:0:0:
486,317,25950,1,2,0:3:0:0:
486,317,26058,1,2,3:0:0:0:
363,382,26274,1,2,0:3:0:0:
373,358,26382,1,2,0:3:0:0:
377,334,26491,1,8,0:2:0:0:
375,309,26599,1,0,0:0:0:0:
367,285,26707,6,0,L|372:117,1,167.999994873047,2|2,0:0|3:0,0:0:0:0:
368,109,27248,1,2,0:3:0:0:
363,101,27356,1,10,0:3:0:0:
266,72,27572,2,0,P|242:78|210:78,1,41.9999987182618,2|2,0:3|0:3,0:0:0:0:
40,162,27788,5,2,3:0:0:0:
72,179,27896,1,8,0:0:0:0:
107,187,28005,1,8,0:0:0:0:
144,183,28113,1,8,0:0:0:0:
177,168,28221,1,0,0:0:0:0:
166,154,28329,1,2,0:2:0:0:
155,140,28437,1,2,0:2:0:0:
144,126,28545,1,2,0:2:0:0:
133,113,28653,6,0,P|127:72|136:31,1,83.9999974365235,2|0,3:2|0:0,0:0:0:0:
267,160,29086,2,0,P|298:133|319:97,1,83.9999974365235,10|0,0:0|0:0,0:0:0:0:
289,368,29519,1,2,3:2:0:0:
277,269,29735,1,0,0:0:0:0:
277,269,29843,1,0,0:0:0:0:
277,269,29951,1,10,0:2:0:0:
47,290,30168,6,0,B|52:312|70:322|70:322|202:329,1,167.999994873047,2|0,3:2|3:0,0:0:0:0:
356,209,30816,1,8,0:0:0:0:
296,127,31033,1,2,0:0:0:0:
298,118,31141,1,0,0:0:0:0:
300,109,31249,1,2,3:2:0:0:
457,198,31465,2,0,L|469:291,1,83.9999974365235,2|8,0:0|0:0,0:0:0:0:
248,384,31898,6,0,B|255:321|255:321|236:278|236:278|244:219,1,167.999994873047,2|0,3:2|0:0,0:0:0:0:
240,212,32439,1,0,0:0:0:0:
237,204,32547,1,8,0:0:0:0:
173,125,32763,2,0,L|114:116,2,41.9999987182618,0|0|0,0:0|0:0|3:0,0:0:0:0:
288,31,33196,1,0,0:0:0:0:
299,53,33304,1,0,0:0:0:0:
304,77,33412,1,8,0:2:0:0:
303,103,33520,1,0,0:0:0:0:
296,127,33628,6,0,B|396:101|361:155|465:126,1,167.999994873047,0|0,0:0|3:0,0:0:0:0:
465,120,34169,1,0,3:0:0:0:
469,113,34277,1,8,0:0:0:0:
452,234,34493,2,0,P|429:239|392:236,1,41.9999987182618
314,269,34710,1,0,0:0:0:0:
308,289,34818,1,0,0:0:0:0:
309,310,34926,1,0,0:0:0:0:
317,329,35034,1,0,0:0:0:0:
331,344,35142,1,8,0:2:0:0:
349,354,35250,1,2,0:2:0:0:
370,357,35359,1,2,0:2:0:0:
390,352,35467,1,2,0:2:0:0:
408,340,35575,6,0,L|510:346,1,83.9999974365235,2|0,3:2|0:0,0:0:0:0:
333,173,36007,2,0,L|231:179,1,83.9999974365235,10|0,0:0|0:0,0:0:0:0:
118,374,36440,1,2,3:2:0:0:
184,276,36656,1,2,0:0:0:0:
66,267,36873,1,10,0:0:0:0:
90,78,37089,6,0,B|109:40|109:40|161:96|131:168,1,181.999991668702,14|2,0:0|0:0,0:0:0:0:
300,282,37738,1,2,3:2:0:0:
300,282,37846,1,2,0:0:0:0:
300,282,37954,1,2,3:2:0:0:
255,61,38170,2,0,P|279:21|324:-2,1,90.9999958343508,10|2,0:0|0:0,0:0:0:0:
428,39,38603,1,2,3:2:0:0:
300,171,38819,6,0,L|128:185,1,167.999994873047,14|2,0:0|0:3,0:0:0:0:
116,178,39360,1,2,0:3:0:0:
100,171,39468,1,10,0:3:0:0:
136,53,39684,1,2,0:3:0:0:
136,53,39793,1,2,0:3:0:0:
136,53,39901,1,2,3:0:0:0:
12,121,40117,1,2,0:3:0:0:
3,144,40225,1,2,0:3:0:0:
0,169,40333,1,8,0:2:0:0:
2,194,40441,1,0,0:0:0:0:
10,218,40550,6,0,P|38:302|14:378,1,167.999994873047,2|2,0:0|3:0,0:0:0:0:
240,320,41199,1,10,0:3:0:0:
145,289,41415,1,2,0:3:0:0:
358,384,41631,5,2,3:0:0:0:
344,350,41739,1,8,2:0:0:0:
340,314,41847,1,8,0:0:0:0:
347,278,41956,1,8,0:0:0:0:
365,247,42064,2,0,P|345:244|326:236,3,41.9999987182618,2|2|2|2,0:2|0:0|0:0|0:0,0:0:0:0:
470,238,42496,5,2,3:2:0:0:
472,248,42604,1,2,0:0:0:0:
475,258,42713,1,2,0:0:0:0:
477,269,42821,1,2,0:0:0:0:
480,279,42929,1,10,0:0:0:0:
379,161,43145,2,0,L|388:72,1,83.9999974365235,2|0,0:0|3:0,0:0:0:0:
489,0,43578,2,0,P|502:39|495:80,1,83.9999974365235,2|8,0:0|0:0,0:0:0:0:
286,46,44010,1,2,0:0:0:0:
278,49,44118,1,2,0:0:0:0:
270,52,44227,6,0,L|186:59,1,83.9999974365235,2|0,3:2|0:0,0:0:0:0:
33,132,44659,2,0,L|117:139,1,83.9999974365235,10|0,0:0|0:0,0:0:0:0:
231,359,45092,1,2,3:2:0:0:
134,331,45308,1,2,0:0:0:0:
162,234,45524,1,10,0:0:0:0:
259,262,45741,1,2,0:0:0:0:
60,384,45957,6,0,P|89:318|68:227,1,167.999994873047,2|8,3:2|0:0,0:0:0:0:
165,43,46606,1,0,0:0:0:0:
165,43,46714,1,0,0:0:0:0:
165,43,46822,2,0,P|179:85|172:127,1,83.9999974365235,0|0,3:0|0:0,0:0:0:0:
169,130,47147,1,0,0:0:0:0:
164,137,47255,1,8,0:0:0:0:
290,99,47471,1,0,0:0:0:0:
290,99,47579,1,0,0:0:0:0:
290,99,47687,6,0,L|388:108,1,83.9999974365235,2|0,3:2|0:0,0:0:0:0:
256,237,48120,2,0,L|172:244,1,83.9999974365235,10|0,0:0|0:0,0:0:0:0:
378,376,48553,2,0,P|388:328|375:284,1,83.9999974365235,2|0,3:2|0:0,0:0:0:0:
375,287,48877,1,0,0:0:0:0:
370,279,48985,1,10,0:0:0:0:
441,208,49201,1,0,0:0:0:0:
394,75,49418,5,2,3:2:0:0:
391,85,49526,1,2,0:0:0:0:
390,95,49634,1,2,0:0:0:0:
390,106,49742,1,2,0:0:0:0:
392,116,49850,1,10,0:0:0:0:
207,83,50067,2,0,L|200:-9,1,83.9999974365235,2|0,0:0|3:0,0:0:0:0:
288,148,50499,2,0,L|281:240,1,83.9999974365235,2|8,0:0|0:0,0:0:0:0:
228,318,50932,1,2,0:0:0:0:
219,315,51040,1,2,0:0:0:0:
210,312,51148,6,0,P|274:268|368:301,1,167.999994873047,2|10,3:2|0:0,0:0:0:0:
296,370,51797,1,0,0:0:0:0:
467,311,52013,2,0,P|458:264|473:221,1,83.9999974365235,2|2,3:2|0:0,0:0:0:0:
428,141,52446,1,10,0:0:0:0:
428,141,52662,1,2,0:0:0:0:
305,21,52878,6,0,L|326:201,1,167.999994873047,2|8,3:2|0:0,0:0:0:0:
112,99,53527,1,0,0:0:0:0:
116,92,53635,1,0,0:0:0:0:
121,85,53744,2,0,P|165:73|216:89,1,83.9999974365235,0|0,3:0|0:0,0:0:0:0:
89,196,54176,2,0,P|49:208|8:201,1,83.9999974365235,8|0,0:0|0:0,0:0:0:0:
170,366,54609,5,2,3:2:0:0:
176,266,54825,1,0,0:0:0:0:
176,266,54933,1,0,0:0:0:0:
176,266,55041,2,0,B|218:288|266:271|247:259|293:242|345:267,1,167.999994873047,8|0,0:0|3:0,0:0:0:0:
391,352,55690,1,0,0:0:0:0:
463,158,55907,2,0,L|369:169,1,83.9999974365235,8|0,0:0|2:0,0:0:0:0:
271,38,56339,5,2,3:2:0:0:
282,154,56555,1,2,0:0:0:0:
271,38,56772,1,10,0:0:0:0:
379,167,56988,2,0,L|473:178,1,83.9999974365235,2|0,0:0|3:0,0:0:0:0:
507,277,57421,1,0,0:0:0:0:
442,365,57637,1,8,0:0:0:0:
289,328,57853,1,2,0:0:0:0:
289,328,57961,1,2,0:0:0:0:
289,328,58069,6,0,P|283:280|299:240,1,83.9999974365235,2|2,3:2|0:0,0:0:0:0:
379,167,58502,1,10,0:0:0:0:
191,193,58718,2,0,P|109:198|37:147,1,167.999994873047,2|2,0:0|3:2,0:0:0:0:
36,312,59367,1,10,0:0:0:0:
58,322,59475,1,2,0:0:0:0:
83,326,59584,1,2,0:0:0:0:
108,322,59692,1,2,0:0:0:0:
131,312,59800,6,0,L|176:304,1,41.9999987182618,10|0,0:2|0:0,0:0:0:0:
259,355,60016,1,2,0:2:0:0:
259,355,60232,1,0,0:0:0:0:
389,211,60449,2,0,L|344:203,1,41.9999987182618,10|0,0:2|0:0,0:0:0:0:
261,254,60665,1,2,0:2:0:0:
261,254,60881,1,0,0:0:0:0:
131,110,61098,6,0,L|176:102,1,41.9999987182618,10|0,0:2|0:0,0:0:0:0:
259,153,61314,1,2,0:2:0:0:
259,153,61530,1,0,0:0:0:0:
389,9,61746,2,0,L|347:1,1,41.9999987182618,10|0,0:2|0:0,0:0:0:0:
261,52,61963,1,2,0:2:0:0:
241,44,62071,1,0,0:0:0:0:
223,33,62179,1,0,0:0:0:0:
207,20,62287,1,0,0:0:0:0:
192,5,62395,6,0,L|28:33,1,125.999996154785,2|0,3:2|0:0,0:0:0:0:
129,113,62828,2,0,L|194:124,1,41.9999987182618,8|8,0:0|0:0,0:0:0:0:
356,106,63044,1,10,0:0:0:0:
356,106,63152,1,2,0:0:0:0:
356,106,63261,6,0,P|397:118|443:108,1,83.9999974365235,2|0,0:2|0:0,0:0:0:0:
309,203,63693,2,0,P|268:191|222:201,1,83.9999974365235,8|0,0:0|0:0,0:0:0:0:
146,260,64126,2,0,L|154:353,1,83.9999974365235,0|0,3:0|0:0,0:0:0:0:
159,349,64450,1,0,0:0:0:0:
163,356,64558,1,8,0:0:0:0:
66,192,64775,1,0,0:0:0:0:
66,192,64883,1,0,0:0:0:0:
66,192,64991,6,0,B|40:92|94:127|65:23,1,167.999994873047,2|8,0:0|0:0,0:0:0:0:
1,279,65640,2,0,P|58:301|151:258,1,167.999994873047,2|0,0:0|3:0,0:0:0:0:
366,267,66289,1,8,0:0:0:0:
382,293,66397,1,8,0:0:0:0:
388,324,66505,1,8,0:0:0:0:
385,355,66613,1,8,0:0:0:0:
369,382,66721,6,0,L|298:370,2,51.3333348999024
497,368,67154,1,2,0:2:0:0:
497,360,67262,1,0,0:0:0:0:
498,351,67370,1,0,0:0:0:0:
499,342,67478,1,0,0:0:0:0:
500,334,67586,2,0,L|483:247,1,77.0000023498536,10|0,0:0|3:0,0:0:0:0:
412,189,68019,2,0,L|325:172,1,77.0000023498536,2|0,0:0|3:0,0:0:0:0:
477,35,68452,6,0,P|491:72|482:119,1,83.9999974365235,2|0,3:2|3:0,0:0:0:0:
416,201,68884,1,2,3:2:0:0:
494,264,69100,1,0,3:0:0:0:
306,244,69317,1,10,0:0:0:0:
315,243,69425,1,8,0:0:0:0:
324,242,69533,1,0,3:0:0:0:
402,305,69749,1,2,3:2:0:0:
256,321,69966,6,0,L|282:153,1,167.999994873047,14|2,0:0|3:0,0:0:0:0:
290,153,70506,1,2,3:0:0:0:
299,152,70615,1,10,0:3:0:0:
397,172,70831,2,0,P|417:175|438:172,2,41.9999987182618,2|2|2,3:0|3:0|3:0,0:0:0:0:
275,51,71263,1,2,3:0:0:0:
250,43,71372,1,2,3:0:0:0:
225,40,71480,1,8,0:0:0:0:
200,43,71588,1,0,0:0:0:0:
176,50,71696,6,0,P|100:75|11:47,1,167.999994873047,0|2,0:0|3:0,0:0:0:0:
16,43,72237,1,2,3:0:0:0:
14,34,72345,1,10,3:0:0:0:
107,186,72561,1,2,3:0:0:0:
107,186,72669,1,2,3:0:0:0:
107,186,72777,2,0,L|148:193,3,41.9999987182618,2|2|2|2,3:0|0:3|0:3|0:3,0:0:0:0:
237,145,73210,1,8,0:0:0:0:
246,169,73318,1,0,0:0:0:0:
248,194,73426,1,0,0:0:0:0:
245,219,73534,1,0,0:0:0:0:
235,242,73643,6,0,L|222:317,1,77.0000023498536,8|0,3:2|3:0,0:0:0:0:
339,384,74075,2,0,L|326:308,1,77.0000023498536,10|0,0:0|0:0,0:0:0:0:
101,349,74508,5,2,0:0:0:0:
101,349,74616,2,0,L|108:314,4,19.2500005874634,0|0|0|0|8,0:0|0:0|0:0|0:0|0:2,0:0:0:0:
95,361,74940,2,0,L|37:348,2,51.3333348999024,2|2|2,0:2|0:0|0:0,0:0:0:0:
222,317,75373,5,10,0:0:0:0:
1,263,75806,1,2,0:0:0:0:
227,128,76238,2,0,P|231:87|214:49,1,77.0000023498536,10|0,0:0|3:0,0:0:0:0:
117,54,76671,1,2,3:2:0:0:
318,162,76887,6,0,L|151:179,1,167.999994873047,14|2,0:0|3:0,0:0:0:0:
145,185,77428,1,2,3:0:0:0:
140,191,77536,1,10,0:3:0:0:
46,154,77752,2,0,P|38:130|39:101,2,41.9999987182618,2|2|2,3:0|3:0|3:0,0:0:0:0:
110,380,78185,1,2,3:0:0:0:
120,357,78293,1,2,3:0:0:0:
124,332,78401,1,8,0:0:0:0:
121,307,78509,1,0,0:0:0:0:
110,285,78617,6,0,B|202:306|178:244|273:271,1,167.999994873047,8|2,0:0|3:0,0:0:0:0:
276,277,79158,1,2,3:0:0:0:
280,284,79266,1,10,0:3:0:0:
383,384,79483,1,2,3:0:0:0:
386,352,79591,1,2,3:0:0:0:
389,321,79699,1,10,3:0:0:0:
393,290,79807,1,0,0:0:0:0:
396,258,79915,2,0,L|390:217,1,41.9999987182618,2|2,0:0|0:0,0:0:0:0:
307,157,80131,1,10,0:0:0:0:
307,157,80564,6,0,P|378:175|463:142,1,167.999994873047,2|10,3:2|0:0,0:0:0:0:
461,48,81213,1,0,0:0:0:0:
461,48,81321,1,0,0:0:0:0:
461,48,81429,2,0,L|368:38,1,83.9999974365235,2|0,3:2|0:0,0:0:0:0:
205,168,81862,1,10,0:0:0:0:
60,25,82078,6,0,B|119:10|119:10|144:62|118:113,1,167.999994873047,2|0,3:2|3:0,0:0:0:0:
112,119,82619,1,0,0:0:0:0:
106,125,82727,1,8,0:0:0:0:
42,210,82943,1,2,0:0:0:0:
0,117,83160,1,2,3:2:0:0:
84,303,83376,2,0,L|-8:321,1,83.9999974365235,2|8,0:0|0:0,0:0:0:0:
159,217,83808,6,0,B|226:226|226:226|260:213|260:213|324:221,1,167.999994873047,2|0,3:2|0:0,0:0:0:0:
329,227,84349,1,0,0:0:0:0:
334,233,84457,1,8,0:0:0:0:
415,176,84674,2,0,L|409:129,2,41.9999987182618,0|0|0,0:0|0:0|3:0,0:0:0:0:
351,324,85106,1,0,0:0:0:0:
326,327,85214,1,0,0:0:0:0:
301,331,85323,1,8,0:2:0:0:
276,335,85431,1,0,0:0:0:0:
251,339,85539,6,0,L|243:250,1,83.9999974365235
296,118,85971,1,0,3:0:0:0:
296,118,86080,1,0,3:0:0:0:
296,118,86188,1,8,0:0:0:0:
204,162,86404,2,0,P|178:161|153:149,1,41.9999987182618
62,63,86620,1,0,0:0:0:0:
82,64,86728,1,0,0:0:0:0:
103,65,86837,1,0,0:0:0:0:
124,64,86945,1,0,0:0:0:0:
145,61,87053,1,8,0:2:0:0:
166,56,87161,1,2,0:2:0:0:
186,50,87269,1,2,0:2:0:0:
205,42,87377,1,2,0:2:0:0:
224,33,87485,6,0,L|396:49,1,167.999994873047,2|10,3:2|0:0,0:0:0:0:
459,136,88134,1,0,0:0:0:0:
459,136,88242,1,0,0:0:0:0:
459,136,88351,1,2,3:2:0:0:
329,203,88567,1,2,0:0:0:0:
453,283,88783,1,10,0:0:0:0:
269,293,89000,6,0,P|285:212|256:134,1,167.999994873047,6|2,0:0|0:0,0:0:0:0:
185,345,89648,1,10,0:0:0:0:
185,345,89757,1,2,0:0:0:0:
185,345,89865,1,10,0:0:0:0:
47,159,90081,2,0,P|87:152|141:164,1,83.9999974365235,10|2,0:0|0:0,0:0:0:0:
182,245,90514,1,0,3:2:0:0:
272,21,90730,6,0,B|226:4|226:4|193:50|220:118,1,167.999994873047,14|2,0:0|0:3,0:0:0:0:
231,129,91271,1,2,0:3:0:0:
242,141,91379,1,10,0:3:0:0:
107,54,91595,1,2,0:3:0:0:
107,54,91703,1,2,0:3:0:0:
107,54,91811,1,2,3:0:0:0:
140,184,92028,1,2,0:3:0:0:
148,207,92136,1,2,0:3:0:0:
151,232,92244,1,8,0:2:0:0:
150,257,92352,1,0,0:0:0:0:
143,282,92460,6,0,B|235:303|211:241|306:268,1,167.999994873047,2|2,0:0|3:0,0:0:0:0:
310,274,93001,1,2,0:3:0:0:
315,280,93109,1,10,0:3:0:0:
413,299,93325,2,0,L|404:349,1,41.9999987182618,2|2,0:3|0:3,0:0:0:0:
375,200,93542,5,2,3:0:0:0:
361,166,93650,1,8,0:0:0:0:
357,130,93758,1,8,0:0:0:0:
364,94,93866,1,8,0:0:0:0:
383,63,93974,1,0,0:0:0:0:
397,72,94082,1,2,0:2:0:0:
410,81,94191,1,2,0:2:0:0:
423,90,94299,1,2,0:2:0:0:
435,100,94407,6,0,P|453:146|453:186,1,83.9999974365235,2|0,3:2|0:0,0:0:0:0:
285,248,94839,2,0,P|267:202|267:162,1,83.9999974365235,10|0,0:0|0:0,0:0:0:0:
387,276,95272,1,2,3:2:0:0:
341,368,95488,1,0,0:0:0:0:
341,368,95596,1,0,0:0:0:0:
341,368,95705,1,10,0:2:0:0:
162,196,95921,6,0,P|181:277|237:338,1,167.999994873047,2|0,3:2|3:0,0:0:0:0:
246,337,96462,1,0,0:0:0:0:
254,335,96570,1,8,0:0:0:0:
48,255,96786,1,2,0:0:0:0:
95,345,97002,1,2,3:2:0:0:
152,206,97219,2,0,P|158:162|144:122,1,83.9999974365235,2|8,0:0|0:0,0:0:0:0:
63,85,97651,6,0,L|238:105,1,167.999994873047,2|0,3:2|0:0,0:0:0:0:
238,102,98192,1,0,0:0:0:0:
246,100,98300,1,8,0:0:0:0:
331,46,98516,2,0,L|372:50,2,41.9999987182618,0|0|0,0:0|0:0|3:0,0:0:0:0:
255,210,98949,1,0,0:0:0:0:
230,204,99057,1,0,0:0:0:0:
205,203,99165,1,8,0:2:0:0:
181,208,99273,1,0,0:0:0:0:
158,217,99382,6,0,P|121:141|131:53,1,167.999994873047,0|0,0:0|3:0,0:0:0:0:
135,56,99922,1,0,3:0:0:0:
142,52,100031,1,8,0:0:0:0:
24,72,100247,2,0,P|20:91|20:114,1,41.9999987182618
39,210,100463,1,0,0:0:0:0:
36,231,100571,1,0,0:0:0:0:
34,251,100679,1,0,0:0:0:0:
32,272,100788,1,0,0:0:0:0:
30,293,100896,1,8,0:2:0:0:
28,314,101004,1,2,0:2:0:0:
25,335,101112,1,2,0:2:0:0:
23,356,101220,1,2,0:2:0:0:
21,377,101328,6,0,L|116:369,1,83.9999974365235,2|0,3:2|0:0,0:0:0:0:
299,306,101761,2,0,L|204:298,1,83.9999974365235,10|0,0:0|0:0,0:0:0:0:
306,95,102193,1,2,3:2:0:0:
226,182,102410,1,2,0:0:0:0:
191,70,102626,1,10,0:0:0:0:
458,173,102842,6,0,B|483:191|483:191|419:242|329:202,1,181.999991668702,14|2,0:0|0:0,0:0:0:0:
386,8,103491,1,2,3:2:0:0:
386,8,103599,1,2,0:0:0:0:
386,8,103708,1,2,3:2:0:0:
219,193,103924,2,0,P|204:154|215:90,1,90.9999958343508,10|2,0:0|0:0,0:0:0:0:
258,0,104356,1,2,3:2:0:0:
91,0,104573,6,0,P|93:77|71:168,1,167.999994873047,14|2,0:0|0:3,0:0:0:0:
60,176,105113,1,2,0:3:0:0:
48,188,105222,1,10,0:3:0:0:
115,309,105438,1,2,0:3:0:0:
115,309,105546,1,2,0:3:0:0:
115,309,105654,1,2,3:0:0:0:
175,188,105870,1,2,0:3:0:0:
199,179,105979,1,2,0:3:0:0:
224,176,106087,1,8,0:2:0:0:
249,178,106195,1,0,0:0:0:0:
273,186,106303,6,0,B|365:203|340:148|439:173,1,167.999994873047,2|2,0:0|3:0,0:0:0:0:
443,177,106844,1,2,0:3:0:0:
449,182,106952,1,10,0:3:0:0:
470,288,107168,2,0,P|448:300|417:303,1,41.9999987182618,2|2,0:3|0:3,0:0:0:0:
280,340,107385,5,2,3:0:0:0:
294,306,107493,1,8,2:0:0:0:
298,270,107601,1,8,0:0:0:0:
291,234,107709,1,8,0:0:0:0:
272,203,107817,2,0,L|306:178,3,41.9999987182618,2|2|2|2,0:2|0:0|0:0|0:0,0:0:0:0:
172,247,108250,5,2,3:2:0:0:
161,246,108358,1,2,0:0:0:0:
151,245,108466,1,2,0:0:0:0:
140,244,108574,1,2,0:0:0:0:
130,243,108682,1,10,0:0:0:0:
45,302,108899,2,0,P|37:343|48:384,1,83.9999974365235,2|0,0:0|3:0,0:0:0:0:
88,152,109331,2,0,L|74:65,1,83.9999974365235,2|8,0:0|0:0,0:0:0:0:
11,210,109764,1,2,0:0:0:0:
19,212,109872,1,2,0:0:0:0:
27,214,109980,6,0,P|99:175|193:169,2,167.999994873047,2|10|2,3:2|0:0|3:2,0:0:0:0:
55,310,111062,1,2,0:0:0:0:
229,330,111278,1,10,0:0:0:0:
147,270,111494,1,2,0:0:0:0:
321,290,111710,6,0,L|421:275,1,83.9999974365235,2|0,3:2|0:0,0:0:0:0:
411,282,112035,1,0,0:0:0:0:
418,286,112143,2,0,P|389:197|416:122,1,167.999994873047,8|0,0:0|3:0,0:0:0:0:
511,115,112792,1,0,0:0:0:0:
357,48,113008,2,0,P|315:37|267:49,1,83.9999974365235,8|0,0:0|0:0,0:0:0:0:
98,166,113441,6,0,L|112:75,1,83.9999974365235,2|0,3:2|0:0,0:0:0:0:
280,267,113873,2,0,L|266:176,1,83.9999974365235,10|0,0:0|0:0,0:0:0:0:
62,365,114306,2,0,L|76:274,1,83.9999974365235,2|0,3:2|0:0,0:0:0:0:
82,277,114630,1,0,0:0:0:0:
89,272,114739,2,0,P|135:282|177:274,1,83.9999974365235,10|0,0:0|0:0,0:0:0:0:
321,363,115171,6,0,P|297:372|265:373,4,41.9999987182618,2|2|2|2|10,3:2|0:0|0:0|0:0|0:0,0:0:0:0:
388,289,115820,1,2,0:0:0:0:
388,289,115928,1,0,0:0:0:0:
388,289,116036,1,0,3:0:0:0:
308,226,116253,2,0,P|296:183|304:139,1,83.9999974365235,2|8,0:0|0:0,0:0:0:0:
464,103,116685,1,2,0:0:0:0:
469,109,116793,1,2,0:0:0:0:
474,115,116901,6,0,P|398:102|359:24,1,167.999994873047,2|10,3:2|0:0,0:0:0:0:
258,15,117550,1,0,0:0:0:0:
39,112,117767,1,2,3:2:0:0:
127,159,117983,1,2,0:0:0:0:
174,71,118199,1,10,0:0:0:0:
86,24,118416,1,2,0:0:0:0:
131,166,118632,6,0,L|138:339,1,167.999994873047,2|8,3:2|0:0,0:0:0:0:
46,377,119281,1,0,0:0:0:0:
256,384,119497,2,0,P|263:342|252:300,1,83.9999974365235,0|0,3:0|0:0,0:0:0:0:
248,295,119821,1,0,0:0:0:0:
242,288,119930,1,8,0:0:0:0:
324,230,120146,1,0,0:0:0:0:
484,296,120362,6,0,B|500:320|500:320|429:364|355:313,1,167.999994873047,2|8,3:2|0:0,0:0:0:0:
324,230,121011,1,0,0:0:0:0:
388,66,121227,2,0,P|405:104|405:146,1,83.9999974365235,0|0,3:0|0:0,0:0:0:0:
400,153,121552,1,0,0:0:0:0:
395,160,121660,2,0,L|491:171,1,83.9999974365235,8|0,0:0|2:0,0:0:0:0:
242,288,122093,5,2,3:2:0:0:
224,172,122309,1,2,0:0:0:0:
242,288,122525,1,10,0:0:0:0:
124,130,122741,2,0,P|129:79|144:41,1,83.9999974365235,2|0,0:0|3:0,0:0:0:0:
310,106,123174,1,0,0:0:0:0:
230,180,123390,1,8,0:0:0:0:
62,14,123607,1,2,0:0:0:0:
62,14,123715,1,2,0:0:0:0:
62,14,123823,6,0,P|143:43|244:32,1,167.999994873047,2|10,3:2|0:0,0:0:0:0:
414,79,124472,1,2,0:0:0:0:
366,177,124688,2,0,L|374:274,1,83.9999974365235,8|2,0:0|3:2,0:0:0:0:
196,384,125121,1,10,0:0:0:0:
186,362,125229,1,2,0:0:0:0:
182,337,125337,1,2,0:0:0:0:
186,312,125445,1,2,0:0:0:0:
196,289,125553,6,0,L|204:244,1,41.9999987182618,10|0,0:2|0:0,0:0:0:0:
153,161,125770,1,2,0:2:0:0:
153,161,125986,1,0,0:0:0:0:
297,31,126202,2,0,L|305:76,1,41.9999987182618,10|0,0:2|0:0,0:0:0:0:
254,159,126418,1,2,0:2:0:0:
254,159,126635,1,0,0:0:0:0:
398,289,126851,6,0,L|406:244,1,41.9999987182618,10|0,0:2|0:0,0:0:0:0:
355,161,127067,1,2,0:2:0:0:
355,161,127284,1,0,0:0:0:0:
499,31,127500,2,0,L|507:73,1,41.9999987182618,10|0,0:2|0:0,0:0:0:0:
456,159,127716,1,2,0:2:0:0:
464,179,127824,1,0,0:0:0:0:
475,197,127932,1,0,0:0:0:0:
488,213,128041,1,0,0:0:0:0:
503,228,128149,6,0,B|467:229|442:257|459:258|436:286|393:289,1,125.999996154785,2|0,3:2|0:0,0:0:0:0:
292,324,128581,2,0,P|305:343|329:353,1,41.9999987182618,8|8,0:0|0:0,0:0:0:0:
264,204,128798,1,10,0:0:0:0:
264,204,128906,1,2,0:0:0:0:
264,204,129014,6,0,L|274:120,1,83.9999974365235,2|0,0:2|0:0,0:0:0:0:
376,204,129447,2,0,L|389:305,1,83.9999974365235,8|0,0:0|0:0,0:0:0:0:
278,303,129879,2,0,P|237:308|184:287,1,83.9999974365235,0|0,3:0|0:0,0:0:0:0:
193,288,130204,1,0,0:0:0:0:
190,281,130312,1,8,0:0:0:0:
136,29,130528,1,0,0:0:0:0:
136,29,130636,1,0,0:0:0:0:
136,29,130744,6,0,P|172:103|169:186,1,167.999994873047,2|8,0:0|0:0,0:0:0:0:
385,191,131393,2,0,B|408:167|408:167|342:127|258:172,1,167.999994873047,2|0,0:0|3:0,0:0:0:0:
70,215,132042,1,8,0:0:0:0:
58,241,132150,1,8,0:0:0:0:
53,270,132258,1,8,0:0:0:0:
56,299,132366,1,8,0:0:0:0:
69,325,132475,6,0,P|73:356|69:384,2,51.3333348999024
160,270,132907,1,2,0:2:0:0:
168,270,133015,1,0,0:0:0:0:
177,271,133124,1,0,0:0:0:0:
186,272,133232,1,0,0:0:0:0:
194,273,133340,2,0,L|281:256,1,77.0000023498536,10|0,0:0|3:0,0:0:0:0:
359,301,133772,2,0,L|376:388,1,77.0000023498536,2|0,2:0|2:0,0:0:0:0:
284,158,134205,6,0,P|278:120|289:83,1,77.0000023498536,2|0,3:2|3:0,0:0:0:0:
386,111,134638,1,2,3:2:0:0:
412,207,134854,1,0,3:0:0:0:
206,244,135070,1,10,0:0:0:0:
197,243,135178,1,8,0:0:0:0:
188,242,135286,1,0,3:0:0:0:
110,305,135503,1,2,3:2:0:0:
256,321,135719,6,0,L|230:153,1,167.999994873047,14|2,0:0|3:0,0:0:0:0:
222,153,136260,1,2,3:0:0:0:
213,152,136368,1,10,0:3:0:0:
115,172,136584,2,0,P|95:175|74:172,2,41.9999987182618,2|2|2,3:0|3:0|3:0,0:0:0:0:
237,51,137017,1,2,3:0:0:0:
262,43,137125,1,2,3:0:0:0:
287,40,137233,1,8,0:0:0:0:
312,43,137341,1,0,0:0:0:0:
336,50,137449,6,0,P|412:75|501:47,1,167.999994873047,0|2,0:0|3:0,0:0:0:0:
498,44,137990,1,2,3:0:0:0:
501,36,138098,1,10,3:0:0:0:
405,186,138315,1,2,3:0:0:0:
405,186,138423,1,2,3:0:0:0:
405,186,138531,2,0,L|364:193,3,41.9999987182618,2|2|2|2,3:0|0:3|0:3|0:3,0:0:0:0:
275,145,138963,1,8,0:0:0:0:
266,169,139072,1,0,0:0:0:0:
264,194,139180,1,0,0:0:0:0:
267,219,139288,1,0,0:0:0:0:
277,242,139396,6,0,L|290:317,1,77.0000023498536,8|0,3:2|3:0,0:0:0:0:
173,384,139829,2,0,L|186:308,1,77.0000023498536,10|0,0:0|0:0,0:0:0:0:
413,348,140261,5,2,0:0:0:0:
413,348,140369,2,0,L|406:319,4,19.2500005874634,0|0|0|0|8,0:0|0:0|0:0|0:0|0:2,0:0:0:0:
417,361,140694,2,0,L|475:348,2,51.3333348999024,2|2|2,0:2|0:0|0:0,0:0:0:0:
290,317,141126,5,10,0:0:0:0:
511,263,141559,1,2,0:0:0:0:
285,128,141992,2,0,P|281:87|298:49,1,77.0000023498536,10|0,0:0|3:0,0:0:0:0:
395,54,142424,1,2,3:2:0:0:
194,162,142640,6,0,L|361:179,1,167.999994873047,14|2,0:0|3:0,0:0:0:0:
367,185,143181,1,2,3:0:0:0:
372,191,143289,1,10,0:3:0:0:
466,154,143506,2,0,P|474:130|473:101,2,41.9999987182618,2|2|2,3:0|3:0|3:0,0:0:0:0:
419,384,143938,1,2,3:0:0:0:
403,364,144046,1,2,3:0:0:0:
393,341,144155,1,8,0:0:0:0:
389,316,144263,1,0,0:0:0:0:
394,292,144371,6,0,P|307:282|235:331,1,167.999994873047,8|2,0:0|3:0,0:0:0:0:
237,331,144912,1,2,3:0:0:0:
233,338,145020,1,10,0:3:0:0:
129,303,145236,1,2,3:0:0:0:
126,271,145344,1,2,3:0:0:0:
123,240,145452,1,10,3:0:0:0:
119,209,145560,1,0,0:0:0:0:
116,177,145669,2,0,L|122:136,1,41.9999987182618,2|2,0:0|0:0,0:0:0:0:
205,76,145885,1,10,0:0:0:0:
15,187,146317,5,2,3:2:0:0:
