osu file format v14

[General]
AudioFilename: audio.mp3
AudioLeadIn: 0
PreviewTime: 36820
Countdown: 0
SampleSet: None
StackLeniency: 0.7
Mode: 0
LetterboxInBreaks: 0
WidescreenStoryboard: 0

[Editor]
Bookmarks: 2785,14701,37157,59613,84877
DistanceSpacing: 0.6
BeatDivisor: 12
GridSize: 16
TimelineZoom: 4.099998

[Metadata]
Title:Yuuho (TV Size)
TitleUnicode:遊歩 (TV Size)
Artist:Ivudot
ArtistUnicode:いゔどっと
Creator:Chatmourai
Version:Insane
Source:休日のわるものさん
Tags:Kyūjitsu no Warumono-san Mr. Villain's Day Off opening op anime japanese jpop pop j-pop
BeatmapID:4537593
BeatmapSetID:2153519

[Difficulty]
HPDrainRate:5
CircleSize:4
OverallDifficulty:8
ApproachRate:9
SliderMultiplier:1.4
SliderTickRate:1

[Events]
//Background and Video events
0,0,"vlc_2x7vpnW970.png",0,0
//Break Periods
//Storyboard Layer 0 (Background)
//Storyboard Layer 1 (Fail)
//Storyboard Layer 2 (Pass)
//Storyboard Layer 3 (Foreground)
//Storyboard Layer 4 (Overlay)
//Storyboard Sound Samples

[TimingPoints]
2084,350.877192982456,4,2,0,50,1,0
59978,-80,4,2,0,50,0,0
60855,-133.333333333333,4,2,0,50,0,0
61733,-100,4,2,0,50,0,0
62785,-80,4,2,0,50,0,0
63662,-133.333333333333,4,2,0,50,0,0
65943,-100,4,2,0,50,0,0
67522,-80,4,2,0,50,0,0
69276,-100,4,2,0,50,0,0
71119,-80,4,2,0,50,0,0
72083,-133.333333333333,4,2,0,50,0,0
72434,-100,4,2,0,50,0,0
74891,-133.333333333333,4,2,0,50,0,0
77171,-100,4,2,0,50,0,0
84540,-100,4,2,0,50,0,0

[HitObjects]
251,57,2785,5,0,0:0:0:0:
252,72,2961,1,0,0:0:0:0:
241,151,3136,2,0,L|246:222,1,70,2|0,0:0|0:0,0:0:0:0:
352,260,3487,2,0,P|422:268|506:294,2,140,2|0|2,0:0|0:0|0:0,0:0:0:0:
277,325,4364,2,0,L|194:339,1,70
82,308,4715,2,0,B|35:243|47:164|116:148|179:144|218:85|169:2,1,350,2|4,0:0|0:0,0:0:0:0:
176,16,6294,6,0,P|169:86|183:170,1,140,0|2,0:0|0:0,0:0:0:0:
178,154,6996,1,8,0:0:0:0:
271,242,7171,2,0,L|365:254,1,70
480,218,7522,2,0,P|498:184|492:134,1,70,2|0,0:0|0:0,0:0:0:0:
378,270,7873,2,0,L|223:274,1,140,2|0,0:0|0:0,0:0:0:0:
309,315,8399,5,8,0:0:0:0:
309,332,8575,1,0,0:0:0:0:
304,190,8750,2,0,L|302:109,1,70,2|0,0:0|0:0,0:0:0:0:
294,45,9101,2,0,L|263:256,1,210,4|0,0:0|0:0,0:0:0:0:
138,330,9803,1,8,0:0:0:0:
138,330,9978,2,0,P|63:334|-9:364,1,140,2|0,0:0|0:0,0:0:0:0:
0,342,10505,2,0,P|99:312|271:360,1,280,4|0,0:0|0:0,0:0:0:0:
265,356,11908,5,8,0:0:0:0:
288,344,12259,2,0,L|296:273,1,70
208,215,12610,1,2,0:0:0:0:
180,136,12785,2,0,L|172:65,1,70
263,0,13136,1,8,0:0:0:0:
263,0,13838,5,8,0:0:0:0:
286,2,14013,1,8,0:0:0:0:
365,13,14189,1,8,0:0:0:0:
443,34,14364,2,0,P|453:75|450:108,1,70,2|0,0:0|0:0,0:0:0:0:
477,220,14715,2,0,P|455:289|451:363,1,140,4|0,0:0|0:0,0:0:0:0:
435,353,15417,6,0,P|399:338|361:338,1,70,2|0,0:0|0:0,0:0:0:0:
297,302,15768,1,0,0:0:0:0:
221,327,15943,2,0,P|186:324|154:311,1,70,2|0,0:0|0:0,0:0:0:0:
0,247,16469,1,0,0:0:0:0:
47,176,16645,2,0,L|124:153,1,70,2|0,0:0|0:0,0:0:0:0:
177,97,16996,2,0,P|187:58|184:25,1,70,2|0,0:0|0:0,0:0:0:0:
108,0,17347,1,8,0:0:0:0:
94,7,17522,1,8,0:0:0:0:
56,90,17698,2,0,P|92:190|113:308,1,210,4|0,0:0|0:0,0:0:0:0:
111,291,18750,6,0,P|149:297|178:308,1,70,2|0,0:0|0:0,0:0:0:0:
266,276,19101,2,0,P|304:270|333:259,1,70,2|0,0:0|0:0,0:0:0:0:
428,292,19452,1,0,0:0:0:0:
428,292,19627,2,0,P|466:298|495:309,1,70,2|0,0:0|0:0,0:0:0:0:
406,199,19978,2,0,P|412:161|423:132,1,70,2|0,0:0|0:0,0:0:0:0:
313,221,20329,1,8,0:0:0:0:
308,245,20505,1,8,0:0:0:0:
218,143,20680,2,0,P|212:105|201:76,1,70,2|0,0:0|0:0,0:0:0:0:
100,180,21031,1,4,0:0:0:0:
100,180,21557,6,0,L|95:256,1,70
95,249,22083,2,0,L|90:325,1,70
201,356,22434,2,0,L|206:280,1,70,2|0,0:0|0:0,0:0:0:0:
326,257,22785,2,0,L|321:326,1,70,2|0,0:0|0:0,0:0:0:0:
428,363,23136,1,0,0:0:0:0:
492,317,23312,2,0,L|506:100,1,210,2|4,0:0|0:0,0:0:0:0:
503,108,24189,5,0,0:0:0:0:
446,54,24364,1,0,0:0:0:0:
360,53,24540,2,0,P|324:54|286:74,1,70,2|0,0:0|0:0,0:0:0:0:
215,47,24891,2,0,P|179:48|141:68,1,70,2|0,0:0|0:0,0:0:0:0:
77,101,25241,1,8,0:0:0:0:
2,68,25417,1,2,0:0:0:0:
2,48,25592,1,8,0:0:0:0:
72,177,25768,1,2,0:0:0:0:
240,169,25943,2,0,B|317:168|371:221|419:274|499:271,1,280,4|0,0:0|0:0,0:0:0:0:
495,271,26996,5,0,0:0:0:0:
415,234,27171,2,0,L|329:243,1,70,2|0,0:0|0:0,0:0:0:0:
278,303,27522,1,0,0:0:0:0:
198,266,27697,2,0,L|112:275,1,70,2|0,0:0|0:0,0:0:0:0:
37,331,28048,1,0,0:0:0:0:
37,331,28575,1,0,0:0:0:0:
200,375,28750,2,0,B|276:377|324:324|378:271|455:272,1,280,8|4,0:0|0:0,0:0:0:0:
455,272,29803,5,0,0:0:0:0:
379,331,29978,2,0,L|285:343,1,70,2|0,0:0|0:0,0:0:0:0:
152,283,30329,1,0,0:0:0:0:
228,224,30504,2,0,L|322:212,1,70,2|0,0:0|0:0,0:0:0:0:
413,131,30855,2,0,P|423:86|406:45,1,70,2|0,0:0|0:0,0:0:0:0:
239,88,31206,2,0,P|233:53|243:20,1,70,2|0,0:0|0:0,0:0:0:0:
328,107,31557,1,8,0:0:0:0:
328,125,31733,1,8,0:0:0:0:
178,170,31908,2,0,L|92:189,2,70,0|0|4,0:0|0:0|0:0,0:0:0:0:
178,170,32785,5,0,0:0:0:0:
261,241,32961,2,0,L|277:328,1,70,2|0,0:0|0:0,0:0:0:0:
374,218,33312,2,0,L|381:143,1,70,2|0,0:0|0:0,0:0:0:0:
493,245,33662,2,0,L|515:401,1,140,8|0,0:0|0:0,0:0:0:0:
512,383,34189,1,0,0:0:0:0:
343,352,34364,2,0,P|264:343|190:356,1,140,8|4,0:0|0:0,0:0:0:0:
204,351,35417,6,0,L|193:280,1,70,2|0,0:0|0:0,0:0:0:0:
296,183,35768,2,0,L|307:112,1,70,2|0,0:0|0:0,0:0:0:0:
242,0,36119,1,0,0:0:0:0:
242,0,36469,1,4,0:0:0:0:
242,0,37171,5,2,0:0:0:0:
254,16,37347,1,0,0:0:0:0:
313,91,37522,2,0,L|291:171,1,70,8|0,0:0|0:0,0:0:0:0:
172,263,37873,1,2,0:0:0:0:
84,268,38048,1,0,0:0:0:0:
2,274,38224,1,8,0:0:0:0:
89,255,38399,2,0,L|175:281,1,70,2|0,0:0|0:0,0:0:0:0:
266,327,38750,1,8,0:0:0:0:
355,317,38926,2,0,L|451:301,1,70,2|0,0:0|0:0,0:0:0:0:
509,204,39276,2,0,P|517:169|509:124,1,70,10|0,0:0|0:0,0:0:0:0:
415,56,39627,5,2,0:0:0:0:
339,98,39803,1,0,0:0:0:0:
252,80,39978,2,0,L|163:93,1,70,2|0,0:0|0:0,0:0:0:0:
11,145,40329,2,0,L|84:135,1,70,2|0,0:0|0:0,0:0:0:0:
251,68,40680,2,0,L|162:81,1,70,2|0,0:0|0:0,0:0:0:0:
9,161,41031,1,8,0:0:0:0:
0,256,41206,1,0,0:0:0:0:
88,304,41382,1,8,0:0:0:0:
180,265,41557,1,0,0:0:0:0:
216,169,41733,2,0,L|309:156,1,70,2|0,0:0|0:0,0:0:0:0:
434,205,42083,1,8,0:0:0:0:
476,303,42259,2,0,L|458:378,1,70,2|0,0:0|0:0,0:0:0:0:
262,383,42610,5,8,0:0:0:0:
197,329,42785,2,0,L|189:249,1,70,2|0,0:0|0:0,0:0:0:0:
293,182,43136,1,8,0:0:0:0:
384,166,43312,1,0,0:0:0:0:
468,153,43487,1,8,0:0:0:0:
376,187,43662,2,0,L|300:166,1,70,2|0,0:0|0:0,0:0:0:0:
169,138,44013,1,8,0:0:0:0:
77,176,44189,2,0,L|3:204,1,70,2|0,0:0|0:0,0:0:0:0:
0,107,44540,2,0,L|80:80,1,70,2|0,0:0|0:0,0:0:0:0:
191,130,44891,2,0,L|265:158,1,70,2|0,0:0|0:0,0:0:0:0:
312,60,45242,2,0,L|232:33,1,70,2|0,0:0|0:0,0:0:0:0:
92,160,45592,6,0,P|88:196|103:245,1,70
197,330,45943,1,8,0:0:0:0:
285,352,46119,2,2,L|369:367,1,70
498,318,46469,2,0,L|410:330,1,70,2|0,0:0|0:0,0:0:0:0:
361,274,46820,1,0,0:0:0:0:
396,192,46996,1,8,0:0:0:0:
347,109,47171,1,0,0:0:0:0:
381,18,47347,1,8,0:0:0:0:
381,18,47698,5,8,0:0:0:0:
431,113,47873,1,0,0:0:0:0:
370,204,48048,1,8,0:0:0:0:
259,215,48224,1,0,0:0:0:0:
199,119,48399,1,8,0:0:0:0:
90,96,48575,2,0,L|15:131,1,70,2|0,0:0|0:0,0:0:0:0:
0,252,48926,1,8,0:0:0:0:
0,253,49101,2,0,P|-2:287|12:322,1,70,2|0,0:0|0:0,0:0:0:0:
140,349,49452,1,8,0:0:0:0:
197,271,49627,2,0,P|199:237|185:202,1,70,2|0,0:0|0:0,0:0:0:0:
310,324,49978,5,0,0:0:0:0:
392,361,50154,1,8,0:0:0:0:
474,323,50329,2,0,L|504:247,2,70,0|2|0,0:0|0:0|0:0,0:0:0:0:
296,329,50855,1,8,0:0:0:0:
260,249,51031,2,0,P|260:209|273:173,1,70,2|0,0:0|0:0,0:0:0:0:
443,148,51382,2,0,P|443:108|430:72,1,70,2|0,0:0|0:0,0:0:0:0:
348,31,51733,1,0,0:0:0:0:
261,74,51908,1,8,0:0:0:0:
174,33,52083,1,0,0:0:0:0:
85,87,52259,1,8,0:0:0:0:
1,46,52434,1,0,0:0:0:0:
1,46,52785,5,0,0:0:0:0:
78,43,52961,1,8,0:0:0:0:
137,94,53136,1,0,0:0:0:0:
143,173,53312,2,0,L|102:262,1,70,2|0,0:0|0:0,0:0:0:0:
213,283,53662,2,0,L|254:194,1,70,2|0,0:0|0:0,0:0:0:0:
372,159,54013,1,8,0:0:0:0:
448,214,54189,2,0,L|459:302,1,70,2|0,0:0|0:0,0:0:0:0:
371,384,54540,1,0,0:0:0:0:
286,369,54715,1,8,0:0:0:0:
274,291,54891,1,0,0:0:0:0:
306,263,55066,1,2,0:0:0:0:
324,277,55241,1,4,0:0:0:0:
227,294,55592,5,0,0:0:0:0:
142,248,55768,1,8,0:0:0:0:
106,155,55943,1,0,0:0:0:0:
140,45,56119,1,2,0:0:0:0:
189,160,56294,1,0,0:0:0:0:
84,110,56469,1,8,0:0:0:0:
218,76,56645,1,0,0:0:0:0:
112,191,56820,1,6,0:0:0:0:
112,191,58750,5,0,0:0:0:0:
205,182,58926,1,8,0:0:0:0:
245,198,59101,1,0,0:0:0:0:
341,178,59276,1,8,0:0:0:0:
512,242,59627,5,8,0:0:0:0:
506,265,59803,1,0,0:0:0:0:
359,343,59978,2,0,B|263:354|194:296|201:289|115:205|26:251,1,350,4|8,0:0|0:0,0:0:0:0:
174,298,60855,6,0,L|241:286,1,52.5000020027161,2|0,0:0|0:0,0:0:0:0:
338,149,61206,5,0,0:0:0:0:
342,126,61382,1,8,0:0:0:0:
285,50,61557,1,0,0:0:0:0:
223,126,61733,2,0,L|232:217,1,70,2|0,0:0|0:0,0:0:0:0:
355,297,62083,1,8,0:0:0:0:
440,333,62259,1,0,0:0:0:0:
512,274,62434,1,8,0:0:0:0:
425,235,62610,1,0,0:0:0:0:
197,294,62785,2,0,B|119:318|19:294|-25:225|9:155|66:137|114:165|111:195,1,350,4|8,0:0|0:0,0:0:0:0:
80,314,63662,6,0,P|63:342|39:359,1,52.5000020027161,2|0,0:0|0:0,0:0:0:0:
35,361,64013,1,8,0:0:0:0:
203,285,64189,2,0,P|205:255|189:215,1,52.5000020027161,2|0,0:0|0:0,0:0:0:0:
380,346,64540,1,8,0:0:0:0:
464,277,64715,1,0,0:0:0:0:
373,235,64891,2,0,L|318:247,1,52.5000020027161,2|0,0:0|0:0,0:0:0:0:
176,219,65241,1,2,0:0:0:0:
114,155,65417,1,0,0:0:0:0:
121,62,65592,1,8,0:0:0:0:
197,4,65768,1,0,0:0:0:0:
188,108,65943,2,0,P|157:138|116:165,1,70,2|0,0:0|0:0,0:0:0:0:
26,165,66294,5,8,0:0:0:0:
176,219,66469,2,0,P|206:249|233:291,1,70,2|0,0:0|0:0,0:0:0:0:
432,192,66820,2,0,P|439:158|458:124,1,70,2|0,0:0|0:0,0:0:0:0:
375,26,67171,1,0,0:0:0:0:
353,30,67347,1,8,0:0:0:0:
331,173,67522,2,0,B|320:220|336:260|351:300|337:356,1,175,4|0,0:0|0:0,0:0:0:0:
251,173,68048,6,0,P|324:150|413:190,1,175,4|8,0:0|0:0,0:0:0:0:
476,312,68575,1,0,0:0:0:0:
478,336,68750,1,2,0:0:0:0:
393,351,68926,1,0,0:0:0:0:
306,362,69101,1,8,0:0:0:0:
143,359,69276,2,0,L|50:373,1,70,2|8,0:0|0:0,0:0:0:0:
226,332,69627,1,0,0:0:0:0:
268,258,69803,1,2,0:0:0:0:
211,193,69978,1,0,0:0:0:0:
108,112,70154,5,8,0:0:0:0:
161,0,70329,1,0,0:0:0:0:
290,41,70505,1,10,0:0:0:0:
304,119,70680,1,0,0:0:0:0:
439,157,70855,1,8,0:0:0:0:
512,29,71031,1,0,0:0:0:0:
290,56,71206,6,0,B|237:133|300:217|325:188|390:299|292:380,1,350,4|8,0:0|0:0,0:0:0:0:
314,237,72083,6,0,L|314:164,1,52.5000020027161,2|0,0:0|0:0,0:0:0:0:
103,105,72434,2,0,L|26:124,1,70,2|8,0:0|0:0,0:0:0:0:
0,205,72785,1,0,0:0:0:0:
64,268,72961,1,10,0:0:0:0:
165,262,73136,1,0,0:0:0:0:
241,194,73312,1,8,0:0:0:0:
282,99,73487,1,0,0:0:0:0:
380,46,73662,1,10,0:0:0:0:
475,89,73838,1,0,0:0:0:0:
512,193,74013,2,0,L|488:286,1,70,2|0,0:0|0:0,0:0:0:0:
352,352,74364,1,8,0:0:0:0:
260,273,74540,2,0,L|253:195,1,70,2|0,0:0|0:0,0:0:0:0:
99,94,74891,6,0,L|31:85,1,52.5000020027161,2|0,0:0|0:0,0:0:0:0:
28,106,75241,1,8,0:0:0:0:
173,142,75417,2,0,L|241:133,1,52.5000020027161,2|0,0:0|0:0,0:0:0:0:
391,96,75768,2,0,P|399:66|396:38,1,52.5000020027161,2|0,0:0|0:0,0:0:0:0:
300,157,76119,1,8,0:0:0:0:
295,238,76294,1,0,0:0:0:0:
314,317,76469,1,2,0:0:0:0:
373,367,76645,1,0,0:0:0:0:
408,377,76820,1,8,0:0:0:0:
361,305,76996,1,0,0:0:0:0:
273,283,77171,2,0,P|239:284|200:305,1,70,2|0,0:0|0:0,0:0:0:0:
14,293,77522,1,8,0:0:0:0:
73,239,77698,2,0,P|107:240|146:261,1,70,2|0,0:0|0:0,0:0:0:0:
360,160,78224,6,0,L|376:78,1,70,2|0,0:0|0:0,0:0:0:0:
262,22,78575,2,0,L|166:32,1,70,2|0,0:0|0:0,0:0:0:0:
132,82,78926,1,8,0:0:0:0:
134,106,79101,1,8,0:0:0:0:
277,170,79276,2,0,P|326:190|399:252,1,140,4|2,0:0|0:0,0:0:0:0:
420,320,79803,1,8,0:0:0:0:
411,341,79978,1,8,0:0:0:0:
250,368,80154,2,0,L|164:383,1,70,2|0,0:0|0:0,0:0:0:0:
164,303,80505,2,0,L|250:288,1,70,2|0,0:0|0:0,0:0:0:0:
271,221,80855,1,8,0:0:0:0:
326,164,81031,2,0,L|412:149,1,70,2|0,0:0|0:0,0:0:0:0:
381,74,81382,2,0,L|295:89,1,70,2|0,0:0|0:0,0:0:0:0:
151,33,81733,5,10,0:0:0:0:
86,81,81908,1,0,0:0:0:0:
74,159,82083,1,8,0:0:0:0:
116,227,82259,1,0,0:0:0:0:
249,197,82434,5,10,0:0:0:0:
269,197,82610,1,0,0:0:0:0:
288,198,82785,1,10,0:0:0:0:
416,244,82961,5,0,0:0:0:0:
472,318,83136,1,10,0:0:0:0:
411,380,83312,1,0,0:0:0:0:
392,384,83487,1,10,0:0:0:0:
306,344,83662,1,0,0:0:0:0:
225,382,83838,1,10,0:0:0:0:
205,384,84013,1,0,0:0:0:0:
165,296,84189,5,8,0:0:0:0:
204,210,84364,5,8,0:0:0:0:
151,126,84540,6,0,B|143:114|153:105|153:105|161:117|151:127|161:117|172:128|172:128|160:135|151:127|161:136|150:144|150:144|140:133|150:126|140:133|131:122|131:122|143:114|152:125,1,140,4|0,0:0|0:0,0:0:0:0:
