osu file format v14

[General]
AudioFilename: audio.mp3
AudioLeadIn: 0
PreviewTime: -1
Countdown: 1
SampleSet: Normal
StackLeniency: 0.2
Mode: 0
LetterboxInBreaks: 0
WidescreenStoryboard: 1

[Editor]
DistanceSpacing: 0.5
BeatDivisor: 8
GridSize: 4
TimelineZoom: 7.7

[Metadata]
Title:Window Gazing
TitleUnicode:Window Gazing
Artist:Ivor Slaney
ArtistUnicode:Ivor Slaney
Creator:sp00kem
Version:Pyrex Decantor 79c
Source:
Tags:
BeatmapID:1478941
BeatmapSetID:697560

[Difficulty]
HPDrainRate:6
CircleSize:4
OverallDifficulty:8
ApproachRate:9.3
SliderMultiplier:1.4
SliderTickRate:1

[Events]
//Background and Video events
0,0,"bG.jpg",0,0
//Break Periods
//Storyboard Layer 0 (Background)
//Storyboard Layer 1 (Fail)
//Storyboard Layer 2 (Pass)
//Storyboard Layer 3 (Foreground)
//Storyboard Sound Samples

[TimingPoints]
304,397.350993377483,4,1,0,100,1,0
6643,397.350993377483,4,1,0,100,1,0
6643,-50,4,1,0,100,0,0
6792,-50,4,1,0,5,0,0
6841,-100,4,1,0,100,0,0
7835,-50,4,1,0,100,0,0
7984,-100,4,1,0,5,0,0
8033,-100,4,1,0,100,0,0
8232,-50,4,1,0,100,0,0
8381,-50,4,1,0,5,0,0
8431,-50,4,1,0,100,0,0
8629,-50,4,1,0,100,0,0
8778,-50,4,1,0,5,0,0
8829,-50,4,1,0,100,0,0
9027,-50,4,1,0,100,0,0
9176,-50,4,1,0,5,0,0
9227,-50,4,1,0,100,0,0
9424,-50,4,1,0,100,0,0
9573,-50,4,1,0,5,0,0
9624,-50,4,1,0,100,0,0
9817,394.736842105263,4,1,0,100,1,0
9817,-50,4,1,0,100,0,0
11149,-50,4,1,0,5,0,0
11198,-50,4,1,0,100,0,0
11395,-55.5555555555556,4,1,0,100,0,0
11543,-55.5555555555556,4,1,0,5,0,0
11593,-100,4,1,0,100,0,0
11790,-55.5555555555556,4,1,0,100,0,0
11889,-55.5555555555556,4,1,0,5,0,0
11950,394.736842105263,4,1,0,100,1,0
11978,394.736842105263,4,1,0,5,1,0
11978,-55.5555555555556,4,1,0,100,0,0
12560,-66.6666666666667,4,1,0,100,0,0
12953,394.736842105263,4,1,0,100,1,0
12954,-50,4,1,0,100,0,0
13347,-100,4,1,0,100,0,0
13939,-50,4,1,0,100,0,0
14087,-50,4,1,0,5,0,0
14137,-50,4,1,0,100,0,0
14679,-50,4,1,0,5,0,0
14729,-50,4,1,0,100,0,0
15074,-50,4,1,0,5,0,0
15124,-50,4,1,0,100,0,0
15309,394.736842105263,4,1,0,100,1,0
15309,-50,4,1,0,100,0,0
15457,-50,4,1,0,5,0,0
15506,-50,4,1,0,100,0,0
15654,-50,4,1,0,5,0,0
15703,-50,4,1,0,100,0,0
15851,-50,4,1,0,5,0,0
15901,-50,4,1,0,100,0,0
16049,-50,4,1,0,5,0,0
16096,394.736842105263,4,1,0,100,1,0
16096,-50,4,1,0,100,0,0
16471,394.736842105263,4,1,0,100,1,0
16865,-50,4,1,0,100,0,0
17661,394.736842105263,4,1,0,100,1,0
18894,-50,4,1,0,5,0,0
19042,-50,4,1,0,100,0,0
19092,-50,4,1,0,5,0,0
19240,-50,4,1,0,100,0,0
19388,-50,4,1,0,5,0,0
19437,-50,4,1,0,100,0,0
19782,-50,4,1,0,5,0,0
19832,-50,4,1,0,100,0,0
20177,-50,4,1,0,5,0,0
20227,-50,4,1,0,100,0,0
20572,-50,4,1,0,5,0,0
20621,-50,4,1,0,100,0,0
20967,-50,4,1,0,5,0,0
21016,-50,4,1,0,100,0,0
21164,-50,4,1,0,5,0,0
21213,-50,4,1,0,100,0,0
21361,-50,4,1,0,5,0,0
21411,-50,4,1,0,100,0,0
22546,-50,4,1,0,5,0,0
22595,-50,4,1,0,100,0,0
22940,-50,4,1,0,5,0,0
22990,-50,4,1,0,100,0,0
23335,-50,4,1,0,5,0,0
23384,-50,4,1,0,100,0,0
23582,-50,4,1,0,80,0,0
23976,-50,4,1,0,100,0,0
24174,-50,4,1,0,5,0,0
24371,-66.6666666666667,4,1,0,80,0,0
24569,-50,4,1,0,5,0,0
24766,-100,4,1,0,50,0,0
24963,-50,4,1,0,5,0,0
25161,-133.333333333333,4,1,0,15,0,0
25358,-133.333333333333,4,1,0,5,0,0
25555,-50,4,1,0,100,0,0
25605,-50,4,1,0,5,0,0
25703,-50,4,1,0,5,0,0
25753,-50,4,1,0,100,0,0
25950,-50,4,1,0,100,0,0
27134,-100,4,1,0,100,0,0
27282,-100,4,1,0,5,0,0
27332,-100,4,1,0,100,0,0
27529,-80,4,1,0,100,0,0
27677,-80,4,1,0,5,0,0
27726,-80,4,1,0,100,0,0
27924,-66.6666666666667,4,1,0,100,0,0
28072,-66.6666666666667,4,1,0,5,0,0
28121,-66.6666666666667,4,1,0,100,0,0
28318,-50,4,1,0,100,0,0
28466,-50,4,1,0,5,0,0
28516,-50,4,1,0,100,0,0
28738,394.736842105263,4,1,0,100,1,0
29132,-100,4,1,0,100,0,0
29922,-50,4,1,0,100,0,0
30070,-50,4,1,0,5,0,0
30119,-50,4,1,0,100,0,0
31518,394.736842105263,4,1,0,100,1,0
31902,394.736842105263,4,1,0,100,1,0
31902,-50,4,1,0,100,0,0
32050,-50,4,1,0,5,0,0
32099,-50,4,1,0,100,0,0
32284,394.736842105263,4,1,0,100,1,0
32728,-100,4,1,0,5,0,0
32876,-50,4,1,0,100,0,0
33024,-50,4,1,0,5,0,0
33073,-50,4,1,0,100,0,0
33616,-50,4,1,0,5,0,0
33665,-50,4,1,0,100,0,0
34010,-50,4,1,0,5,0,0
34060,-50,4,1,0,100,0,0
34405,-50,4,1,0,5,0,0
34455,-50,4,1,0,100,0,0
34603,-50,4,1,0,5,0,0
34652,-50,4,1,0,100,0,0
34800,-50,4,1,0,5,0,0
34849,-50,4,1,0,100,0,0
34997,-50,4,1,0,5,0,0
35047,-50,4,1,0,100,0,0
35429,394.736842105263,4,1,0,100,1,0
36169,-50,4,1,0,100,0,0
36366,-50,4,1,0,5,0,0
36415,-50,4,1,0,100,0,0
36761,-50,4,1,0,5,0,0
36810,-50,4,1,0,100,0,0
37155,-50,4,1,0,5,0,0
37205,-50,4,1,0,100,0,0
37945,-50,4,1,0,5,0,0
37994,-50,4,1,0,100,0,0
38340,-50,4,1,0,5,0,0
38389,-50,4,1,0,100,0,0
38734,-50,4,1,0,5,0,0
38784,-50,4,1,0,100,0,0
39129,-50,4,1,0,5,0,0
39179,-50,4,1,0,100,0,0
39327,-50,4,1,0,5,0,0
39376,-50,4,1,0,100,0,0
39919,-50,4,1,0,5,0,0
39968,-50,4,1,0,100,0,0
40116,-50,4,1,0,5,0,0
40165,-50,4,1,0,100,0,0
40313,-50,4,1,0,5,0,0
40363,-50,4,1,0,100,0,0
40511,-50,4,1,0,5,0,0
40555,394.736842105263,4,1,0,100,1,0
40560,-50,4,1,0,100,0,0
41326,392.156862745098,4,1,0,100,1,0
41326,-50,4,1,0,100,0,0
42649,-50,4,1,0,5,0,0
42698,-50,4,1,0,100,0,0
43041,-50,4,1,0,5,0,0
43090,-50,4,1,0,100,0,0
43237,-50,4,1,0,5,0,0
43286,-50,4,1,0,100,0,0
43433,-50,4,1,0,5,0,0
43482,-50,4,1,0,100,0,0
44506,396.039603960396,4,1,0,100,1,0
44506,-50,4,1,0,100,0,0
44555,-50,4,1,0,5,0,0
44703,-50,4,1,0,100,0,0
44851,-50,4,1,0,5,0,0
44900,-50,4,1,0,100,0,0
45443,-50,4,1,0,5,0,0
45492,-50,4,1,0,100,0,0
45640,-50,4,1,0,5,0,0
45690,-50,4,1,0,100,0,0
45838,-50,4,1,0,5,0,0
45887,-50,4,1,0,100,0,0
46122,396.039603960396,4,1,0,5,1,0
46122,-50,4,1,0,100,0,0
46171,-50,4,1,0,5,0,0
46282,-50,4,1,0,100,0,0
46430,-50,4,1,0,5,0,0
46479,-50,4,1,0,100,0,0
47062,-50,4,1,0,5,0,0
47112,-50,4,1,0,100,0,0
47458,-50,4,1,0,5,0,0
47508,-50,4,1,0,100,0,0
48052,-50,4,1,0,5,0,0
48102,-50,4,1,0,100,0,0
48646,-50,4,1,0,5,0,0
48696,-50,4,1,0,100,0,0
49042,-50,4,1,0,5,0,0
49092,-50,4,1,0,100,0,0
49438,-50,4,1,0,5,0,0
49488,-50,4,1,0,100,0,0
49636,-50,4,1,0,5,0,0
49686,-50,4,1,0,100,0,0
50428,-50,4,1,0,5,0,0
50478,-50,4,1,0,100,0,0
50513,396.039603960396,4,1,0,100,1,0
50725,396.039603960396,4,1,0,100,1,0
50946,397.350993377483,4,1,0,100,1,0
50946,-50,4,1,0,100,0,0
51095,-50,4,1,0,5,0,0
51144,-50,4,1,0,100,0,0
51492,-50,4,1,0,5,0,0
51542,-50,4,1,0,100,0,0
51889,-50,4,1,0,5,0,0
51939,-50,4,1,0,100,0,0
52287,-50,4,1,0,5,0,0
52336,-50,4,1,0,100,0,0
52684,-50,4,1,0,5,0,0
52734,-50,4,1,0,100,0,0
53081,-50,4,1,0,5,0,0
53131,-50,4,1,0,100,0,0
53479,-50,4,1,0,5,0,0
53528,-50,4,1,0,100,0,0
53876,-50,4,1,0,5,0,0
53926,-50,4,1,0,100,0,0
54273,-50,4,1,0,5,0,0
54323,-50,4,1,0,100,0,0
54671,-50,4,1,0,5,0,0
54720,-50,4,1,0,100,0,0
57327,400,4,1,0,100,1,0
57327,-50,4,1,0,100,0,0
58277,-50,4,1,0,5,0,0
58327,-50,4,1,0,100,0,0
58477,-50,4,1,0,5,0,0
58527,-50,4,1,0,100,0,0
60277,-50,4,1,0,5,0,0
60327,-50,4,1,0,100,0,0
60477,-50,4,1,0,5,0,0
60527,-50,4,1,0,100,0,0
61127,-50,4,1,0,100,0,0
61877,-50,4,1,0,5,0,0
61927,-50,4,1,0,100,0,0
62277,-50,4,1,0,5,0,0
62327,-50,4,1,0,100,0,0
62477,-50,4,1,0,5,0,0
62527,-50,4,1,0,100,0,0
62677,-50,4,1,0,5,0,0
62727,-50,4,1,0,100,0,0
62877,-50,4,1,0,5,0,0
62927,-50,4,1,0,100,0,0
63277,-50,4,1,0,5,0,0
63327,-50,4,1,0,100,0,0
63477,-50,4,1,0,5,0,0
63527,-50,4,1,0,100,0,0
63677,-50,4,1,0,5,0,0
63750,400,4,1,0,100,1,0
63750,-50,4,1,0,100,0,0
63900,-50,4,1,0,5,0,0
63950,-50,4,1,0,100,0,0
64300,-50,4,1,0,5,0,0
64350,-50,4,1,0,100,0,0
64600,-50,4,1,0,5,0,0
64750,-50,4,1,0,100,0,0
64900,-50,4,1,0,5,0,0
64950,-50,4,1,0,100,0,0
65500,-50,4,1,0,5,0,0
65550,-50,4,1,0,100,0,0
65900,-50,4,1,0,5,0,0
65950,-50,4,1,0,100,0,0
66200,-50,4,1,0,5,0,0
66350,-50,4,1,0,100,0,0
66500,-50,4,1,0,5,0,0
66550,-50,4,1,0,100,0,0
66700,-50,4,1,0,5,0,0
66750,-50,4,1,0,100,0,0
67100,-50,4,1,0,5,0,0
67150,-50,4,1,0,100,0,0
68150,-50,4,1,0,100,0,0
68300,-50,4,1,0,5,0,0
68350,-50,4,1,0,100,0,0

[Colours]
Combo1 : 221,185,208
Combo2 : 200,184,119
Combo3 : 237,239,137
Combo4 : 255,128,64
Combo5 : 159,205,213
Combo6 : 221,218,202

[HitObjects]
256,192,304,12,0,3085,0:0:0:0:
256,192,3482,12,0,6264,0:0:0:0:
232,184,6643,6,2,P|248:136|308:96,1,105
360,92,6841,1,0,0:0:0:0:
452,240,7040,2,0,L|476:268,3,35
424,152,7437,1,2,0:0:0:0:
432,336,7636,1,0,0:0:0:0:
288,272,7835,2,0,L|184:296,1,105
131,338,8033,1,0,0:0:0:0:
376,216,8232,6,2,P|368:144|328:100,1,105
296,76,8431,1,0,0:0:0:0:
64,80,8629,2,2,B|136:100|136:100|168:128,1,105
189,182,8828,1,0,0:0:0:0:
300,332,9027,2,2,P|288:268|304:200,1,105
315,163,9225,1,0,0:0:0:0:
428,48,9424,2,2,P|416:100|420:168,1,105
425,220,9623,1,0,0:0:0:0:
472,336,9817,6,2,P|400:304|332:304,1,140
212,308,10211,1,0,0:0:0:0:
172,272,10309,1,0,0:0:0:0:
188,220,10408,1,0,0:0:0:0:
232,188,10507,1,0,0:0:0:0:
252,136,10605,1,2,0:0:0:0:
284,340,10803,5,0,0:0:0:0:
248,280,11001,2,0,P|228:236|244:168,1,105
268,120,11198,1,0,0:0:0:0:
128,56,11395,6,2,P|152:92|212:120,1,94.499997116089
280,172,11593,2,0,L|264:128,2,35
308,244,11950,1,2,0:0:0:0:
308,244,12372,5,0,0:0:0:0:
350,185,12570,2,2,P|366:121|354:73,1,105.000004005432
212,72,12954,2,0,P|195:142|221:208,1,140
268,340,13347,2,0,L|304:328,3,35
360,244,13744,1,2,0:0:0:0:
268,340,13939,6,0,P|224:304|204:228,1,105
188,192,14137,1,0,0:0:0:0:
156,340,14334,1,0,0:0:0:0:
68,184,14531,6,2,P|88:228|168:256,1,105
205,260,14729,1,0,0:0:0:0:
208,44,14926,2,2,P|224:89|188:165,1,105
148,176,15124,1,0,0:0:0:0:
40,308,15309,2,2,P|108:268|156:280,1,105
130,270,15506,2,0,P|210:270|246:242,1,105
229,258,15703,2,2,P|304:224|345:230,1,105
324,225,15901,2,0,P|404:225|448:196,1,105
448,116,16096,6,2,B|400:108|364:76|364:76|336:104|304:108,1,140
280,168,16471,1,0,0:0:0:0:
240,236,16569,1,0,0:0:0:0:
280,304,16668,1,0,0:0:0:0:
360,304,16767,1,0,0:0:0:0:
391,226,16865,6,0,B|320:239|320:239|227:210,1,140,2|0,0:0|0:0,0:0:0:0:
128,124,17260,1,0,0:0:0:0:
192,252,17457,1,0,0:0:0:0:
28,180,17655,1,0,0:0:0:0:
200,292,17858,5,2,0:0:0:0:
140,316,17957,1,0,0:0:0:0:
104,264,18055,1,2,0:0:0:0:
68,120,18253,1,0,0:0:0:0:
68,120,18648,5,0,0:0:0:0:
80,312,18845,2,2,L|68:348,1,35
188,236,19042,2,2,L|228:232,1,35
68,345,19240,6,2,P|84:277|120:229,1,105
152,196,19437,1,0,0:0:0:0:
320,156,19634,2,2,P|308:220|264:268,1,105
232,301,19831,1,0,0:0:0:0:
120,224,20029,2,2,P|168:172|232:160,1,105
268,152,20227,1,2,0:0:0:0:
380,332,20424,2,2,P|344:288|336:240,1,105
344,173,20621,1,0,0:0:0:0:
472,76,20819,6,2,P|404:116|356:104,1,105
381,113,21016,2,2,P|301:113|265:141,1,105
281,124,21214,2,0,P|213:164|165:152,1,105
190,161,21411,2,2,P|142:165|210:293,1,280
172,231,22003,5,0,0:0:0:0:
39,112,22200,1,0,0:0:0:0:
123,61,22398,2,2,P|180:125|176:170,1,105
152,206,22595,1,0,0:0:0:0:
50,335,22792,2,2,P|64:270|115:232,1,105
152,206,22990,1,0,0:0:0:0:
208,252,23187,2,2,P|256:256|312:212,1,105
332,164,23384,1,0,0:0:0:0:
261,53,23582,2,2,P|233:105|257:209,1,140
423,148,23976,6,2,P|376:205|292:225,1,140
238,237,24371,2,2,B|246:297|246:297|280:334,1,105.000004005432
417,312,24766,2,2,L|340:297,1,70
132,316,25161,2,2,L|179:349,1,52.5000020027161
176,120,25555,6,2,P|168:184|208:240,1,105
232,276,25753,1,0,0:0:0:0:
236,80,25950,5,0,0:0:0:0:
288,80,26048,1,0,0:0:0:0:
324,120,26147,1,0,0:0:0:0:
308,172,26246,1,0,0:0:0:0:
324,224,26344,1,2,0:0:0:0:
392,172,26542,5,0,0:0:0:0:
244,232,26739,2,0,P|293:299|364:294,1,140
440,144,27134,6,2,L|424:200,1,52.5
400,260,27332,1,0,0:0:0:0:
287,214,27529,2,2,P|287:240|315:291,1,65.625
340,334,27727,1,0,0:0:0:0:
251,80,27924,2,2,L|225:162,1,78.7500030040742
201,220,28122,1,0,0:0:0:0:
81,189,28318,2,2,P|77:244|115:300,1,105
150,335,28516,1,0,0:0:0:0:
304,189,28738,5,2,0:0:0:0:
225,366,28935,1,2,0:0:0:0:
147,179,29132,2,0,L|186:202,3,35
107,94,29527,1,2,0:0:0:0:
17,230,29724,5,0,0:0:0:0:
74,187,29922,2,0,P|123:164|196:173,1,105
238,191,30119,1,0,0:0:0:0:
305,321,30316,1,2,0:0:0:0:
424,220,30514,5,2,0:0:0:0:
370,242,30613,1,0,0:0:0:0:
407,164,30711,1,2,0:0:0:0:
333,265,30909,2,2,P|282:288|266:131,1,280
397,95,31501,1,0,0:0:0:0:
333,265,31715,1,0,0:0:0:0:
252,59,31902,6,2,P|227:117|231:169,1,105
247,225,32099,5,0,0:0:0:0:
152,200,32284,1,0,0:0:0:0:
92,235,32382,1,0,0:0:0:0:
96,302,32481,1,0,0:0:0:0:
158,328,32580,1,0,0:0:0:0:
215,289,32678,2,0,L|237:286,1,17.5,2|2,0:0|0:0,0:0:0:0:
149,267,32876,6,0,P|109:243|73:175,1,105
48,132,33073,1,0,0:0:0:0:
77,307,33270,1,0,0:0:0:0:
187,126,33468,6,2,P|217:170|215:230,1,105
189,283,33665,1,0,0:0:0:0:
289,44,33862,2,2,P|364:86|391:126,1,105
406,161,34060,1,0,0:0:0:0:
452,340,34257,6,2,P|391:334|361:293,1,105
364,302,34455,2,0,P|347:260|286:233,1,105
296,233,34652,2,2,P|236:220|199:178,1,105
205,190,34849,2,0,P|168:144|119:131,1,105
60,154,35047,5,0,0:0:0:0:
28,332,35244,1,0,0:0:0:0:
100,193,35429,5,2,0:0:0:0:
136,144,35527,1,0,0:0:0:0:
193,128,35626,1,0,0:0:0:0:
248,149,35725,1,0,0:0:0:0:
271,203,35823,1,2,0:0:0:0:
127,301,36021,5,0,0:0:0:0:
74,94,36218,2,0,P|97:158|143:192,1,105
182,221,36415,1,0,0:0:0:0:
341,291,36613,2,0,P|270:307|232:331,1,105
177,350,36810,1,2,0:0:0:0:
177,350,36909,1,0,0:0:0:0:
177,350,37007,2,2,P|154:296|103:242,1,105
76,208,37205,1,0,0:0:0:0:
76,208,37600,5,0,0:0:0:0:
93,276,37797,2,0,P|127:321|185:355,1,105
234,364,37994,1,0,0:0:0:0:
314,195,38192,6,2,P|257:205|184:179,1,105
158,151,38389,1,0,0:0:0:0:
344,103,38586,2,2,P|297:54|236:42,1,105
194,43,38783,1,0,0:0:0:0:
59,107,38981,2,2,P|37:148|33:223,1,105
31,206,39179,2,2,P|71:234|98:295,1,105
107,352,39376,1,2,0:0:0:0:
292,344,39573,1,0,0:0:0:0:
419,276,39771,6,2,P|443:245|439:175,1,105
443,182,39968,2,2,P|393:145|334:154,1,105
352,146,40165,2,2,P|281:158|251:149,1,105
250,148,40363,2,2,P|207:139|133:182,1,105
98,207,40555,1,2,0:0:0:0:
311,246,40752,1,0,0:0:0:0:
113,312,40949,1,0,0:0:0:0:
223,357,41147,1,0,0:0:0:0:
453,253,41326,6,2,P|391:277|315:255,1,140
166,181,41718,2,2,P|228:205|304:183,1,140
466,108,42110,2,2,P|404:132|328:110,1,140
187,51,42502,2,2,P|107:40|64:65,1,105
34,95,42698,1,2,0:0:0:0:
101,176,42894,6,2,P|108:222|171:262,1,105
150,258,43090,2,2,P|205:284|229:328,1,105
226,320,43286,2,2,P|263:348|340:336,1,105
319,347,43482,2,2,P|368:315|266:182,2,280
319,347,44506,6,2,L|280:354,1,35
144,284,44704,2,0,P|205:294|259:258,1,105
269,209,44902,1,2,0:0:0:0:
236,147,45100,2,2,P|111:167|132:275,1,245
117,261,45496,2,0,P|174:286|230:266,1,105
213,276,45694,2,2,P|275:258|321:270,1,105
380,309,45892,1,0,0:0:0:0:
458,75,46122,6,2,L|431:118,1,35
369,185,46320,2,0,P|322:174|263:229,1,105
209,222,46518,1,2,0:0:0:0:
180,285,46716,2,2,P|224:321|252:192,1,245
212,171,47112,1,0,0:0:0:0:
96,52,47310,2,2,P|44:104|36:148,1,105
26,201,47508,1,0,0:0:0:0:
193,321,47706,6,2,B|300:254|335:379|449:293,1,245
452,242,48102,1,0,0:0:0:0:
341,165,48300,6,2,B|263:109|154:173|154:173|220:215,1,245
254,231,48696,1,0,0:0:0:0:
382,102,48894,2,2,P|408:138|393:222,1,105
369,254,49092,1,0,0:0:0:0:
183,294,49290,2,2,P|247:317|285:297,1,105
277,303,49488,2,2,P|311:267|372:260,1,105
363,258,49686,2,2,P|411:254|419:160,1,140
347,77,50082,1,2,0:0:0:0:
448,173,50280,6,0,P|472:220|450:288,1,105
415,321,50513,1,2,0:0:0:0:
307,178,50725,1,0,0:0:0:0:
429,71,50946,2,2,P|409:123|343:165,1,105
307,178,51144,1,0,0:0:0:0:
204,108,51343,2,2,P|138:122|102:178,1,105
114,150,51542,2,2,P|101:214|256:260,1,245
288,224,51939,1,0,0:0:0:0:
218,117,52138,2,2,P|256:67|325:57,1,105
362,68,52336,1,0,0:0:0:0:
357,198,52535,6,2,P|335:248|333:307,1,105
295,357,52734,1,0,0:0:0:0:
105,294,52932,2,0,P|125:253|203:228,1,105
176,226,53131,2,2,P|232:151|126:163,1,245
107,218,53528,1,0,0:0:0:0:
65,31,53727,2,2,P|104:47|195:40,1,105
234,41,53926,1,0,0:0:0:0:
396,172,54124,6,2,P|386:238|358:266,1,105
299,296,54323,1,2,0:0:0:0:
321,78,54522,2,2,P|283:111|280:185,1,105
274,163,54720,2,2,P|266:245|172:150,1,280
193,102,55316,1,0,0:0:0:0:
69,136,55515,1,0,0:0:0:0:
313,92,55714,5,2,0:0:0:0:
151,167,55912,5,0,0:0:0:0:
165,173,56012,1,0,0:0:0:0:
176,177,56111,1,2,0:0:0:0:
382,202,56310,5,0,0:0:0:0:
349,216,56410,1,0,0:0:0:0:
323,226,56509,1,2,0:0:0:0:
176,282,56707,5,0,0:0:0:0:
205,340,56807,1,0,0:0:0:0:
269,341,56906,1,2,0:0:0:0:
314,297,57005,1,2,0:0:0:0:
309,235,57104,1,2,0:0:0:0:
253,205,57204,1,2,0:0:0:0:
189,213,57327,6,2,B|140:228|140:228|302:267|355:143,1,280
342,167,57927,6,2,B|328:117|328:117|280:224|356:320,1,245
342,300,58327,2,2,P|284:292|217:314,1,105
175,329,58527,1,0,0:0:0:0:
25,243,58727,1,2,0:0:0:0:
26,62,58927,6,2,P|52:145|244:170,1,280
223,183,59527,2,2,P|191:231|306:208,1,280
306,143,60127,2,0,P|278:113|205:110,1,105
216,105,60327,2,2,P|157:125|103:95,1,105
119,110,60527,6,2,B|93:89|114:47|114:47|201:140|124:252,1,280
131,239,61127,6,2,B|114:268|69:253|69:253|147:153|270:211,1,280
392,280,61727,6,0,P|331:286|289:315,1,105
236,347,61927,1,2,0:0:0:0:
87,165,62127,2,2,P|143:133|200:137,1,105
181,132,62327,2,2,P|229:131|286:74,1,105
273,98,62527,2,2,P|311:62|372:50,1,105
488,136,62727,6,0,L|444:240,1,105
413,294,62927,1,0,0:0:0:0:
200,312,63127,2,0,P|240:284|312:288,1,105
294,281,63327,6,2,P|340:285|410:234,1,105
391,259,63527,2,2,P|439:222|488:221,1,105
461,148,63750,2,2,B|425:84|341:108|341:108,1,105
303,107,63950,1,0,0:0:0:0:
56,80,64150,6,2,P|104:128|168:136,1,105
207,138,64350,1,2,0:0:0:0:
58,225,64550,2,0,L|13:251,1,35
175,241,64750,2,2,P|222:260|270:324,1,105
285,364,64950,1,2,0:0:0:0:
388,245,65150,1,0,0:0:0:0:
303,112,65350,6,2,P|256:164|220:179,1,105
156,187,65550,1,0,0:0:0:0:
45,335,65750,2,2,P|62:268|51:219,1,105
33,169,65950,1,2,0:0:0:0:
138,83,66150,6,0,L|165:55,1,35
279,131,66350,2,2,P|314:149|341:215,1,105
341,206,66550,2,2,P|360:257|431:283,1,105
444,337,66750,1,0,0:0:0:0:
210,233,66950,6,2,P|235:190|287:147,1,105
337,120,67150,1,2,0:0:0:0:
476,88,67350,1,2,0:0:0:0:
296,187,67550,2,2,P|257:297|396:294,1,280
269,70,68150,2,2,P|300:110|305:162,1,105
289,231,68350,1,2,0:0:0:0:
144,172,68550,1,2,0:0:0:0:
256,192,68600,12,4,69764,0:0:0:0:
