osu file format v14

[General]
AudioFilename: Ivarelli - Fast and Sad.mp3
AudioLeadIn: 0
PreviewTime: 56129
Countdown: 1
SampleSet: None
StackLeniency: 0.7
Mode: 0
LetterboxInBreaks: 0
WidescreenStoryboard: 0

[Editor]
Bookmarks: 12132,40005,56129,61628,88251,96125,112124,142122,144122,151121
DistanceSpacing: 1
BeatDivisor: 4
GridSize: 4
TimelineZoom: 1

[Metadata]
Title:Fast and sad
TitleUnicode:Fast and sad
Artist:Ivarelli
ArtistUnicode:Ivarelli
Creator:Unspoken Truth
Version:Easy
Source:Beautiful Life album by Ivarelli
Tags:Instrumental, Beautiful Life, inspirational
BeatmapID:889611
BeatmapSetID:409885

[Difficulty]
HPDrainRate:2
CircleSize:3
OverallDifficulty:2
ApproachRate:3
SliderMultiplier:1.4
SliderTickRate:1

[Events]
//Background and Video events
0,0,"HELPP.jpg",0,0
//Break Periods
2,16332,18692
2,88326,94685
//Storyboard Layer 0 (Background)
//Storyboard Layer 1 (Fail)
//Storyboard Layer 2 (Pass)
//Storyboard Layer 3 (Foreground)
//Storyboard Sound Samples

[TimingPoints]
8133,499.96,4,1,0,29,1,0
11263,-100,4,2,0,29,0,0
56129,-100,4,3,0,29,0,0
112124,-100,4,3,0,29,0,1
128123,-100,4,1,0,29,0,0
145122,-100,4,2,0,29,0,0

[Colours]
Combo1 : 211,165,3
Combo2 : 176,33,26
Combo3 : 19,46,136
Combo4 : 90,97,97

[HitObjects]
336,112,12132,5,4,0:0:0:0:
336,272,14132,1,0,0:0:0:0:
176,272,16132,1,4,0:0:0:0:
176,112,20132,5,0,0:0:0:0:
256,192,22131,1,4,0:0:0:0:
336,272,24131,1,0,0:0:0:0:
336,96,25131,6,0,B|264:64|216:64|128:96,1,210
176,208,26881,5,2,0:0:0:0:
256,320,27381,2,8,L|352:320,2,70
192,320,28131,1,2,0:0:0:0:
176,112,30131,5,2,0:0:0:0:
336,112,32131,5,0,0:0:0:0:
336,300,33131,2,0,B|272:348|208:348|128:284,1,210
16,48,34880,5,2,0:0:0:0:
112,144,35380,2,8,B|180:185|244:185|308:137,1,210
400,48,38130,5,2,0:0:0:0:
320,304,40130,5,0,0:0:0:0:
176,304,40630,2,8,L|32:304,2,140
428,180,42630,6,8,L|428:36,2,140
424,320,44130,1,2,0:0:0:0:
224,220,46129,5,2,0:0:0:0:
124,124,46629,2,8,L|12:12,2,140
224,220,48129,1,0,0:0:0:0:
244,360,48629,6,0,P|292:348|350:283,1,140
352,140,49629,2,0,P|332:95|297:71,1,70
108,112,50629,5,2,0:0:0:0:
124,252,51129,2,0,P|146:296|223:336,1,140
256,200,52129,1,2,0:0:0:0:
396,192,52629,6,8,P|457:169|484:84,2,140
256,200,54129,1,0,0:0:0:0:
116,192,54629,6,8,P|54:169|28:84,2,140
256,200,56129,5,2,0:0:0:0:
160,304,56629,2,0,B|176:416|288:416|352:368|352:304,1,280
256,200,58129,1,2,0:0:0:0:
168,92,58628,2,8,P|117:134|120:217,1,140
192,320,59628,1,0,0:0:0:0:
320,260,60128,6,0,B|432:244|432:132|384:68|320:68,1,280
188,64,61628,1,0,0:0:0:0:
48,64,62128,1,2,0:0:0:0:
48,204,62628,2,0,L|48:396,1,140
184,320,63628,1,0,0:0:0:0:
216,184,64128,6,8,P|148:171|96:214,1,140,8|8,0:3|0:0,0:0:0:0:
96,352,65128,1,0,0:0:0:0:
236,356,65628,2,8,P|301:337|328:274,1,140
196,224,66628,1,0,0:0:0:0:
240,92,67128,2,8,P|305:110|334:172,1,140
328,312,68128,5,2,0:0:0:0:
188,312,68628,2,8,P|124:287|102:223,1,140
104,84,69628,2,8,L|264:84,1,140
340,176,70627,2,0,L|340:336,1,140
468,384,71627,1,0,0:0:0:0:
472,244,72127,5,2,0:0:0:0:
408,120,72627,2,0,P|344:104|312:24,1,140
172,44,73627,2,0,P|140:104|75:121,1,140
72,264,74627,2,0,P|136:280|168:360,1,140
308,340,75627,2,0,P|339:271|404:254,1,140
404,112,76627,6,0,P|340:96|308:16,1,140
168,32,77627,1,0,0:0:0:0:
28,32,78127,5,2,0:0:0:0:
32,172,78627,2,0,L|32:332,1,140
172,312,79627,1,0,0:0:0:0:
312,312,80127,5,2,0:0:0:0:
452,312,80627,2,0,L|452:152,1,140
312,196,81627,1,0,0:0:0:0:
220,92,82127,2,8,B|140:92|108:156|108:156|108:332,1,280
248,308,83626,2,8,B|328:308|360:244|360:244|360:68,1,280
500,92,85126,5,2,0:0:0:0:
500,232,85626,2,0,L|500:372,1,140
360,376,86626,1,2,0:0:0:0:
256,192,87126,12,12,88126,0:0:0:0:
280,80,96125,5,2,0:0:0:0:
148,120,96625,2,8,P|84:184|100:248,1,140
84,368,97625,2,0,P|152:367|195:315,1,140
292,212,98625,2,0,P|265:190|230:188,1,70
92,164,99375,6,0,B|132:108|132:108|196:108|196:108|252:32,1,210
380,40,100625,1,2,0:0:0:0:
356,176,101125,2,8,P|268:154|221:200,2,140
496,172,102625,2,0,L|496:12,1,140
352,16,103625,6,0,B|351:87|351:87|264:75,1,140,0|0,0:0|0:0,0:3:0:0:
144,80,104625,1,2,0:0:0:0:
144,224,105125,2,8,P|189:302|255:303,1,140
372,308,106125,2,0,P|448:259|446:194,1,140
316,196,107125,5,2,0:0:0:0:
176,196,107625,1,0,0:0:0:0:
232,68,108124,2,8,B|292:32|372:32|452:64|484:128|500:240|484:280|440:300,1,420
388,164,110124,2,8,B|369:130|290:117|206:136|164:194|131:302|166:389,1,420
268,296,112124,6,8,L|424:229,2,140
128,296,113624,6,8,L|-28:229,2,140
160,160,115124,2,8,P|200:118|251:194,1,140
200,284,116124,5,2,0:0:0:0:
72,220,116624,2,8,L|101:75,2,140
200,284,118124,5,2,0:0:0:0:
328,228,118624,2,8,L|298:83,2,140
208,304,120124,5,2,0:0:0:0:
72,264,120624,2,0,B|72:120|72:120|216:120|216:120|312:28,1,420
432,96,122623,2,8,B|320:224|320:224|176:224|176:224|176:352,1,420
316,336,124623,2,0,B|476:336|476:336|476:208|476:208|364:128,1,420
256,192,126623,12,12,128123,0:0:0:0:
88,64,128623,6,8,P|8:80|24:160,2,140
368,56,130623,2,8,P|433:57|455:119,2,140
332,192,132123,5,2,0:0:0:0:
220,276,132623,2,0,P|252:340|316:324,2,140
332,192,134122,5,2,0:0:0:0:
464,152,134622,2,8,P|491:227|414:255,2,140
332,192,136122,5,2,0:0:0:0:
236,292,136622,2,0,B|204:388|92:372|60:292|76:228|124:148|172:100|236:84,2,420
304,168,140122,5,0,0:0:0:0:
304,28,140622,2,8,P|370:25|407:80,2,140
296,168,142122,6,8,B|294:196|246:244|166:292|102:308|22:276|7:164|99:133,1,420
236,112,144122,1,2,0:0:0:0:
12,68,145122,6,4,B|80:24|80:24|120:76|120:76|192:24,1,210
452,40,146871,1,2,0:0:0:0:
332,116,147371,2,4,B|264:160|264:160|224:108|224:108|152:160,1,210
60,228,148621,5,0,0:0:0:0:
148,336,149121,2,8,P|207:367|267:336,1,140
208,208,150121,2,8,P|282:178|335:225,1,140
268,336,151121,1,2,0:0:0:0:
