osu file format v14

[General]
AudioFilename: audio.mp3
AudioLeadIn: 0
PreviewTime: -1
Countdown: 1
SampleSet: Normal
StackLeniency: 0.7
Mode: 0
LetterboxInBreaks: 0
WidescreenStoryboard: 1

[Editor]
Bookmarks: 4842,10365,21206,22297,39478,41115,41388,41660,42342,43842,45478,46433,46501,48069,48206,52297,52433,58297,68251,69138,69206,88978,89524,91160,91706,93342,93888,136297,136706,140524,140660,140933,141069,144888,149115,149660
DistanceSpacing: 1.2
BeatDivisor: 8
GridSize: 4
TimelineZoom: 1.2

[Metadata]
Title:Jozin z bazin
TitleUnicode:Jožin z bažin
Artist:Ivan Mladek
ArtistUnicode:Ivan Mládek & Banjo band
Creator:sdolnicek
Version:Normal
Source:
Tags:Czech Ivan Mladek why 1970s communism Jozien Bagien
BeatmapID:1607209
BeatmapSetID:758822

[Difficulty]
HPDrainRate:4
CircleSize:4.2
OverallDifficulty:5
ApproachRate:6
SliderMultiplier:1.60000000596046
SliderTickRate:2

[Events]
//Background and Video events
0,0,"llibor.jpg",0,0
//Break Periods
//Storyboard Layer 0 (Background)
//Storyboard Layer 1 (Fail)
//Storyboard Layer 2 (Pass)
//Storyboard Layer 3 (Foreground)
//Storyboard Sound Samples

[TimingPoints]
478.930845959366,545.454545454546,4,1,0,30,1,0

[Colours]
Combo1 : 0,255,0
Combo2 : 0,128,175
Combo3 : 255,0,0
Combo4 : 255,255,0
Combo5 : 226,45,124
Combo6 : 255,255,255

[HitObjects]
160,184,4842,6,0,L|216:264,1,80.000000298023
304,248,5388,2,0,L|352:176,1,80.000000298023
408,104,5933,2,0,B|376:80|376:80|312:80,1,80.000000298023
240,80,6478,1,0,0:0:0:0:
48,80,7024,6,0,L|48:160,1,80.000000298023
48,256,7569,2,0,B|72:296|72:296|120:296,1,80.000000298023
192,328,8115,2,0,L|328:328,1,120.000000447034
464,112,9274,6,0,B|464:64|464:64|416:32,1,80.000000298023
344,48,9819,2,0,L|256:48,1,80.000000298023
168,48,10365,2,0,B|141:65|141:65|141:113,1,80.000000298023
144,208,10910,1,0,0:0:0:0:
264,320,11388,6,0,B|320:320|320:320|376:280|376:280|424:280,1,160.000000596046
480,208,12206,1,0,0:0:0:0:
400,120,12546,1,0,0:0:0:0:
376,80,12683,1,0,0:0:0:0:
423,78,12819,1,0,0:0:0:0:
144,136,13569,6,0,L|96:48,1,80.000000298023
200,64,14115,2,0,L|152:152,1,80.000000298023
120,216,14660,2,0,B|104:248|104:248|152:248,1,80.000000298023
248,248,15206,1,0,0:0:0:0:
440,248,15751,6,0,B|439:208|439:208|408:176,1,80.000000298023
316,180,16297,2,0,B|268:180|268:180|232:136,1,80.000000298023
248,56,16842,2,0,L|152:56,1,80.000000298023
72,56,17388,1,0,0:0:0:0:
144,232,17933,6,0,L|200:296,1,80.000000298023
292,292,18478,2,0,L|348:228,1,80.000000298023
328,136,19024,2,0,P|248:112|160:152,1,160.000000596046
56,288,20115,2,0,B|144:288|144:288|200:224,1,160.000000596046
256,168,20933,1,0,0:0:0:0:
256,72,21206,1,0,0:0:0:0:
432,144,21751,1,0,0:0:0:0:
296,280,22297,6,0,L|336:120,1,160.000000596046
216,280,23388,2,0,L|176:120,1,160.000000596046
72,288,24478,2,0,B|72:248|72:248|32:168|32:168|32:104,1,160.000000596046
80,56,25297,1,0,0:0:0:0:
176,56,25569,2,0,P|264:80|344:48,1,160.000000596046
496,152,26660,6,0,L|440:320,1,160.000000596046
280,304,27683,2,0,B|200:304|200:304|152:224,1,160.000000596046
160,40,28774,2,0,B|208:40|208:40|264:64|264:64|336:64,1,160.000000596046
408,64,29592,1,0,0:0:0:0:
448,152,29865,2,0,P|480:240|440:320,1,160.000000596046
264,304,30956,6,0,B|176:304|176:304|104:240,1,160.000000596046
40,112,31978,2,0,B|112:72|112:72|208:72,1,160.000000596046
360,48,33001,1,0,0:0:0:0:
424,120,33274,1,0,0:0:0:0:
352,184,33547,1,0,0:0:0:0:
424,248,33819,1,0,0:0:0:0:
384,336,34092,2,0,P|300:316|204:356,1,160.000000596046
16,328,35251,6,0,B|16:240|16:240|80:184,1,160.000000596046
240,192,36274,2,0,B|336:192|336:192|392:136,1,160.000000596046
272,24,37297,1,0,0:0:0:0:
216,104,37569,1,0,0:0:0:0:
152,32,37842,1,0,0:0:0:0:
88,104,38115,1,0,0:0:0:0:
40,184,38388,2,0,P|32:248|112:296,1,160.000000596046
296,296,39478,2,0,B|296:244|272:116|320:96|352:104|404:108|424:156|424:200|400:200|396:236|364:220|196:216,1,480.000001788138
104,104,41592,2,0,P|88:88|64:80,4,40.0000001490115
200,104,42410,1,0,0:0:0:0:
296,104,42683,1,0,0:0:0:0:
104,336,43842,6,0,B|104:248|104:248|192:208,1,160.000000596046
256,184,44660,1,0,0:0:0:0:
344,216,44933,2,0,B|409:245|409:245|409:333,1,160.000000596046
240,328,45956,2,0,L|240:184,1,140.00000052154
192,104,46706,1,0,0:0:0:0:
288,104,46978,1,0,0:0:0:0:
240,72,48069,6,0,B|208:64|208:64|176:80|176:80|136:72,1,80.000000298023
264,72,48615,2,0,B|304:80|304:80|328:64|328:64|368:72,1,80.000000298023
256,120,49160,2,0,B|248:152|248:152|264:184|264:184|256:224,1,80.000000298023
208,280,49706,1,0,0:0:0:0:
304,280,49978,1,0,0:0:0:0:
400,256,50251,6,0,B|408:232|408:232|424:200|424:200|408:168,1,80.000000298023
400,88,50797,2,0,B|360:88|360:88|344:104|344:104|308:104,1,80.000000298023
232,112,51342,2,0,B|197:98|197:98|188:80|188:80|160:76,1,80.000000298023
88,136,51888,1,0,0:0:0:0:
144,216,52160,1,0,0:0:0:0:
208,288,52433,6,0,B|296:288|296:288|368:216,1,160.000000596046
416,168,53251,1,0,0:0:0:0:
376,80,53524,1,0,0:0:0:0:
344,16,53728,1,0,0:0:0:0:
304,72,53933,1,0,0:0:0:0:
72,188,54615,6,0,P|52:224|68:264,1,80.000000298023
128,328,55160,1,0,0:0:0:0:
192,256,55433,1,0,0:0:0:0:
248,336,55706,1,0,0:0:0:0:
248,336,55842,1,0,0:0:0:0:
328,272,56115,1,0,0:0:0:0:
460,144,56660,6,0,P|460:88|380:36,1,160.000000596046
284,56,57478,1,0,0:0:0:0:
192,64,57751,2,0,B|112:88|112:88|112:168,1,160.000000596046
64,352,58842,5,0,0:0:0:0:
128,280,59115,1,0,0:0:0:0:
192,352,59388,2,0,P|260:344|328:280,1,160.000000596046
376,200,60206,1,0,0:0:0:0:
416,112,60478,1,0,0:0:0:0:
240,48,61024,6,0,P|164:60|112:132,1,160.000000596046
208,140,61842,1,0,0:0:0:0:
304,132,62115,2,0,P|264:220|180:228,1,160.000000596046
44,340,63206,2,0,P|88:268|160:316,1,160.000000596046
208,360,64024,1,0,0:0:0:0:
264,280,64297,1,0,0:0:0:0:
344,224,64569,1,0,0:0:0:0:
440,248,64842,1,0,0:0:0:0:
440,56,65388,5,0,0:0:0:0:
440,56,65524,1,0,0:0:0:0:
440,56,65660,2,0,P|363:38|272:76,1,160.000000596046
208,120,66478,1,0,0:0:0:0:
179,158,66615,1,0,0:0:0:0:
160,114,66751,1,0,0:0:0:0:
40,272,67501,6,0,P|48:311|102:336,1,80.000000298023
176,352,68047,1,0,0:0:0:0:
208,264,68319,2,0,B|248:296|296:280|320:240|320:208|320:104,1,240.000000894069
496,48,69683,6,0,L|416:216,1,160.000000596046
232,192,70774,2,0,L|160:48,1,160.000000596046
36,224,71865,2,0,P|84:288|160:304,1,160.000000596046
256,304,72683,1,0,0:0:0:0:
352,304,72956,2,0,P|428:286|474:223,1,160.000000596046
412,40,74047,2,0,L|236:40,1,160.000000596046
112,136,75069,2,0,L|288:136,1,160.000000596046
416,256,76160,2,0,B|352:308|352:308|252:308,1,160.000000596046
180,308,76978,1,0,0:0:0:0:
108,248,77251,2,0,P|24:220|0:156,1,160.000000596046
148,36,78342,6,0,L|236:172,1,160.000000596046
372,36,79433,2,0,L|284:180,1,160.000000596046
176,336,80524,1,0,0:0:0:0:
248,272,80797,1,0,0:0:0:0:
312,344,81069,1,0,0:0:0:0:
384,280,81342,1,0,0:0:0:0:
448,248,81547,2,0,P|472:160|432:76,1,160.000000596046
280,80,82569,6,0,L|384:232,1,160.000000596046
232,80,83660,2,0,L|136:232,1,160.000000596046
32,304,84751,1,0,0:0:0:0:
120,344,85024,1,0,0:0:0:0:
176,264,85297,1,0,0:0:0:0:
248,328,85569,1,0,0:0:0:0:
336,296,85842,2,0,P|408:240|400:176,1,160.000000596046
280,32,86933,6,0,P|120:192|280:344,1,480.000001788138
368,248,88978,2,0,P|396:256|416:280,4,40.0000001490115
352,152,89797,1,0,0:0:0:0:
288,80,90069,1,0,0:0:0:0:
24,360,91160,2,0,B|68:320|132:336|132:336|164:284,1,160.000000596046
208,216,91978,1,0,0:0:0:0:
256,132,92251,2,0,B|279:94|279:94|343:110|387:70,1,160.000000596046
432,256,93342,2,0,B|384:240|384:240|336:272|336:272|272:272,1,160.000000596046
216,344,94160,1,0,0:0:0:0:
144,280,94433,1,0,0:0:0:0:
64,136,95456,6,0,B|80:104|80:104|100:96|100:96|140:68,1,80.000000298023
216,88,96001,2,0,B|244:88|244:88|260:96|260:96|280:80|280:80|308:88,1,80.000000298023
384,88,96547,2,0,B|400:116|400:116|428:124|428:124|448:156,1,80.000000298023
472,232,97092,1,0,0:0:0:0:
400,296,97365,1,0,0:0:0:0:
304,296,97638,6,0,B|304:276|304:276|285:267|285:267|268:268|268:268|260:244|260:244|252:220,1,80.000000298023
168,248,98183,2,0,B|168:252|168:252|161:268|161:268|143:267|143:267|125:276|125:276|125:296,1,80.000000298023
56,232,98728,2,0,B|56:196|56:196|44:164|44:164|56:140,1,80.000000298023
96,72,99274,1,0,0:0:0:0:
184,120,99547,1,0,0:0:0:0:
264,64,99819,6,0,L|360:64,1,80.000000298023
424,112,100365,2,0,B|448:140|448:140|448:212,1,80.000000298023
376,240,100910,1,0,0:0:0:0:
375,336,101183,1,0,0:0:0:0:
292,287,101456,1,0,0:0:0:0:
128,280,101933,6,0,B|92:240|92:172|136:124,1,160.000000596046
188,208,102751,1,0,0:0:0:0:
248,284,103024,2,0,B|284:244|284:176|240:128,1,160.000000596046
72,64,104115,2,0,B|124:64|124:64|172:100|172:100|228:100,1,160.000000596046
320,96,104933,1,0,0:0:0:0:
400,48,105206,2,0,B|456:64|456:64|456:114|456:114|432:152,1,140.00000052154
384,352,106297,2,0,B|336:324|336:324|220:324,1,160.000000596046
136,304,107115,1,0,0:0:0:0:
48,272,107388,2,0,B|48:167|48:167|76:119,1,160.000000596046
248,40,108479,5,0,0:0:0:0:
344,40,108751,1,0,0:0:0:0:
428,88,109024,1,0,0:0:0:0:
428,88,109160,1,0,0:0:0:0:
460,228,109569,2,0,P|460:289|416:328,1,120.000000447034
228,312,110524,2,0,L|148:312,1,80.000000298023
80,244,111069,2,0,L|80:144,1,80.000000298023
148,96,111615,1,0,0:0:0:0:
340,96,112160,1,0,0:0:0:0:
440,260,112706,5,0,0:0:0:0:
440,260,112842,2,0,B|388:308|388:308|244:308,1,200.000000745057
164,308,113797,2,0,B|88:244|88:244|88:184,1,160.000000596046
212,36,114888,2,0,L|284:104,1,80.000000298023
340,156,115433,2,0,L|272:224,1,80.000000298023
216,284,115978,1,0,0:0:0:0:
408,260,116524,1,0,0:0:0:0:
220,292,117069,6,0,L|176:132,1,160.000000596046
292,292,118160,2,0,L|324:136,1,160.000000596046
176,12,119251,1,0,0:0:0:0:
104,76,119524,1,0,0:0:0:0:
36,144,119797,2,0,P|44:196|80:220,1,80.000000298023
120,288,120342,2,0,L|280:288,1,160.000000596046
424,296,121297,6,0,L|336:140,1,160.000000596046
184,56,122388,2,0,B|96:56|96:56|40:116,1,160.000000596046
64,300,123478,2,0,P|128:352|232:336,1,160.000000596046
288,304,124297,1,0,0:0:0:0:
372,256,124569,2,0,P|420:176|400:96,1,160.000000596046
220,108,125660,6,0,L|164:268,1,160.000000596046
292,108,126751,2,0,L|336:264,1,160.000000596046
212,340,127706,1,0,0:0:0:0:
140,276,127978,1,0,0:0:0:0:
208,208,128251,1,0,0:0:0:0:
144,136,128524,1,0,0:0:0:0:
84,60,128797,2,0,P|184:36|240:52,1,160.000000596046
392,168,129888,6,0,L|296:328,1,160.000000596046
176,168,130978,2,0,L|80:312,1,160.000000596046
72,108,132069,1,0,0:0:0:0:
72,108,132206,1,0,0:0:0:0:
72,108,132342,2,0,P|128:58|212:73,1,160.000000596046
292,116,133160,2,0,P|352:180|344:256,1,160.000000596046
232,336,134115,5,0,0:0:0:0:
148,292,134388,1,0,0:0:0:0:
92,212,134660,1,0,0:0:0:0:
96,116,134933,1,0,0:0:0:0:
168,52,135206,2,0,P|248:36|340:64,1,160.000000596046
392,232,136297,2,0,L|432:224,3,40.0000001490115
431,224,136842,2,0,P|451:260|431:316,2,80.000000298023
96,208,138342,6,0,P|100:156|136:124,1,80.000000298023
196,80,138888,2,0,P|248:78|283:111,1,80.000000298023
332,168,139433,2,0,P|300:256|232:292,1,160.000000596046
72,208,140524,2,0,P|104:128|176:88,1,160.000000596046
240,144,141342,1,0,0:0:0:0:
264,232,141615,1,0,0:0:0:0:
216,320,141888,1,0,0:0:0:0:
380,224,142433,5,0,0:0:0:0:
300,172,142706,5,0,0:0:0:0:
216,220,142978,6,0,B|180:208|204:152|144:144,1,80.000000298023
140,72,143524,1,0,0:0:0:0:
232,48,143797,2,0,B|248:76|292:32|320:80,1,80.000000298023
352,148,144342,2,0,B|354:177|309:180|307:229,1,80.000000298023
232,272,144888,1,0,0:0:0:0:
265,304,145024,1,0,0:0:0:0:
243,347,145160,1,0,0:0:0:0:
197,340,145297,1,0,0:0:0:0:
188,292,145433,1,0,0:0:0:0:
108,240,145706,1,0,0:0:0:0:
124,144,145978,2,0,B|136:108|168:108|180:76,1,80.000000298023
380,208,146933,6,0,B|344:220|352:248|312:276,1,80.000000298023
236,272,147478,2,0,B|230:232|194:233|185:209,1,80.000000298023
180,116,148024,2,0,B|196:76|236:84|248:40,1,80.000000298023
332,84,148569,2,0,B|380:100|364:144|412:140,1,80.000000298023
384,232,149115,1,0,0:0:0:0:
429,246,149251,1,0,0:0:0:0:
429,294,149388,1,0,0:0:0:0:
384,309,149524,1,0,0:0:0:0:
355,270,149660,1,0,0:0:0:0:
292,200,149933,1,0,0:0:0:0:
212,252,150206,5,0,0:0:0:0:
170,338,150478,1,0,0:0:0:0:
116,259,150751,1,0,0:0:0:0:
