osu file format v14

[General]
AudioFilename: audio.mp3
AudioLeadIn: 0
PreviewTime: 43889
Countdown: 0
SampleSet: Soft
StackLeniency: 0.4
Mode: 0
LetterboxInBreaks: 0
WidescreenStoryboard: 1

[Editor]
Bookmarks: 41802,50150,83541,91889,100237,116932,125280,158671,167019,183715,187889,192063,225454
DistanceSpacing: 0.6
BeatDivisor: 4
GridSize: 4
TimelineZoom: 1

[Metadata]
Title:Stytsamen
TitleUnicode:Стыцамэн
Artist:Ivan Dorn
ArtistUnicode:Иван Дорн
Creator:Myah
Version:aishiteiru's Insane
Source:
Tags:myahkey godsenger aishiteiru- aishiteiru froskya revialink ryxliee Co'N'Dorn pop electronic russian ukrainian русский украинский український поп не надо стесняться стыцамен stycamen stycaman stytsaman
BeatmapID:4033022
BeatmapSetID:1864947

[Difficulty]
HPDrainRate:7
CircleSize:4
OverallDifficulty:8
ApproachRate:8
SliderMultiplier:1.4
SliderTickRate:1

[Events]
//Background and Video events
0,0,"Music__056512_18.jpg",0,0
Video,0,"Stytsamen_new.mp4"
//Break Periods
2,16958,24356
2,42001,48878
2,117132,124008
2,183915,186617
//Storyboard Layer 0 (Background)
//Storyboard Layer 1 (Fail)
//Storyboard Layer 2 (Pass)
//Storyboard Layer 3 (Foreground)
//Storyboard Layer 4 (Overlay)
//Storyboard Sound Samples

[TimingPoints]
63,521.739130434783,4,2,1,50,1,0
63,-250,4,2,1,50,0,0
584,-83.3333333333333,4,2,1,50,0,0
3715,-83.3333333333333,4,2,2,50,0,0
4236,-250,4,2,1,50,0,0
4758,-83.3333333333333,4,2,1,50,0,0
8410,-250,4,2,1,50,0,0
8932,-83.3333333333333,4,2,1,50,0,0
12063,-83.3333333333333,4,2,2,50,0,0
12585,-83.3333333333333,4,2,1,50,0,0
16758,-83.3333333333333,4,2,1,30,0,0
25106,-250,4,2,1,50,0,0
25628,-83.3333333333333,4,2,1,60,0,0
28758,-83.3333333333333,4,2,2,60,0,0
29280,-83.3333333333333,4,2,1,60,0,0
37106,-83.3333333333333,4,2,2,60,0,0
37628,-83.3333333333333,4,2,1,60,0,0
41802,-83.3333333333333,4,2,1,30,0,0
49628,-250,4,2,2,75,0,0
49889,-250,4,2,1,75,0,0
50149,-71.4285714285714,4,2,1,75,0,1
53802,-71.4285714285714,4,2,2,75,0,1
54324,-71.4285714285714,4,2,1,75,0,1
57976,-71.4285714285714,4,2,2,75,0,1
58498,-71.4285714285714,4,2,1,75,0,1
62150,-71.4285714285714,4,2,2,75,0,1
63193,-71.4285714285714,4,2,1,75,0,1
66324,-71.4285714285714,4,2,2,75,0,1
67367,-71.4285714285714,4,2,1,75,0,1
70498,-71.4285714285714,4,2,2,75,0,1
71541,-71.4285714285714,4,2,1,75,0,1
74671,-71.4285714285714,4,2,2,75,0,1
75715,-71.4285714285714,4,2,1,75,0,1
78845,-71.4285714285714,4,2,2,75,0,1
79889,-71.4285714285714,4,2,1,75,0,1
83019,-71.4285714285714,4,2,2,75,0,1
83541,-71.4285714285714,4,2,1,40,0,0
91889,-71.4285714285714,4,2,1,50,0,0
100236,-250,4,2,1,60,0,0
100758,-83.3333333333333,4,2,2,60,0,0
101280,-83.3333333333333,4,2,1,60,0,0
108584,-250,4,2,1,60,0,0
109106,-83.3333333333333,4,2,1,60,0,0
112237,-83.3333333333333,4,2,2,60,0,0
112758,-83.3333333333333,4,2,1,60,0,0
116932,-83.3333333333333,4,2,1,30,0,0
124758,-250,4,2,2,75,0,0
125019,-250,4,2,1,75,0,0
125280,-71.4285714285714,4,2,1,75,0,1
128932,-71.4285714285714,4,2,2,75,0,1
129976,-71.4285714285714,4,2,1,75,0,1
133106,-71.4285714285714,4,2,2,75,0,1
134150,-71.4285714285714,4,2,1,75,0,1
137280,-71.4285714285714,4,2,2,75,0,1
138324,-71.4285714285714,4,2,1,75,0,1
141454,-71.4285714285714,4,2,2,75,0,1
142498,-71.4285714285714,4,2,1,75,0,1
145628,-71.4285714285714,4,2,2,75,0,1
146671,-71.4285714285714,4,2,1,75,0,1
149802,-71.4285714285714,4,2,2,75,0,1
150845,-71.4285714285714,4,2,1,75,0,1
153976,-71.4285714285714,4,2,2,75,0,1
155019,-71.4285714285714,4,2,1,75,0,1
158150,-71.4285714285714,4,2,2,75,0,1
158671,-71.4285714285714,4,2,1,50,0,0
165454,-71.4285714285714,4,2,2,50,0,0
166758,-71.4285714285714,4,2,1,50,0,0
167019,-71.4285714285714,4,2,1,85,0,1
170671,-71.4285714285714,4,2,2,85,0,1
171715,-71.4285714285714,4,2,1,85,0,1
174845,-71.4285714285714,4,2,2,85,0,1
175889,-71.4285714285714,4,2,1,85,0,1
179019,-71.4285714285714,4,2,2,85,0,1
180063,-71.4285714285714,4,2,1,85,0,1
183193,-71.4285714285714,4,2,2,85,0,1
183715,-71.4285714285714,4,2,1,100,0,0
187367,-71.4285714285714,4,2,2,75,0,0
187628,-71.4285714285714,4,2,1,75,0,0
187889,-250,4,2,1,60,0,0
191541,-250,4,2,2,85,0,0
191802,-250,4,2,1,85,0,0
192063,-71.4285714285714,4,2,1,85,0,1
195715,-71.4285714285714,4,2,2,85,0,1
196758,-71.4285714285714,4,2,1,85,0,1
199889,-71.4285714285714,4,2,2,85,0,1
200932,-71.4285714285714,4,2,1,85,0,1
204063,-71.4285714285714,4,2,2,85,0,1
205106,-71.4285714285714,4,2,1,85,0,1
208237,-71.4285714285714,4,2,2,85,0,1
209280,-71.4285714285714,4,2,1,85,0,1
212411,-71.4285714285714,4,2,2,85,0,1
213454,-71.4285714285714,4,2,1,85,0,1
216585,-71.4285714285714,4,2,2,85,0,1
217628,-71.4285714285714,4,2,1,85,0,1
220758,-71.4285714285714,4,2,2,85,0,1
221802,-71.4285714285714,4,2,1,85,0,1
224932,-71.4285714285714,4,2,2,85,0,1
225454,-250,4,2,2,85,0,0

[Colours]
Combo1 : 231,165,99
Combo2 : 187,189,121

[HitObjects]
7,244,63,6,0,P|9:263|11:297,1,42,2|0,0:1|0:0,0:0:0:0:
4,317,584,6,0,P|52:301|151:282,1,125.999996154785,8|2,3:1|0:0,0:0:0:0:
167,281,1106,1,0,3:0:0:0:
224,363,1367,1,2,0:0:0:0:
325,358,1628,1,8,3:1:0:0:
325,358,2149,6,0,P|361:311|345:226,1,125.999996154785,2|0,3:2|0:0,0:0:0:0:
304,181,2671,2,0,P|328:171|366:168,1,41.9999987182618,8|0,3:1|0:0,0:0:0:0:
363,58,2932,2,0,P|383:81|393:107,1,41.9999987182618,0|2,0:0|0:0,0:0:0:0:
297,98,3193,2,0,P|237:73|163:52,1,125.999996154785,0|0,3:0|0:0,0:0:0:0:
119,7,3715,2,0,P|78:35|69:133,1,125.999996154785,8|0,3:1|0:0,0:0:0:0:
59,106,4236,6,0,P|57:134|55:159,1,42,2|0,3:2|0:0,0:0:0:0:
8,209,4758,2,0,P|24:248|32:282,1,41.9999987182618,8|0,3:1|0:0,0:0:0:0:
107,253,5019,2,0,P|91:286|86:312,1,41.9999987182618,0|2,0:0|0:0,0:0:0:0:
50,355,5280,1,0,3:0:0:0:
172,337,5541,1,2,0:0:0:0:
248,135,5802,1,8,3:1:0:0:
322,62,6063,1,0,0:0:0:0:
420,92,6323,5,2,3:2:0:0:
420,92,6845,1,8,3:1:0:0:
420,92,7236,2,0,P|432:134|436:182,1,83.9999974365235,2|0,0:0|0:0,0:0:0:0:
436,174,7628,2,0,P|419:188|398:199,1,41.9999987182618,2|0,0:0|0:0,0:0:0:0:
328,223,7889,5,8,3:1:0:0:
297,230,8019,1,2,0:0:0:0:
241,285,8149,5,8,0:1:0:0:
211,277,8280,1,0,0:0:0:0:
151,322,8410,6,0,P|121:330|102:336,1,42,2|0,0:1|0:0,0:0:0:0:
42,293,8932,6,0,B|33:251|33:251|39:205,1,83.9999974365235,8|0,3:1|0:0,0:0:0:0:
66,180,9323,1,2,0:0:0:0:
40,157,9454,2,0,B|45:116|45:116|36:74,1,83.9999974365235,0|2,3:0|0:0,0:0:0:0:
152,32,9976,2,0,P|209:16|293:-5,1,125.999996154785,8|2,3:1|0:0,0:0:0:0:
274,0,10497,6,0,P|319:16|362:29,1,83.9999974365235,2|0,3:2|0:0,0:0:0:0:
482,208,11019,2,0,P|465:187|475:164,1,41.9999987182618,8|0,3:1|0:0,0:0:0:0:
442,126,11280,2,0,P|459:130|473:169,1,41.9999987182618,0|2,0:0|0:0,0:0:0:0:
462,162,11541,2,0,P|405:154|344:140,1,83.9999974365235,0|2,3:0|0:0,0:0:0:0:
163,124,12063,1,8,3:1:0:0:
141,137,12193,1,2,0:0:0:0:
116,215,12323,1,0,0:0:0:0:
130,244,12454,1,0,0:0:0:0:
205,271,12584,5,2,3:2:0:0:
205,271,13106,2,0,P|258:261|322:251,1,83.9999974365235,8|0,3:1|0:0,0:0:0:0:
332,194,13497,2,0,P|370:224|412:256,1,83.9999974365235,2|0,0:0|0:0,0:0:0:0:
409,323,13889,2,0,P|434:310|459:295,1,41.9999987182618,2|0,0:0|0:0,0:0:0:0:
500,245,14149,2,0,P|493:194|486:138,1,83.9999974365235,8|0,3:1|0:0,0:0:0:0:
472,145,14541,1,2,0:0:0:0:
493,124,14671,5,2,3:2:0:0:
285,7,15193,1,8,3:1:0:0:
109,54,15584,1,2,0:0:0:0:
36,204,15976,1,2,0:0:0:0:
84,344,16236,1,8,3:1:0:0:
78,352,16367,1,2,0:0:0:0:
68,352,16497,1,8,0:1:0:0:
65,359,16628,1,0,0:0:0:0:
55,359,16758,5,0,3:0:0:0:
504,230,25106,6,0,P|500:199|498:176,1,42,2|0,0:1|0:0,0:0:0:0:
504,162,25628,6,0,P|481:154|452:143,1,41.9999987182618,8|0,3:1|0:0,0:0:0:0:
394,117,25889,2,0,P|371:109|342:98,1,41.9999987182618,2|2,0:3|0:0,0:0:0:0:
286,69,26149,1,0,3:0:0:0:
167,232,26410,1,2,0:0:0:0:
309,193,26671,1,8,3:1:0:0:
131,98,26932,1,0,0:0:0:0:
41,271,27193,1,2,3:2:0:0:
41,271,27715,5,8,3:1:0:0:
123,314,27976,1,2,0:3:0:0:
202,268,28236,1,0,3:0:0:0:
118,222,28497,1,2,0:0:0:0:
41,271,28758,1,8,3:1:0:0:
123,314,29019,1,0,0:0:0:0:
202,268,29280,6,0,P|196:212|188:131,1,125.999996154785,2|0,3:2|0:0,0:0:0:0:
163,72,29802,2,0,B|192:44|192:44|247:55,1,83.9999974365235,8|2,3:1|0:3,0:0:0:0:
249,65,30193,1,2,0:0:0:0:
274,47,30323,2,0,B|316:38|316:38|345:66,1,83.9999974365235,0|2,3:0|0:0,0:0:0:0:
351,89,30715,1,0,0:0:0:0:
376,90,30845,2,0,B|416:103|416:103|427:141,1,83.9999974365235,8|0,3:1|0:0,0:0:0:0:
421,159,31236,1,2,0:0:0:0:
443,170,31367,6,0,B|471:201|471:201|461:239,1,83.9999974365235,2|2,3:2|0:3,0:0:0:0:
460,241,31889,2,0,P|400:229|358:222,1,83.9999974365235,8|2,3:1|0:3,0:0:0:0:
387,146,32280,2,0,P|340:158|284:175,1,83.9999974365235,2|0,0:0|0:0,0:0:0:0:
309,245,32671,2,0,P|282:238|257:233,1,41.9999987182618,2|0,0:0|0:0,0:0:0:0:
242,251,32932,6,0,P|174:235|64:209,1,167.999994873047,10|2,3:1|0:1,0:0:0:0:
78,212,33976,2,0,P|124:206|141:202,1,41.9999987182618,8|0,3:1|0:0,0:0:0:0:
137,127,34236,2,0,P|159:140|178:154,1,41.9999987182618,2|2,0:3|0:0,0:0:0:0:
153,282,34497,2,0,P|191:258|241:233,1,83.9999974365235,0|2,3:0|0:0,0:0:0:0:
372,201,35019,2,0,P|403:260|377:313,1,125.999996154785,8|2,3:1|0:0,0:0:0:0:
325,367,35541,6,0,P|297:353|231:342,1,83.9999974365235,2|2,3:2|0:3,0:0:0:0:
51,348,36063,2,0,P|67:354|90:362,1,41.9999987182618,8|0,3:1|0:0,0:0:0:0:
108,344,36323,2,0,P|87:351|60:359,1,41.9999987182618,2|2,0:3|0:0,0:0:0:0:
20,295,36584,2,0,P|40:309|75:328,1,41.9999987182618,0|0,3:0|0:0,0:0:0:0:
131,244,36845,2,0,P|116:266|92:281,1,41.9999987182618,2|0,0:0|0:0,0:0:0:0:
21,211,37106,1,8,3:1:0:0:
29,216,37236,1,2,0:0:0:0:
38,210,37367,1,0,0:0:0:0:
37,201,37497,1,0,0:0:0:0:
28,193,37628,6,0,P|56:231|157:230,1,125.999996154785,2|0,3:2|0:0,0:0:0:0:
214,287,38149,2,0,P|210:260|198:237,1,41.9999987182618,8|0,3:1|0:0,0:0:0:0:
300,202,38410,2,0,P|275:192|236:189,1,41.9999987182618,2|2,0:3|0:0,0:0:0:0:
278,93,38671,2,0,P|252:101|232:126,1,41.9999987182618,0|0,3:0|0:0,0:0:0:0:
160,56,38932,2,0,P|160:85|172:102,1,41.9999987182618,2|0,0:0|0:0,0:0:0:0:
137,170,39193,2,0,P|79:155|-3:136,1,125.999996154785,8|2,3:1|0:0,0:0:0:0:
12,155,39715,6,0,P|54:131|90:108,1,83.9999974365235,2|2,3:2|0:3,0:0:0:0:
0,137,40236,2,0,P|43:175|75:214,1,83.9999974365235,8|2,3:1|0:3,0:0:0:0:
137,171,40628,2,0,P|168:131|210:109,1,83.9999974365235,2|0,0:0|0:0,0:0:0:0:
253,58,41019,2,0,P|295:73|315:76,1,41.9999987182618,2|0,0:0|0:0,0:0:0:0:
357,118,41280,6,0,B|369:108|369:108|386:109|386:109|393:99|393:99|403:93|403:93|411:107|411:107|429:105|429:105|437:93|437:93|452:96|452:96|471:83|471:83|487:87|487:87|513:79,1,167.999994873047,10|0,3:1|3:0,0:0:0:0:
43,342,49628,6,0,L|64:346,2,14,8|0|8,3:1|0:0|0:0,0:0:0:0:
34,350,50149,6,0,P|27:324|19:292,1,48.9999985046387,2|2,3:2|0:2,0:0:0:0:
38,301,50410,2,0,P|31:324|25:348,1,48.9999985046387,2|2,0:3|0:2,0:0:0:0:
30,364,50671,1,8,3:1:0:0:
40,372,50802,1,0,0:0:0:0:
54,376,50932,1,2,0:3:0:0:
64,375,51063,1,2,0:2:0:0:
70,369,51193,2,0,P|70:339|26:368,1,97.9999970092774,0|2,3:0|2:0,0:0:0:0:
23,354,51715,6,0,P|126:339|174:334,1,146.999995513916,8|0,3:1|0:0,0:0:0:0:
172,344,52236,6,0,P|152:335|121:320,1,48.9999985046387,2|2,3:2|0:2,0:0:0:0:
108,312,52497,2,0,P|91:318|54:331,1,48.9999985046387,2|2,0:3|0:2,0:0:0:0:
54,335,52758,1,8,3:1:0:0:
42,326,52889,1,0,0:0:0:0:
37,310,53019,1,2,0:3:0:0:
41,297,53149,1,2,0:2:0:0:
51,287,53280,2,0,P|88:301|52:335,1,97.9999970092774,0|2,3:0|2:0,0:0:0:0:
51,333,53802,6,0,P|70:248|82:172,1,146.999995513916,8|0,3:1|0:0,0:0:0:0:
62,115,54323,6,0,P|73:69|87:48,1,48.9999985046387,2|2,3:2|0:2,0:0:0:0:
106,38,54584,2,0,P|129:27|166:26,1,48.9999985046387,2|2,0:3|0:2,0:0:0:0:
171,35,54845,5,8,3:1:0:0:
273,150,55106,5,2,0:3:0:0:
269,163,55236,1,2,0:2:0:0:
177,277,55497,5,2,0:2:0:0:
171,262,55627,1,2,2:2:0:0:
276,378,55889,6,0,P|301:372|339:366,1,48.9999985046387,8|2,3:1|0:2,0:0:0:0:
350,344,56149,2,0,P|367:352|406:372,1,48.9999985046387,2|2,0:2|0:2,0:0:0:0:
411,377,56410,6,0,P|419:308|431:210,1,146.999995513916,2|2,3:2|0:2,0:0:0:0:
451,147,56932,2,0,P|424:152|338:166,1,97.9999970092774,8|2,3:1|0:3,0:0:0:0:
296,216,57323,2,0,P|263:202|223:184,1,48.9999985046387,2|0,0:2|3:0,0:0:0:0:
296,216,57715,2,0,P|243:227|179:240,1,97.9999970092774,2|8,2:2|3:1,0:0:0:0:
131,189,58106,1,2,0:2:0:0:
115,155,58236,1,2,0:2:0:0:
100,122,58367,1,2,0:2:0:0:
86,90,58497,6,0,P|90:66|95:41,1,48.9999985046387,2|2,3:2|0:2,0:0:0:0:
85,43,58758,2,0,P|89:67|94:91,1,48.9999985046387,2|2,0:3|0:2,0:0:0:0:
99,105,59019,1,8,3:1:0:0:
109,106,59149,1,0,0:0:0:0:
116,103,59280,1,2,0:3:0:0:
121,98,59410,1,2,0:2:0:0:
125,88,59541,2,0,P|97:56|98:96,1,97.9999970092774,0|2,3:0|2:0,0:0:0:0:
95,97,60063,6,0,P|167:77|258:52,1,146.999995513916,8|0,3:1|0:0,0:0:0:0:
233,41,60584,6,0,P|202:30|161:16,1,48.9999985046387,2|2,3:2|0:2,0:0:0:0:
168,16,60845,2,0,P|148:25|114:39,1,48.9999985046387,2|2,0:3|0:2,0:0:0:0:
116,47,61106,2,0,P|67:32|9:18,1,97.9999970092774,8|2,3:1|0:3,0:0:0:0:
11,7,61497,1,2,0:2:0:0:
9,34,61628,2,0,P|16:93|21:152,1,97.9999970092774,0|2,3:0|2:0,0:0:0:0:
32,141,62149,6,0,P|23:224|14:308,1,146.999995513916,8|0,3:1|0:0,0:0:0:0:
58,358,62671,6,0,P|113:372|172:305,1,146.999995513916,2|2,3:2|0:2,0:0:0:0:
137,248,63193,5,8,3:1:0:0:
296,232,63454,5,2,0:3:0:0:
291,250,63584,1,2,0:2:0:0:
167,149,63845,5,2,0:2:0:0:
162,167,63975,1,2,2:2:0:0:
321,116,64236,5,8,3:1:0:0:
327,116,64367,1,2,0:2:0:0:
326,110,64497,1,2,0:2:0:0:
321,108,64628,1,2,0:2:0:0:
314,111,64758,5,2,3:2:0:0:
324,126,64889,1,2,0:2:0:0:
349,121,65019,1,2,0:3:0:0:
356,105,65149,1,2,0:2:0:0:
338,88,65280,2,0,P|313:104|329:181,1,97.9999970092774,8|2,3:1|0:3,0:0:0:0:
373,216,65671,2,0,P|436:187|440:152,1,97.9999970092774,2|2,0:2|0:2,0:0:0:0:
482,99,66063,2,0,P|464:79|420:74,1,48.9999985046387,2|0,2:2|0:0,0:0:0:0:
396,10,66323,2,0,P|373:22|361:54,1,48.9999985046387,8|2,3:1|0:2,0:0:0:0:
287,69,66584,2,0,P|307:103|332:113,1,48.9999985046387,2|2,0:2|0:2,0:0:0:0:
279,192,66845,6,0,P|319:187|359:180,1,48.9999985046387,2|2,3:2|0:2,0:0:0:0:
326,195,67106,2,0,L|271:178,1,48.9999985046387,2|2,0:3|0:2,0:0:0:0:
273,196,67367,2,0,P|352:185|407:177,1,97.9999970092774,8|2,3:1|0:3,0:0:0:0:
385,169,67758,1,2,0:2:0:0:
392,194,67889,2,0,P|343:187|294:180,1,97.9999970092774,0|2,3:0|2:0,0:0:0:0:
285,167,68410,6,0,P|303:246|323:339,1,146.999995513916,8|0,3:1|0:0,0:0:0:0:
326,329,68932,6,0,P|358:337|392:346,1,48.9999985046387,2|2,3:2|0:2,0:0:0:0:
378,328,69193,2,0,P|410:336|444:345,1,48.9999985046387,2|2,0:3|0:2,0:0:0:0:
448,358,69454,1,8,3:1:0:0:
452,365,69584,1,0,0:0:0:0:
449,369,69715,1,2,0:3:0:0:
442,366,69845,1,2,0:2:0:0:
440,358,69976,2,0,P|463:308|464:280,1,48.9999985046387,0|0,3:0|0:0,0:0:0:0:
463,293,70236,2,0,P|449:273|429:257,1,48.9999985046387,2|0,2:0|0:0,0:0:0:0:
358,296,70497,6,0,P|340:199|329:133,1,146.999995513916,8|0,3:1|0:0,0:0:0:0:
345,71,71019,6,0,P|288:88|203:113,1,146.999995513916,2|2,3:2|0:2,0:0:0:0:
144,168,71541,2,0,P|122:147|78:93,1,97.9999970092774,8|2,3:1|0:3,0:0:0:0:
78,82,71932,2,0,P|71:121|67:146,1,48.9999985046387,2|0,0:2|3:0,0:0:0:0:
243,197,72323,2,0,P|243:236|244:261,1,48.9999985046387,2|0,2:2|0:0,0:0:0:0:
212,281,72584,1,8,3:1:0:0:
197,312,72715,2,0,P|205:350|210:375,2,48.9999985046387,2|2|2,0:2|0:2|0:2,0:0:0:0:
176,292,73106,6,0,P|278:306|367:313,1,146.999995513916,2|2,3:2|0:2,0:0:0:0:
400,297,73628,2,0,P|457:307|503:315,1,97.9999970092774,8|2,3:1|0:3,0:0:0:0:
391,339,74019,2,0,P|439:330|487:322,1,97.9999970092774,2|2,0:2|0:2,0:0:0:0:
434,311,74410,2,0,P|463:314|497:318,1,48.9999985046387,2|0,2:2|0:0,0:0:0:0:
356,293,74671,1,8,3:1:0:0:
319,302,74802,1,2,0:2:0:0:
278,283,74932,1,2,0:2:0:0:
233,297,75063,1,2,0:2:0:0:
187,274,75193,6,0,P|175:289|165:334,1,48.9999985046387,2|2,3:2|0:2,0:0:0:0:
152,342,75454,2,0,P|182:370|224:381,1,48.9999985046387,2|2,0:3|0:2,0:0:0:0:
201,357,75715,1,8,3:1:0:0:
195,318,75845,1,0,0:0:0:0:
187,274,75976,1,2,0:3:0:0:
178,233,76106,1,2,0:2:0:0:
169,190,76236,2,0,P|110:177|54:170,1,97.9999970092774,0|2,3:0|2:0,0:0:0:0:
56,179,76758,6,0,P|113:155|214:73,1,146.999995513916,8|0,3:1|0:0,0:0:0:0:
143,24,77280,6,0,P|196:33|214:37,1,48.9999985046387,2|2,3:2|0:2,0:0:0:0:
186,10,77541,2,0,P|164:27|145:54,1,48.9999985046387,2|2,0:3|0:2,0:0:0:0:
253,79,77802,2,0,B|285:55|270:27|279:60|299:126,1,97.9999970092774,8|2,3:1|0:3,0:0:0:0:
301,125,78193,1,2,0:2:0:0:
297,142,78323,2,0,P|351:113|403:84,1,97.9999970092774,0|2,3:0|2:0,0:0:0:0:
383,95,78845,6,0,P|416:115|439:128,1,48.9999985046387,8|0,3:1|0:0,0:0:0:0:
507,108,79106,2,0,P|497:138|486:168,1,48.9999985046387
508,234,79367,5,2,3:2:0:0:
493,244,79497,1,2,0:2:0:0:
477,260,79628,1,2,0:3:0:0:
466,275,79758,1,2,0:2:0:0:
458,321,79889,5,8,3:1:0:0:
282,363,80149,5,2,0:3:0:0:
277,346,80280,1,2,0:2:0:0:
352,203,80541,5,2,0:2:0:0:
350,222,80671,1,2,2:2:0:0:
213,252,80932,5,8,3:1:0:0:
194,245,81063,1,2,0:2:0:0:
173,248,81193,1,2,0:2:0:0:
149,239,81323,1,2,0:2:0:0:
130,248,81454,5,2,3:2:0:0:
172,237,81584,1,2,0:2:0:0:
205,258,81715,1,2,0:3:0:0:
247,243,81845,1,2,0:2:0:0:
278,266,81976,5,8,3:1:0:0:
199,153,82236,2,0,P|190:117|185:100,1,48.9999985046387,2|2,0:3|0:2,0:0:0:0:
273,322,82628,2,0,P|269:286|270:267,2,48.9999985046387,2|2|0,0:2|2:2|0:0,0:0:0:0:
284,342,83019,2,0,P|342:350|363:354,1,48.9999985046387,8|2,3:1|0:2,0:0:0:0:
393,302,83280,2,0,P|426:321|443:337,1,48.9999985046387,2|2,0:2|0:2,0:0:0:0:
494,375,83541,5,2,0:2:0:0:
501,360,84063,1,2,0:2:0:0:
479,347,84454,1,2,0:2:0:0:
494,327,84845,1,2,0:2:0:0:
472,311,85236,1,2,0:2:0:0:
486,292,85497,5,2,0:2:0:0:
464,275,85628,1,2,0:2:0:0:
477,254,86149,5,2,0:2:0:0:
453,245,86541,1,2,0:2:0:0:
467,229,86932,1,2,0:2:0:0:
441,221,87323,1,2,0:2:0:0:
456,199,87715,5,2,0:2:0:0:
430,185,88236,1,2,0:2:0:0:
444,163,88628,1,2,0:2:0:0:
416,149,89019,1,2,0:2:0:0:
434,128,89410,1,2,0:2:0:0:
408,117,89671,5,2,0:2:0:0:
425,93,89802,1,2,0:2:0:0:
391,84,90323,5,2,0:2:0:0:
413,65,90715,1,2,0:2:0:0:
378,56,91106,1,2,0:2:0:0:
392,37,91497,1,2,0:2:0:0:
362,25,91889,6,0,P|333:17|299:8,1,48.9999985046387,0|0,3:0|0:0,0:0:0:0:
246,9,92149,2,0,P|222:15|198:21,1,48.9999985046387
158,81,92410,2,0,P|163:120|166:143,1,48.9999985046387,10|0,3:1|0:0,0:0:0:0:
172,203,92671,2,0,P|144:215|109:230,1,48.9999985046387,0|2,0:0|0:1,0:0:0:0:
62,261,92932,2,0,P|34:257|-5:247,1,48.9999985046387,0|0,3:0|0:0,0:0:0:0:
13,252,93454,6,0,P|37:257|62:261,1,48.9999985046387,8|2,3:1|0:1,0:0:0:0:
13,269,93715,2,0,P|37:265|61:260,1,48.9999985046387
140,277,93976,2,0,P|164:273|188:268,1,48.9999985046387,0|0,3:0|0:0,0:0:0:0:
160,289,94236,2,0,P|164:265|169:241,1,48.9999985046387
231,334,94497,2,0,P|255:330|279:325,1,48.9999985046387,10|0,3:1|0:0,0:0:0:0:
279,248,94758,2,0,P|303:244|327:239,1,48.9999985046387,0|2,0:0|0:1,0:0:0:0:
311,260,95019,2,0,P|296:239|282:218,1,48.9999985046387,0|0,3:0|0:0,0:0:0:0:
394,117,95280,2,0,P|385:144|375:176,1,48.9999985046387,2|0,0:1|0:0,0:0:0:0:
415,238,95541,2,0,P|406:265|396:297,1,48.9999985046387,8|2,3:1|0:1,0:0:0:0:
321,310,95802,2,0,P|312:337|302:369,1,48.9999985046387
231,369,96063,5,0,3:0:0:0:
231,369,96323,1,0,0:0:0:0:
231,369,96584,2,0,P|197:360|163:352,1,48.9999985046387,10|0,3:1|0:0,0:0:0:0:
114,319,96845,2,0,P|110:271|109:252,1,48.9999985046387,0|2,0:0|0:1,0:0:0:0:
143,201,97106,2,0,P|173:176|202:149,1,48.9999985046387,0|0,3:0|0:0,0:0:0:0:
138,177,97367,2,0,P|171:183|206:189,1,48.9999985046387,2|0,0:1|0:0,0:0:0:0:
246,118,97628,6,0,P|231:64|226:48,1,48.9999985046387,8|2,3:1|0:1,0:0:0:0:
242,52,97889,2,0,P|249:84|256:120,1,48.9999985046387
158,100,98149,2,0,P|126:88|97:78,1,48.9999985046387,0|0,3:0|0:0,0:0:0:0:
47,42,98410,2,0,P|21:52|-7:60,1,48.9999985046387
9,174,98671,2,0,P|17:209|29:249,1,48.9999985046387,10|0,3:1|0:0,0:0:0:0:
35,230,98932,2,0,P|44:202|54:165,1,48.9999985046387,0|2,0:0|0:1,0:0:0:0:
34,158,99193,5,0,0:0:0:0:
34,158,99715,5,0,0:0:0:0:
34,158,100236,6,0,P|59:155|79:151,1,42,2|0,0:1|0:0,0:0:0:0:
126,90,100758,6,0,P|181:97|201:142,1,83.9999974365235,8|2,3:1|0:3,0:0:0:0:
205,152,101149,1,2,0:0:0:0:
188,181,101280,2,0,P|180:228|211:272,1,83.9999974365235,0|2,3:0|0:0,0:0:0:0:
309,323,101802,2,0,P|349:305|398:301,1,83.9999974365235,8|0,3:1|0:0,0:0:0:0:
412,316,102193,1,2,0:0:0:0:
436,310,102323,1,2,3:2:0:0:
436,310,102845,6,0,P|406:299|382:289,1,41.9999987182618,8|0,3:1|0:0,0:0:0:0:
344,240,103106,2,0,P|314:229|290:219,1,41.9999987182618,2|2,0:3|0:0,0:0:0:0:
227,219,103367,2,0,P|197:208|173:198,1,41.9999987182618,0|0,3:0|0:0,0:0:0:0:
148,139,103628,2,0,P|118:128|94:118,1,41.9999987182618,2|0,0:0|0:0,0:0:0:0:
34,111,103889,6,0,P|81:98|221:57,1,167.999994873047,8|2,3:1|3:2,0:0:0:0:
358,0,104671,2,0,P|362:27|365:59,1,41.9999987182618,2|0,0:3|0:0,0:0:0:0:
498,64,104932,2,0,P|471:27|423:14,1,83.9999974365235,8|2,3:1|0:3,0:0:0:0:
373,56,105323,1,2,0:0:0:0:
500,68,105454,2,0,P|447:94|426:125,1,83.9999974365235,0|2,3:0|0:0,0:0:0:0:
474,176,105845,1,0,0:0:0:0:
359,157,105976,2,0,P|368:177|380:212,1,41.9999987182618,8|2,3:1|0:0,0:0:0:0:
361,195,106236,2,0,P|369:172|380:148,1,41.9999987182618,0|2,0:0|0:0,0:0:0:0:
441,253,106497,6,0,P|422:303|326:324,1,125.999996154785,2|0,3:2|0:0,0:0:0:0:
251,339,107019,2,0,P|261:333|294:322,1,41.9999987182618,8|0,3:1|0:0,0:0:0:0:
291,334,107280,1,2,0:3:0:0:
271,344,107410,2,0,P|257:328|239:318,2,41.9999987182618,2|0|0,0:0|3:0|0:0,0:0:0:0:
222,325,107802,1,2,0:0:0:0:
222,325,108063,6,0,B|206:328|206:328|191:338|191:338|176:334|176:334|162:341|162:341|146:338|146:338|129:348|129:348|110:344|110:344|90:349,1,125.999996154785,10|0,3:1|0:0,0:0:0:0:
27,370,108584,6,0,P|31:342|35:318,1,42,2|0,0:1|0:0,0:0:0:0:
76,261,109106,2,0,P|63:213|18:192,1,83.9999974365235,8|2,3:1|0:3,0:0:0:0:
23,202,109497,1,2,0:0:0:0:
23,202,109628,2,0,P|73:188|95:142,1,83.9999974365235,0|2,3:0|0:0,0:0:0:0:
104,27,110149,2,0,P|148:41|236:67,1,125.999996154785,8|2,3:1|0:0,0:0:0:0:
272,122,110671,6,0,P|301:80|331:31,1,83.9999974365235,2|2,3:2|0:3,0:0:0:0:
318,52,111193,2,0,P|325:90|330:114,1,41.9999987182618,8|0,3:1|0:0,0:0:0:0:
352,107,111454,2,0,P|359:145|364:169,1,41.9999987182618,2|2,0:3|0:0,0:0:0:0:
297,188,111715,2,0,P|304:226|309:250,1,41.9999987182618,0|0,3:0|0:0,0:0:0:0:
382,223,111976,2,0,P|375:261|370:285,1,41.9999987182618,2|0,0:0|0:0,0:0:0:0:
307,304,112236,2,0,P|370:315|470:330,1,125.999996154785,8|0,3:1|0:0,0:0:0:0:
492,280,112758,6,0,P|485:210|478:134,1,125.999996154785,2|0,3:2|0:0,0:0:0:0:
462,78,113280,2,0,P|414:86|383:120,1,83.9999974365235,8|2,3:1|0:3,0:0:0:0:
367,182,113671,1,2,0:0:0:0:
301,229,113802,2,0,P|262:215|254:126,1,125.999996154785,0|0,3:0|0:0,0:0:0:0:
270,32,114323,2,0,P|297:47|307:110,1,83.9999974365235,8|0,3:1|0:0,0:0:0:0:
245,139,114715,1,2,0:0:0:0:
176,78,114845,6,0,P|180:61|187:27,1,41.9999987182618,2|0,3:2|0:0,0:0:0:0:
176,78,115367,2,0,P|172:61|165:27,1,41.9999987182618,8|0,3:1|0:0,0:0:0:0:
176,78,115758,2,0,P|180:61|187:27,1,41.9999987182618,2|0,0:0|3:0,0:0:0:0:
176,78,116149,2,0,P|172:61|165:27,1,41.9999987182618,2|0,0:0|0:0,0:0:0:0:
176,78,116410,2,0,P|172:192|169:251,1,167.999994873047,10|0,3:1|3:0,0:0:0:0:
455,46,124758,6,0,P|466:47|477:49,2,14,8|0|8,3:1|0:0|0:0,0:0:0:0:
453,44,125280,6,0,P|464:106|466:134,1,48.9999985046387,2|2,3:2|0:2,0:0:0:0:
390,119,125541,2,0,P|381:163|376:198,1,48.9999985046387,2|2,0:3|0:2,0:0:0:0:
488,207,125802,1,8,3:1:0:0:
473,246,125932,1,0,0:0:0:0:
436,230,126063,1,2,0:3:0:0:
454,195,126193,1,2,0:2:0:0:
488,207,126323,2,0,P|481:267|469:358,1,146.999995513916,0|0,3:0|0:0,0:0:0:0:
469,352,126845,6,0,P|443:288|409:219,1,146.999995513916,8|0,3:1|0:0,0:0:0:0:
342,179,127367,6,0,P|348:147|353:109,1,48.9999985046387,2|2,3:2|0:2,0:0:0:0:
457,140,127628,2,0,P|449:88|447:66,1,48.9999985046387,2|2,0:3|0:2,0:0:0:0:
369,22,127889,1,8,3:1:0:0:
369,22,128019,1,0,0:0:0:0:
330,33,128149,1,2,0:3:0:0:
330,33,128280,1,2,0:2:0:0:
330,33,128410,2,0,P|283:64|210:167,1,146.999995513916,0|0,3:0|0:0,0:0:0:0:
239,209,128932,2,0,P|203:202|168:193,1,48.9999985046387,8|0,3:1|0:0,0:0:0:0:
238,198,129193,2,0,P|203:208|169:225,1,48.9999985046387
118,257,129454,6,0,P|102:184|86:74,1,146.999995513916,2|2,3:2|0:2,0:0:0:0:
31,69,129976,6,0,P|36:35|39:0,1,48.9999985046387,8|0,3:1|0:0,0:0:0:0:
195,135,130367,6,0,P|186:103|174:65,1,48.9999985046387,2|0,0:2|3:0,0:0:0:0:
39,237,130758,6,0,P|46:195|53:157,1,48.9999985046387,2|0,2:2|0:0,0:0:0:0:
120,270,131019,2,0,P|160:285|193:295,1,48.9999985046387,8|2,3:1|0:2,0:0:0:0:
157,262,131280,2,0,P|149:290|137:336,1,48.9999985046387,2|2,0:2|0:2,0:0:0:0:
21,337,131541,5,2,3:2:0:0:
18,329,131671,1,2,0:2:0:0:
22,323,131802,1,2,0:3:0:0:
32,325,131932,1,2,0:2:0:0:
35,337,132063,5,8,3:1:0:0:
132,359,132323,5,2,0:3:0:0:
132,359,132454,1,2,0:2:0:0:
230,335,132715,5,2,0:2:0:0:
230,335,132845,1,2,2:2:0:0:
230,335,132976,1,0,0:0:0:0:
297,298,133106,1,8,3:1:0:0:
363,340,133236,1,2,0:2:0:0:
421,310,133367,1,2,0:2:0:0:
452,330,133497,1,2,0:2:0:0:
480,314,133628,6,0,P|472:264|470:253,1,48.9999985046387,2|2,3:2|0:2,0:0:0:0:
377,207,133889,2,0,P|371:237|366:263,1,48.9999985046387,2|2,0:3|0:2,0:0:0:0:
485,162,134149,2,0,P|467:146|429:136,1,48.9999985046387,8|0,3:1|0:0,0:0:0:0:
448,160,134410,2,0,P|466:127|474:101,1,48.9999985046387,2|2,0:3|0:2,0:0:0:0:
455,22,134671,2,0,B|396:2|372:63|296:37,1,146.999995513916,0|0,3:0|0:0,0:0:0:0:
251,1,135193,6,0,P|186:17|67:40,1,146.999995513916,8|0,3:1|0:0,0:0:0:0:
36,67,135715,5,2,3:2:0:0:
38,94,135845,1,2,0:2:0:0:
69,103,135976,1,2,0:3:0:0:
76,127,136106,1,2,0:2:0:0:
44,146,136236,1,8,3:1:0:0:
39,176,136367,1,0,0:0:0:0:
77,191,136497,1,2,0:3:0:0:
76,218,136628,1,2,0:2:0:0:
41,234,136758,5,0,3:0:0:0:
40,264,137019,5,2,2:0:0:0:
75,279,137280,5,8,3:1:0:0:
74,311,137541,5,0,0:0:0:0:
41,330,137802,5,2,3:2:0:0:
66,369,137932,1,2,0:2:0:0:
119,373,138063,1,2,0:3:0:0:
162,351,138193,1,2,0:2:0:0:
173,306,138323,5,8,3:1:0:0:
234,151,138584,5,2,0:3:0:0:
234,151,138715,1,2,0:2:0:0:
336,299,138976,5,2,0:2:0:0:
336,299,139106,1,2,2:2:0:0:
336,299,139236,1,0,0:0:0:0:
336,299,139367,1,8,3:1:0:0:
370,298,139497,1,2,0:2:0:0:
410,312,139628,1,2,0:2:0:0:
449,304,139758,1,2,0:2:0:0:
489,322,139889,6,0,P|456:333|411:345,1,48.9999985046387,2|2,3:2|0:2,0:0:0:0:
430,225,140149,2,0,P|401:218|359:213,1,48.9999985046387,2|2,0:3|0:2,0:0:0:0:
297,220,140410,2,0,P|273:270|258:319,1,97.9999970092774,8|2,3:1|0:3,0:0:0:0:
260,310,140802,2,0,P|271:340|274:375,1,48.9999985046387,2|0,0:2|3:0,0:0:0:0:
104,263,141193,2,0,P|126:242|164:236,1,48.9999985046387,2|0,2:2|0:0,0:0:0:0:
143,236,141454,6,0,P|78:219|-3:205,1,146.999995513916,8|2,3:1|0:2,0:0:0:0:
1,216,141976,6,0,P|25:200|31:177,1,48.9999985046387,2|2,3:2|0:2,0:0:0:0:
129,123,142236,2,0,P|114:102|81:92,1,48.9999985046387,2|2,0:3|0:2,0:0:0:0:
2,89,142497,1,8,3:1:0:0:
134,202,142758,1,2,0:3:0:0:
177,186,142889,1,2,0:2:0:0:
217,203,143019,1,0,3:0:0:0:
325,136,143280,1,2,2:0:0:0:
440,187,143541,6,0,P|430:236|411:339,1,146.999995513916,8|0,3:1|0:0,0:0:0:0:
404,348,144063,6,0,P|441:344|479:342,1,48.9999985046387,2|2,3:2|0:2,0:0:0:0:
286,286,144323,2,0,P|307:297|341:322,1,48.9999985046387,2|2,0:3|0:2,0:0:0:0:
183,369,144584,2,0,P|216:360|239:349,1,48.9999985046387,8|0,3:1|0:0,0:0:0:0:
194,240,144845,1,2,0:3:0:0:
180,253,144976,1,2,0:2:0:0:
147,246,145106,1,0,3:0:0:0:
126,197,145236,1,0,0:0:0:0:
160,154,145367,1,2,2:0:0:0:
209,160,145497,1,0,0:0:0:0:
242,204,145628,6,0,P|294:236|398:234,1,146.999995513916,8|0,3:1|0:0,0:0:0:0:
452,177,146149,5,2,3:2:0:0:
411,157,146280,1,2,0:2:0:0:
395,116,146410,1,2,0:3:0:0:
408,74,146541,1,2,0:2:0:0:
449,52,146671,6,0,P|462:83|470:114,1,48.9999985046387,8|0,3:1|0:0,0:0:0:0:
299,51,147063,6,0,P|315:30|344:13,1,48.9999985046387,2|0,0:2|3:0,0:0:0:0:
208,137,147454,6,0,P|236:157|252:181,1,48.9999985046387,2|0,2:2|0:0,0:0:0:0:
213,172,147715,2,0,P|235:150|263:144,1,48.9999985046387,8|2,3:1|0:2,0:0:0:0:
106,153,147976,2,0,P|123:162|145:193,1,48.9999985046387,2|2,0:2|0:2,0:0:0:0:
122,298,148236,5,2,3:2:0:0:
85,289,148367,1,2,0:2:0:0:
46,296,148497,1,2,0:3:0:0:
24,328,148628,1,2,0:2:0:0:
21,369,148758,6,0,P|61:373|86:381,1,48.9999985046387,8|0,3:1|0:0,0:0:0:0:
145,225,149149,6,0,P|175:249|194:287,1,48.9999985046387,2|0,0:2|3:0,0:0:0:0:
327,194,149541,6,0,P|329:236|315:265,1,48.9999985046387,2|0,2:2|0:0,0:0:0:0:
282,337,149802,1,8,3:1:0:0:
273,315,149932,1,2,0:2:0:0:
372,309,150063,1,2,0:2:0:0:
367,335,150193,1,2,0:2:0:0:
492,329,150323,6,0,P|481:294|476:270,1,48.9999985046387,2|2,3:2|0:2,0:0:0:0:
486,291,150584,2,0,P|476:326|472:354,1,48.9999985046387,2|2,0:3|0:2,0:0:0:0:
467,358,150845,1,8,3:1:0:0:
460,326,150976,1,0,0:0:0:0:
452,299,151106,1,2,0:3:0:0:
444,264,151236,1,2,0:2:0:0:
436,231,151367,2,0,B|460:209|476:263|438:293|412:202|325:270,1,146.999995513916,0|0,3:0|0:0,0:0:0:0:
302,320,151889,6,0,P|295:256|266:140,1,146.999995513916,8|0,3:1|0:0,0:0:0:0:
206,77,152410,6,0,P|167:89|142:96,1,48.9999985046387,2|2,3:2|0:2,0:0:0:0:
202,89,152671,2,0,L|145:68,1,48.9999985046387,2|2,0:3|0:2,0:0:0:0:
138,93,152932,2,0,P|227:79|263:70,1,97.9999970092774,8|2,3:1|0:3,0:0:0:0:
253,59,153323,2,0,P|299:72|350:88,1,97.9999970092774,2|0,0:2|0:0,0:0:0:0:
376,107,153715,2,0,P|407:104|432:101,1,48.9999985046387,2|0,2:0|0:0,0:0:0:0:
435,28,153976,2,0,P|470:39|492:48,1,48.9999985046387,8|0,3:1|0:0,0:0:0:0:
441,176,154236,2,0,P|476:166|509:154,1,48.9999985046387
397,102,154497,5,2,3:2:0:0:
365,115,154628,1,2,0:2:0:0:
334,105,154758,1,2,0:3:0:0:
307,122,154889,1,2,0:2:0:0:
271,108,155019,5,8,3:1:0:0:
82,154,155279,5,2,0:3:0:0:
77,137,155410,1,2,0:2:0:0:
194,65,155671,5,2,0:2:0:0:
192,87,155802,1,2,2:2:0:0:
190,110,155932,1,0,0:0:0:0:
188,133,156063,1,8,3:1:0:0:
140,99,156193,1,2,0:2:0:0:
101,55,156323,1,2,0:2:0:0:
59,65,156454,1,2,0:2:0:0:
18,79,156584,5,2,3:2:0:0:
30,86,156715,1,2,0:2:0:0:
41,93,156845,1,2,0:3:0:0:
52,100,156976,1,2,0:2:0:0:
65,106,157106,5,8,3:1:0:0:
101,88,157236,1,0,0:0:0:0:
138,66,157367,1,2,0:3:0:0:
173,45,157497,1,2,0:2:0:0:
209,23,157628,5,0,3:0:0:0:
217,29,157758,1,2,0:2:0:0:
226,37,157889,1,2,2:2:0:0:
236,43,158019,1,0,0:0:0:0:
244,50,158149,5,8,3:1:0:0:
240,82,158280,1,2,0:2:0:0:
232,120,158410,1,2,0:2:0:0:
227,158,158541,1,2,0:2:0:0:
219,193,158671,5,2,3:2:0:0:
219,193,159193,2,0,L|279:173,1,48.9999985046387,2|0,0:1|0:0,0:0:0:0:
266,176,159584,2,0,L|288:236,1,48.9999985046387,2|0,0:1|0:0,0:0:0:0:
288,223,159976,2,0,L|271:277,1,48.9999985046387,2|0,0:1|0:0,0:0:0:0:
281,271,160367,2,0,L|235:306,1,48.9999985046387,2|0,0:1|0:0,0:0:0:0:
121,290,160758,6,0,B|104:253|129:245|155:326,1,97.9999970092774,2|0,3:2|0:0,0:0:0:0:
154,324,161280,2,0,L|90:348,1,48.9999985046387,2|0,0:1|0:0,0:0:0:0:
155,322,161671,2,0,L|214:346,1,48.9999985046387,2|0,0:1|0:0,0:0:0:0:
155,322,162063,2,0,L|105:356,1,48.9999985046387,2|0,0:1|0:0,0:0:0:0:
158,323,162454,2,0,L|203:361,1,48.9999985046387,2|0,0:1|0:0,0:0:0:0:
195,354,162845,6,0,B|240:354|232:323|223:279|252:286|280:327,1,97.9999970092774,2|0,3:2|0:0,0:0:0:0:
258,302,163367,2,0,L|326:283,1,48.9999985046387,2|0,0:1|0:0,0:0:0:0:
307,282,163758,2,0,L|369:304,1,48.9999985046387,2|0,0:1|0:0,0:0:0:0:
361,305,164149,2,0,L|417:289,1,48.9999985046387,2|0,0:1|0:0,0:0:0:0:
410,278,164541,2,0,L|463:301,2,48.9999985046387,2|0|0,0:1|0:0|0:0,0:0:0:0:
401,272,164932,2,0,P|390:210|368:90,1,146.999995513916,2|8,3:2|0:0,0:0:0:0:
317,75,165454,2,0,B|328:42|328:42|409:35|409:35|445:76,1,146.999995513916,10|0,0:1|0:0,0:0:0:0:
437,70,165976,1,4,0:3:0:0:
375,127,166106,1,4,0:3:0:0:
351,275,166367,1,4,0:3:0:0:
278,306,166497,2,0,L|269:248,1,48.9999985046387,8|0,0:0|0:0,0:0:0:0:
267,252,166758,2,0,L|261:316,1,48.9999985046387,8|0,0:0|0:0,0:0:0:0:
229,185,167019,5,2,3:2:0:0:
242,171,167149,1,2,0:2:0:0:
226,145,167280,1,2,0:3:0:0:
249,134,167410,1,2,0:2:0:0:
220,59,167541,5,8,3:1:0:0:
202,40,167671,1,2,0:2:0:0:
168,38,167802,1,2,0:3:0:0:
143,56,167932,1,2,0:2:0:0:
57,22,168063,5,2,3:2:0:0:
68,55,168193,1,2,0:2:0:0:
67,84,168323,1,2,0:2:0:0:
101,124,168454,1,2,0:2:0:0:
183,23,168584,5,10,3:1:0:0:
197,63,168715,1,2,0:2:0:0:
209,108,168845,1,2,0:2:0:0:
214,146,168976,1,2,0:2:0:0:
186,224,169106,5,2,3:2:0:0:
197,259,169236,1,2,0:2:0:0:
177,291,169367,1,2,0:3:0:0:
195,326,169497,1,2,0:2:0:0:
289,254,169628,5,8,3:1:0:0:
286,278,169758,1,0,0:2:0:0:
299,292,169889,1,0,0:3:0:0:
294,317,170019,1,2,0:2:0:0:
387,268,170149,5,2,3:2:0:0:
387,279,170280,1,0,0:2:0:0:
396,284,170410,1,2,0:2:0:0:
393,295,170541,1,0,0:2:0:0:
491,210,170671,5,8,3:1:0:0:
477,243,170802,1,2,0:1:0:0:
496,276,170932,1,0,0:2:0:0:
475,311,171063,1,0,0:2:0:0:
485,353,171193,5,2,3:2:0:0:
501,313,171323,1,2,0:2:0:0:
473,266,171454,1,2,0:3:0:0:
490,216,171584,1,2,0:2:0:0:
455,182,171715,5,8,3:1:0:0:
470,161,171845,1,2,0:2:0:0:
453,149,171976,1,2,0:3:0:0:
465,139,172106,1,2,0:2:0:0:
446,129,172236,5,2,3:2:0:0:
456,103,172367,1,2,0:2:0:0:
421,83,172497,1,2,0:2:0:0:
449,64,172628,1,2,0:2:0:0:
403,54,172758,5,10,3:1:0:0:
436,42,172889,1,2,0:2:0:0:
400,38,173019,1,2,0:2:0:0:
416,28,173149,1,2,0:2:0:0:
401,22,173280,5,2,3:2:0:0:
361,10,173410,1,2,0:2:0:0:
315,26,173541,1,2,0:3:0:0:
286,59,173671,1,2,0:2:0:0:
226,117,173802,5,8,3:1:0:0:
176,113,173932,1,0,0:2:0:0:
142,83,174063,1,0,0:3:0:0:
141,36,174193,1,2,0:2:0:0:
174,12,174323,5,2,3:2:0:0:
192,51,174454,1,0,0:2:0:0:
176,99,174584,1,2,0:2:0:0:
137,123,174715,1,0,0:2:0:0:
88,136,174845,5,8,3:1:0:0:
72,131,174976,1,2,0:1:0:0:
56,121,175106,1,0,0:2:0:0:
48,138,175236,1,0,0:2:0:0:
43,160,175367,5,2,3:2:0:0:
48,187,175497,1,2,0:2:0:0:
88,249,175628,5,2,0:3:0:0:
84,268,175758,1,2,0:2:0:0:
36,326,175889,5,8,3:1:0:0:
46,347,176019,1,2,0:2:0:0:
120,377,176149,5,2,0:3:0:0:
129,355,176279,1,2,0:2:0:0:
187,289,176410,5,2,3:2:0:0:
196,309,176541,1,2,0:2:0:0:
258,364,176671,5,2,0:2:0:0:
270,341,176802,1,2,0:2:0:0:
333,291,176932,5,10,3:1:0:0:
352,294,177063,1,2,0:2:0:0:
369,298,177193,1,2,0:2:0:0:
387,304,177323,1,2,0:2:0:0:
405,310,177454,5,2,3:2:0:0:
388,271,177584,1,2,0:2:0:0:
368,231,177715,1,2,0:3:0:0:
349,190,177845,1,2,0:2:0:0:
332,156,177976,5,8,3:1:0:0:
337,144,178106,1,0,0:2:0:0:
342,134,178236,1,0,0:3:0:0:
349,121,178367,1,2,0:2:0:0:
356,112,178497,5,2,3:2:0:0:
342,95,178628,1,0,0:2:0:0:
324,75,178758,1,2,0:2:0:0:
313,61,178889,1,0,0:2:0:0:
297,45,179019,5,8,3:1:0:0:
268,79,179149,1,2,0:1:0:0:
245,115,179280,1,0,0:2:0:0:
222,152,179410,1,0,0:2:0:0:
198,191,179541,5,2,3:2:0:0:
158,181,179671,1,2,0:2:0:0:
133,201,179802,1,2,0:3:0:0:
93,192,179932,1,2,0:2:0:0:
180,204,180063,5,8,3:1:0:0:
168,164,180193,1,2,0:2:0:0:
258,175,180454,5,2,0:2:0:0:
298,184,180584,1,2,3:2:0:0:
323,164,180715,1,2,0:2:0:0:
363,174,180845,1,2,0:2:0:0:
400,157,180976,1,2,0:2:0:0:
447,173,181106,5,10,3:1:0:0:
486,143,181236,1,2,0:2:0:0:
478,97,181367,1,2,0:2:0:0:
436,65,181497,1,2,0:2:0:0:
430,14,181628,5,2,3:2:0:0:
443,13,181758,1,2,0:2:0:0:
450,25,181889,1,2,0:3:0:0:
446,36,182019,1,2,0:2:0:0:
435,41,182149,5,8,3:1:0:0:
386,36,182280,1,2,0:2:0:0:
337,26,182410,1,2,0:3:0:0:
289,15,182541,1,2,0:2:0:0:
240,6,182671,5,2,3:2:0:0:
200,30,182802,1,2,0:2:0:0:
151,26,182932,1,2,0:2:0:0:
129,64,183063,1,2,0:2:0:0:
81,76,183193,1,8,3:1:0:0:
77,125,183323,1,2,0:2:0:0:
28,152,183454,1,2,0:2:0:0:
48,199,183584,1,2,0:2:0:0:
18,237,183715,5,0,0:0:0:0:
40,185,187367,5,8,0:1:0:0:
87,200,187497,1,0,0:0:0:0:
36,218,187628,1,8,0:1:0:0:
76,177,187758,1,0,0:0:0:0:
75,232,187889,1,0,0:0:0:0:
75,232,188410,6,0,P|103:223|121:217,1,42,2|2,0:1|0:1,0:0:0:0:
67,226,189193,2,0,P|85:264|90:274,1,42,2|2,0:1|0:1,0:0:0:0:
84,263,190497,6,0,P|78:292|73:315,1,42,2|2,0:1|0:1,0:0:0:0:
81,254,191149,2,0,P|46:245|29:240,1,42,0|8,0:0|0:1,0:0:0:0:
51,236,191671,1,0,0:0:0:0:
75,247,191802,1,8,0:1:0:0:
95,231,191932,1,0,0:0:0:0:
128,243,192063,6,0,P|159:237|190:232,1,48.9999985046387,2|2,3:2|0:2,0:0:0:0:
216,167,192323,2,0,P|238:176|261:185,1,48.9999985046387,2|2,0:3|0:2,0:0:0:0:
303,252,192584,2,0,P|351:249|396:206,1,97.9999970092774,8|2,3:1|0:3,0:0:0:0:
426,156,192976,1,2,0:2:0:0:
495,185,193106,2,0,P|488:241|478:348,1,146.999995513916,0|0,3:0|0:0,0:0:0:0:
480,332,193628,6,0,P|442:281|385:214,1,146.999995513916,8|0,3:1|0:0,0:0:0:0:
348,145,194149,6,0,P|318:150|276:158,1,48.9999985046387,2|2,3:2|0:2,0:0:0:0:
320,122,194410,2,0,P|297:144|263:177,1,48.9999985046387,2|2,0:3|0:2,0:0:0:0:
288,175,194671,2,0,P|233:145|172:109,1,97.9999970092774,8|2,3:1|0:3,0:0:0:0:
131,145,195063,1,2,0:2:0:0:
169,63,195193,2,0,B|181:42|181:42|211:60,1,48.9999985046387,0|0,3:0|0:0,0:0:0:0:
194,62,195454,2,0,B|181:42|181:42|144:64,1,48.9999985046387,2|0,2:0|0:0,0:0:0:0:
131,145,195715,6,0,P|66:118|90:57,1,146.999995513916,8|0,3:1|0:0,0:0:0:0:
86,58,196236,6,0,P|78:127|66:233,1,146.999995513916,2|2,3:2|0:2,0:0:0:0:
19,275,196758,2,0,P|86:308|140:337,1,97.9999970092774,8|2,3:1|0:3,0:0:0:0:
81,357,197149,2,0,P|165:317|201:303,1,97.9999970092774,2|2,0:2|0:2,0:0:0:0:
165,281,197541,2,0,P|227:321|239:328,1,48.9999985046387,2|0,2:2|0:0,0:0:0:0:
247,368,197802,2,0,P|325:346|336:344,1,48.9999985046387,8|2,3:1|0:2,0:0:0:0:
385,318,198063,2,0,P|431:303|450:295,1,48.9999985046387,2|2,0:2|0:2,0:0:0:0:
475,240,198323,5,2,3:2:0:0:
472,196,198454,1,2,0:2:0:0:
437,170,198584,1,2,0:3:0:0:
430,132,198715,1,2,0:2:0:0:
453,92,198845,5,8,3:1:0:0:
355,17,199106,5,2,0:3:0:0:
350,39,199236,1,2,0:2:0:0:
345,63,199367,1,0,3:0:0:0:
290,176,199628,5,2,2:2:0:0:
280,160,199758,1,0,0:0:0:0:
268,140,199889,1,8,3:1:0:0:
233,129,200019,1,2,0:2:0:0:
204,92,200149,1,2,0:2:0:0:
161,112,200280,1,2,0:2:0:0:
124,90,200410,5,2,3:2:0:0:
92,136,200541,1,2,0:2:0:0:
48,137,200671,1,2,0:3:0:0:
51,183,200802,1,2,0:2:0:0:
14,209,200932,2,0,P|56:222|81:228,1,48.9999985046387,8|0,3:1|0:0,0:0:0:0:
78,197,201193,2,0,P|41:212|18:222,1,48.9999985046387,2|2,0:3|0:2,0:0:0:0:
30,198,201454,2,0,P|69:250|103:296,1,97.9999970092774,0|2,3:0|2:0,0:0:0:0:
87,276,201976,6,0,P|84:342|21:325,1,146.999995513916,8|0,3:1|0:0,0:0:0:0:
22,327,202497,6,0,P|69:341|92:345,1,48.9999985046387,2|2,3:2|0:2,0:0:0:0:
76,354,202758,2,0,P|111:345|146:338,1,48.9999985046387,2|2,0:3|0:2,0:0:0:0:
131,331,203019,2,0,B|117:278|117:278|63:258|63:258|59:296,1,146.999995513916,8|2,3:1|0:2,0:0:0:0:
59,292,203541,2,0,B|128:313|128:313|191:227,1,146.999995513916,0|0,3:0|0:0,0:0:0:0:
181,153,204063,2,0,P|210:168|229:208,1,48.9999985046387,8|0,3:1|0:0,0:0:0:0:
299,108,204323,2,0,P|297:138|280:162,1,48.9999985046387
384,309,204584,5,2,3:2:0:0:
346,313,204715,1,2,0:2:0:0:
312,298,204845,1,2,0:3:0:0:
292,276,204976,1,2,0:2:0:0:
285,239,205106,2,0,P|360:229|415:224,1,97.9999970092774,8|2,3:1|0:3,0:0:0:0:
382,226,205497,2,0,P|456:248|495:261,1,97.9999970092774,2|2,0:2|0:2,0:0:0:0:
476,254,205889,2,0,P|447:264|408:274,1,48.9999985046387,2|0,2:2|0:0,0:0:0:0:
420,271,206149,2,0,P|356:244|340:238,1,48.9999985046387,8|2,3:1|0:2,0:0:0:0:
365,244,206410,2,0,P|336:255|306:266,1,48.9999985046387,2|2,0:2|0:2,0:0:0:0:
286,246,206671,5,2,3:2:0:0:
244,262,206802,1,2,0:2:0:0:
204,247,206932,1,2,0:3:0:0:
164,263,207063,1,2,0:2:0:0:
82,232,207193,5,8,3:1:0:0:
66,242,207323,1,0,0:0:0:0:
6,195,207454,5,2,0:3:0:0:
23,170,207584,1,2,0:2:0:0:
14,94,207715,5,0,3:0:0:0:
32,75,207845,1,2,0:2:0:0:
36,50,207976,1,2,2:2:0:0:
65,42,208106,1,0,0:0:0:0:
135,11,208236,5,8,3:1:0:0:
171,31,208367,1,2,0:2:0:0:
215,27,208497,1,2,0:2:0:0:
246,62,208628,1,2,0:2:0:0:
288,69,208758,6,0,P|337:49|361:38,1,48.9999985046387,2|2,3:2|0:2,0:0:0:0:
297,23,209019,2,0,P|341:49|356:57,1,48.9999985046387,2|2,0:3|0:2,0:0:0:0:
348,61,209280,2,0,P|401:54|459:46,1,97.9999970092774,8|2,3:1|0:3,0:0:0:0:
498,102,209671,1,2,0:2:0:0:
454,166,209802,2,0,P|415:158|381:151,1,48.9999985046387,0|0,3:0|0:0,0:0:0:0:
408,146,210063,2,0,P|377:156|341:166,1,48.9999985046387,2|0,2:0|0:0,0:0:0:0:
321,160,210323,6,0,P|293:151|207:128,1,97.9999970092774,8|0,3:1|0:0,0:0:0:0:
205,105,210715,1,0,0:0:0:0:
189,132,210845,6,0,P|201:169|211:213,1,48.9999985046387,2|2,3:2|0:2,0:0:0:0:
186,185,211106,2,0,P|196:139|199:121,1,48.9999985046387,2|2,0:3|0:2,0:0:0:0:
220,128,211367,2,0,P|266:145|293:246,1,146.999995513916,8|2,3:1|0:2,0:0:0:0:
245,288,211889,2,0,P|192:279|91:261,1,146.999995513916,0|0,3:0|0:0,0:0:0:0:
46,213,212410,2,0,P|29:176|20:148,1,48.9999985046387,8|0,3:1|0:0,0:0:0:0:
107,167,212671,2,0,P|111:130|113:99,1,48.9999985046387
181,206,212932,5,2,3:2:0:0:
193,185,213063,1,2,0:2:0:0:
188,165,213193,1,2,0:3:0:0:
208,149,213323,1,2,0:2:0:0:
195,118,213454,5,8,3:1:0:0:
263,24,213715,5,2,0:3:0:0:
270,47,213845,1,2,0:2:0:0:
279,72,213976,1,0,3:0:0:0:
359,171,214236,5,2,2:2:0:0:
455,94,214497,5,8,3:1:0:0:
427,76,214628,1,2,0:2:0:0:
400,74,214758,1,2,0:2:0:0:
387,55,214889,1,2,0:2:0:0:
360,52,215019,5,2,3:2:0:0:
334,84,215149,1,2,0:2:0:0:
295,85,215280,1,2,0:3:0:0:
283,121,215410,1,2,0:2:0:0:
240,131,215541,5,8,3:1:0:0:
126,164,215802,5,2,0:3:0:0:
106,177,215932,1,2,0:2:0:0:
81,178,216063,1,0,3:0:0:0:
11,275,216323,5,2,2:2:0:0:
112,352,216584,5,8,3:1:0:0:
134,342,216715,1,2,0:2:0:0:
132,318,216845,1,2,0:2:0:0:
136,292,216976,1,2,0:2:0:0:
162,280,217106,5,2,3:2:0:0:
200,304,217236,1,2,0:2:0:0:
246,289,217367,1,2,0:3:0:0:
259,247,217497,1,2,0:2:0:0:
301,225,217628,1,8,3:1:0:0:
323,236,217758,1,0,0:0:0:0:
326,258,217889,1,2,0:3:0:0:
346,260,218019,1,2,0:2:0:0:
355,284,218149,5,0,3:0:0:0:
451,356,218410,5,2,2:0:0:0:
496,253,218671,6,0,P|470:196|383:162,1,146.999995513916,8|0,3:1|0:0,0:0:0:0:
372,169,219193,6,0,P|380:122|383:100,1,48.9999985046387,2|2,3:2|0:2,0:0:0:0:
292,166,219454,2,0,P|300:119|303:97,1,48.9999985046387,2|2,0:3|0:2,0:0:0:0:
208,121,219715,2,0,P|200:74|197:52,1,48.9999985046387,8|0,3:1|0:0,0:0:0:0:
104,105,219976,2,0,P|96:58|93:36,1,48.9999985046387,2|2,0:3|0:2,0:0:0:0:
26,155,220236,2,0,P|19:234|11:317,1,146.999995513916,0|0,3:0|0:0,0:0:0:0:
78,348,220758,2,0,P|44:333|13:321,1,48.9999985046387,8|0,3:1|0:0,0:0:0:0:
102,287,221019,2,0,P|71:293|38:304,1,48.9999985046387
10,302,221280,6,0,P|29:242|125:218,1,146.999995513916,2|2,3:2|0:2,0:0:0:0:
165,257,221802,1,8,3:1:0:0:
232,234,221932,1,0,0:0:0:0:
232,161,222063,1,2,0:3:0:0:
278,99,222193,1,2,0:2:0:0:
349,112,222323,5,0,3:0:0:0:
402,232,222584,5,2,2:2:0:0:
331,363,222845,5,8,3:1:0:0:
325,344,222976,1,2,0:2:0:0:
321,326,223106,1,2,0:2:0:0:
316,303,223236,1,2,0:2:0:0:
313,293,223367,5,2,3:2:0:0:
311,216,223497,1,2,0:2:0:0:
262,150,223628,1,2,0:3:0:0:
278,75,223758,1,2,0:2:0:0:
222,21,223889,5,8,3:1:0:0:
164,114,224149,5,2,0:3:0:0:
158,137,224280,1,2,0:2:0:0:
353,140,224671,5,2,2:2:0:0:
363,124,224802,1,0,0:0:0:0:
394,98,224932,1,8,3:1:0:0:
460,88,225063,1,2,0:2:0:0:
497,156,225193,1,2,0:2:0:0:
451,221,225323,1,2,0:2:0:0:
381,183,225454,6,0,P|379:200|378:217,2,28,2|0|0,3:2|0:0|0:0,0:0:0:0:
381,181,226236,2,0,L|363:183,1,14
381,181,226497,2,0,L|403:189,1,14
376,178,227019,2,0,L|368:159,1,14
376,178,227280,2,0,L|387:162,1,14
376,178,227541,6,0,L|375:217,2,28
374,175,228323,2,0,L|363:156,1,14
374,175,228584,2,0,L|386:158,1,14
374,178,229106,2,0,P|372:207|372:218,1,28
