osu file format v14

[General]
AudioFilename: audio.mp3
AudioLeadIn: 0
PreviewTime: 43889
Countdown: 0
SampleSet: Soft
StackLeniency: 0.7
Mode: 0
LetterboxInBreaks: 0
WidescreenStoryboard: 0

[Editor]
Bookmarks: 41802,50150,83541,91889,100237,116932,125280,158671,167019,183715,187889,192063,225454
DistanceSpacing: 1.3
BeatDivisor: 4
GridSize: 4
TimelineZoom: 1

[Metadata]
Title:Stytsamen
TitleUnicode:Стыцамэн
Artist:Ivan Dorn
ArtistUnicode:Иван Дорн
Creator:Myah
Version:Intoxication
Source:
Tags:myahkey godsenger aishiteiru- aishiteiru froskya revialink ryxliee Co'N'Dorn pop electronic russian ukrainian русский украинский український поп не надо стесняться стыцамен stycamen stycaman stytsaman
BeatmapID:4033025
BeatmapSetID:1864947

[Difficulty]
HPDrainRate:5
CircleSize:4
OverallDifficulty:8
ApproachRate:9
SliderMultiplier:2.4
SliderTickRate:1

[Events]
//Background and Video events
0,0,"Music__056512_18.jpg",0,0
Video,0,"Stytsamen_new.mp4"
//Break Periods
2,117132,124158
2,183914,186767
//Storyboard Layer 0 (Background)
//Storyboard Layer 1 (Fail)
//Storyboard Layer 2 (Pass)
//Storyboard Layer 3 (Foreground)
//Storyboard Layer 4 (Overlay)
//Storyboard Sound Samples

[TimingPoints]
63,521.739130434783,4,2,1,50,1,0
3715,-100,4,2,2,50,0,0
4237,-100,4,2,1,50,0,0
12063,-100,4,2,2,50,0,0
12585,-100,4,2,1,50,0,0
16758,-100,4,2,1,30,0,0
25106,-100,4,2,1,50,0,0
25628,-83.3333333333333,4,2,1,60,0,0
28758,-83.3333333333333,4,2,2,60,0,0
29280,-83.3333333333333,4,2,1,60,0,0
33454,-100,4,2,1,60,0,0
33976,-83.3333333333333,4,2,1,60,0,0
37106,-83.3333333333333,4,2,2,60,0,0
37628,-83.3333333333333,4,2,1,60,0,0
41802,-83.3333333333333,4,2,1,30,0,0
49628,-83.3333333333333,4,2,2,75,0,0
49889,-83.3333333333333,4,2,1,75,0,0
50149,-62.5,4,2,1,75,0,1
53802,-62.5,4,2,2,75,0,1
54324,-62.5,4,2,1,75,0,1
57976,-62.5,4,2,2,75,0,1
58498,-62.5,4,2,1,75,0,1
62150,-62.5,4,2,2,75,0,1
63193,-62.5,4,2,1,75,0,1
66324,-62.5,4,2,2,75,0,1
67367,-62.5,4,2,1,75,0,1
70498,-62.5,4,2,2,75,0,1
71541,-62.5,4,2,1,75,0,1
74671,-62.5,4,2,2,75,0,1
75715,-62.5,4,2,1,75,0,1
78845,-62.5,4,2,2,75,0,1
79889,-62.5,4,2,1,75,0,1
83019,-62.5,4,2,2,75,0,1
83541,-133.333333333333,4,2,1,40,0,0
91889,-100,4,2,1,50,0,0
100237,-100,4,2,1,60,0,0
100758,-83.3333333333333,4,2,2,60,0,0
101280,-83.3333333333333,4,2,1,60,0,0
108585,-100,4,2,1,60,0,0
109106,-83.3333333333333,4,2,1,60,0,0
112237,-83.3333333333333,4,2,2,60,0,0
112758,-83.3333333333333,4,2,1,60,0,0
116932,-83.3333333333333,4,2,1,30,0,0
124758,-83.3333333333333,4,2,2,75,0,0
125019,-83.3333333333333,4,2,1,75,0,0
125280,-57.1428571428571,4,2,1,75,0,1
128932,-57.1428571428571,4,2,2,75,0,1
129976,-57.1428571428571,4,2,1,75,0,1
133106,-57.1428571428571,4,2,2,75,0,1
134150,-57.1428571428571,4,2,1,75,0,1
137280,-57.1428571428571,4,2,2,75,0,1
138324,-57.1428571428571,4,2,1,75,0,1
141454,-57.1428571428571,4,2,2,75,0,1
142498,-57.1428571428571,4,2,1,75,0,1
145628,-57.1428571428571,4,2,2,75,0,1
146671,-57.1428571428571,4,2,1,75,0,1
149802,-57.1428571428571,4,2,2,75,0,1
150845,-57.1428571428571,4,2,1,75,0,1
153976,-57.1428571428571,4,2,2,75,0,1
155019,-57.1428571428571,4,2,1,75,0,1
158150,-57.1428571428571,4,2,2,75,0,1
158671,-83.3333333333333,4,2,1,50,0,0
165454,-83.3333333333333,4,2,2,50,0,0
166758,-83.3333333333333,4,2,1,50,0,0
167019,-57.1428571428571,4,2,1,85,0,1
170671,-57.1428571428571,4,2,2,85,0,1
171715,-57.1428571428571,4,2,1,85,0,1
174845,-57.1428571428571,4,2,2,85,0,1
175889,-57.1428571428571,4,2,1,85,0,1
179019,-57.1428571428571,4,2,2,85,0,1
180063,-57.1428571428571,4,2,1,85,0,1
183193,-57.1428571428571,4,2,2,85,0,1
183715,-83.3333333333333,4,2,1,100,0,0
187367,-83.3333333333333,4,2,2,75,0,0
187628,-83.3333333333333,4,2,1,75,0,0
187889,-83.3333333333333,4,2,1,60,0,0
191541,-83.3333333333333,4,2,2,85,0,0
191802,-83.3333333333333,4,2,1,85,0,0
192063,-52.6315789473684,4,2,1,85,0,1
195715,-52.6315789473684,4,2,2,85,0,1
196758,-52.6315789473684,4,2,1,85,0,1
199889,-52.6315789473684,4,2,2,85,0,1
200932,-52.6315789473684,4,2,1,85,0,1
204063,-52.6315789473684,4,2,2,85,0,1
205106,-52.6315789473684,4,2,1,85,0,1
208237,-52.6315789473684,4,2,2,85,0,1
209280,-52.6315789473684,4,2,1,85,0,1
212411,-52.6315789473684,4,2,2,85,0,1
213454,-52.6315789473684,4,2,1,85,0,1
216585,-52.6315789473684,4,2,2,85,0,1
217628,-52.6315789473684,4,2,1,85,0,1
220758,-52.6315789473684,4,2,2,85,0,1
221802,-52.6315789473684,4,2,1,85,0,1
224932,-52.6315789473684,4,2,2,85,0,1
225454,-52.6315789473684,4,2,2,85,0,0

[Colours]
Combo1 : 231,165,99
Combo2 : 187,189,121

[HitObjects]
0,203,63,6,2,P|64:218|97:329,1,180,2|0,0:1|0:0,0:1:0:0:
306,268,585,6,0,L|158:251,1,120,8|0,3:1|0:0,0:0:0:0:
148,192,976,1,2,0:0:0:0:
148,192,1107,1,0,3:0:0:0:
204,115,1367,1,2,0:0:0:0:
248,334,1628,1,8,3:1:0:0:
248,334,1758,1,2,0:0:0:0:
306,268,2018,1,2,0:0:0:0:
306,268,2150,1,2,3:2:0:0:
12,42,2671,6,0,B|56:46|65:90|129:84,1,120,8|0,3:1|0:0,0:0:0:0:
186,38,3063,1,2,0:0:0:0:
186,38,3193,2,0,L|174:178,1,120,0|2,3:0|0:0,0:0:0:0:
18,314,3715,2,0,P|119:330|270:373,1,240,8|2,3:1|3:2,0:0:0:0:
502,247,4758,6,0,P|474:308|457:360,1,120,8|0,3:1|0:0,0:0:0:0:
395,318,5150,1,2,0:0:0:0:
395,318,5281,1,0,3:0:0:0:
325,383,5541,1,2,0:0:0:0:
250,285,5802,1,8,3:1:0:0:
260,288,5932,1,2,0:0:0:0:
271,292,6063,1,0,0:0:0:0:
281,296,6193,1,2,0:0:0:0:
292,300,6324,1,2,3:2:0:0:
86,379,6845,6,0,P|138:309|187:212,1,180,8|2,3:1|0:0,0:0:0:0:
102,220,7367,1,0,3:0:0:0:
151,302,7628,1,2,0:0:0:0:
207,137,7889,2,0,L|123:150,1,60,8|2,3:1|0:0,0:0:0:0:
133,62,8150,2,0,L|221:51,1,60,8|0,0:1|0:0,0:0:0:0:
402,34,8411,6,2,P|331:51|367:139,1,180,2|0,0:1|0:0,0:1:0:0:
510,194,8932,2,0,B|446:195|460:237|389:230,1,120,8|0,3:1|0:0,0:0:0:0:
345,288,9324,1,2,0:0:0:0:
345,288,9454,2,0,P|282:277|216:269,1,120,0|2,3:0|0:0,0:0:0:0:
13,246,9976,1,8,3:1:0:0:
13,246,10106,1,2,0:0:0:0:
80,314,10367,1,2,0:0:0:0:
80,314,10498,1,2,3:2:0:0:
150,26,11019,5,8,3:1:0:0:
91,92,11280,1,0,0:0:0:0:
91,92,11411,1,2,0:0:0:0:
91,92,11541,1,0,3:0:0:0:
3,55,11802,1,2,0:0:0:0:
140,283,12063,2,0,B|173:123|173:123|163:162|104:178,1,240,8|2,3:1|3:2,0:0:0:0:
132,368,13106,6,0,B|212:366|175:324|261:325,1,120,8|0,3:1|0:0,0:0:0:0:
303,276,13498,1,2,0:0:0:0:
303,276,13628,2,0,P|365:287|436:306,1,120,0|2,3:0|0:0,0:0:0:0:
512,206,14150,1,8,3:1:0:0:
502,209,14280,1,2,0:0:0:0:
491,213,14411,1,0,0:0:0:0:
481,217,14541,1,2,0:0:0:0:
470,221,14672,1,2,3:2:0:0:
511,14,15193,5,8,3:1:0:0:
452,76,15585,1,2,0:0:0:0:
452,76,15715,1,0,3:0:0:0:
389,21,15976,1,2,0:0:0:0:
227,123,16237,2,0,L|311:136,1,60,8|2,3:1|0:0,0:0:0:0:
301,48,16498,2,0,L|213:37,1,60,8|0,0:1|0:0,0:0:0:0:
88,219,16758,5,0,3:0:0:0:
60,139,17280,1,0,3:0:0:0:
140,112,17802,1,0,3:0:0:0:
167,191,18324,1,0,3:0:0:0:
97,178,18845,5,0,3:0:0:0:
100,148,19367,1,0,3:0:0:0:
130,152,19889,1,0,3:0:0:0:
126,181,20411,1,0,3:0:0:0:
25,178,20932,5,0,3:0:0:0:
101,76,21454,1,0,3:0:0:0:
202,153,21976,1,0,3:0:0:0:
126,253,22498,1,0,3:0:0:0:
11,124,23019,5,0,3:0:0:0:
155,63,23541,1,0,3:0:0:0:
215,206,24063,1,0,3:0:0:0:
73,266,24585,1,0,3:0:0:0:
113,14,25106,6,2,P|73:97|-21:52,1,180,2|0,0:1|0:0,0:1:0:0:
226,180,25628,6,0,B|254:101|187:124|212:36,1,143.999995605469,8|2,3:1|0:3,0:0:0:0:
333,0,26019,1,2,0:0:0:0:
333,0,26150,2,0,P|326:38|296:70,1,71.9999978027344,0|0,3:0|0:0,0:0:0:0:
398,153,26411,2,0,P|365:138|329:142,1,71.9999978027344,2|0,0:0|0:0,0:0:0:0:
493,19,26671,1,8,3:1:0:0:
493,19,26802,1,2,0:0:0:0:
408,67,27063,1,2,0:0:0:0:
408,67,27193,1,2,3:2:0:0:
477,128,27454,1,2,0:3:0:0:
461,360,27715,6,0,P|494:343|508:298,1,71.9999978027344,8|0,3:1|0:0,0:0:0:0:
442,256,27976,2,0,P|410:271|394:303,1,71.9999978027344,2|2,0:3|0:0,0:0:0:0:
282,230,28237,2,0,B|265:302|336:291|318:370,1,143.999995605469,0|2,3:0|0:0,0:0:0:0:
204,182,28758,1,8,3:1:0:0:
305,142,29019,1,0,0:0:0:0:
38,40,29280,2,0,L|271:61,1,215.999993408203,2|0,3:2|0:0,0:0:0:0:
13,138,29802,6,0,P|48:132|105:140,1,71.9999978027344,8|0,3:1|0:0,0:0:0:0:
90,228,30063,2,0,P|54:233|-2:226,1,71.9999978027344,2|2,0:3|0:0,0:0:0:0:
175,175,30324,2,0,L|158:334,1,143.999995605469,0|2,3:0|0:0,0:0:0:0:
302,199,30845,1,8,3:1:0:0:
292,202,30975,1,2,0:0:0:0:
281,206,31106,1,0,0:0:0:0:
271,210,31236,1,2,0:0:0:0:
260,214,31367,1,2,3:2:0:0:
350,275,31628,1,2,0:3:0:0:
460,48,31889,5,8,3:1:0:0:
358,104,32150,1,2,0:3:0:0:
358,104,32280,1,2,0:0:0:0:
358,104,32411,1,0,3:0:0:0:
454,170,32671,1,2,0:0:0:0:
262,40,32932,6,2,B|275:142|275:142|281:141|281:141|275:143|275:143|292:265,1,215.999993408203,10|0,3:1|0:0,0:1:0:0:
445,297,33454,6,2,B|334:292|381:351|248:348,1,180,2|0,0:1|0:0,0:1:0:0:
64,318,33976,2,0,P|57:350|106:382,1,71.9999978027344,8|0,3:1|0:0,0:0:0:0:
168,355,34237,2,0,P|175:323|126:291,1,71.9999978027344,2|2,0:3|0:0,0:0:0:0:
69,190,34498,2,0,P|142:201|221:233,1,143.999995605469,0|2,3:0|0:0,0:0:0:0:
345,98,35019,1,8,3:1:0:0:
345,98,35150,1,2,0:0:0:0:
389,196,35411,1,2,0:0:0:0:
389,196,35541,1,2,3:2:0:0:
485,158,35802,1,2,0:3:0:0:
224,45,36063,6,0,B|212:115|267:121|244:203,1,143.999995605469,8|2,3:1|0:3,0:0:0:0:
167,234,36454,1,2,0:0:0:0:
167,234,36585,2,0,P|192:297|213:376,1,143.999995605469,0|2,3:0|0:0,0:0:0:0:
407,249,37106,2,0,L|299:238,1,71.9999978027344,8|2,3:1|0:0,0:0:0:0:
323,331,37367,2,0,L|431:342,1,71.9999978027344
469,177,37628,1,2,3:2:0:0:
385,166,37889,1,2,0:3:0:0:
481,22,38150,6,0,P|454:56|436:92,1,71.9999978027344,8|0,3:1|0:0,0:0:0:0:
325,34,38411,1,2,0:3:0:0:
325,34,38541,1,2,0:0:0:0:
325,34,38671,2,0,P|360:106|395:196,1,143.999995605469,0|2,3:0|0:0,0:0:0:0:
229,99,39193,1,8,3:1:0:0:
240,103,39324,1,2,0:0:0:0:
250,107,39454,1,0,0:0:0:0:
261,111,39585,1,2,0:0:0:0:
271,114,39715,1,2,3:2:0:0:
284,215,39976,1,2,0:3:0:0:
7,118,40237,5,8,3:1:0:0:
93,65,40498,1,2,0:3:0:0:
93,65,40628,1,2,0:0:0:0:
93,65,40758,1,0,3:0:0:0:
151,144,41019,1,2,0:0:0:0:
0,294,41280,2,2,B|81:317|81:317|117:352|117:352|208:378,1,215.999993408203,10|0,3:1|0:0,0:1:0:0:
357,317,41802,5,0,3:0:0:0:
385,237,42324,1,0,3:0:0:0:
305,210,42846,1,0,3:0:0:0:
278,289,43368,1,0,3:0:0:0:
357,274,43889,5,0,3:0:0:0:
354,244,44411,1,0,3:0:0:0:
324,248,44933,1,0,3:0:0:0:
328,277,45455,1,0,3:0:0:0:
428,279,45976,5,0,3:0:0:0:
352,177,46498,1,0,3:0:0:0:
251,254,47020,1,0,3:0:0:0:
327,354,47542,1,0,3:0:0:0:
434,222,48063,5,0,3:0:0:0:
290,161,48585,1,0,3:0:0:0:
304,313,49107,1,0,3:0:0:0:
207,80,49628,2,0,L|301:71,1,71.9999978027344,8|0,3:1|0:0,0:0:0:0:
186,177,49889,2,0,L|257:183,1,71.9999978027344,8|0,0:0|0:0,0:0:0:0:
8,27,50150,5,2,3:2:0:0:
49,43,50280,1,2,0:2:0:0:
66,77,50411,1,2,0:3:0:0:
71,105,50541,1,2,0:2:0:0:
137,0,50671,2,0,P|119:56|91:216,1,192,8|2,3:1|0:3,0:0:0:0:
161,280,51063,5,2,0:2:0:0:
166,270,51193,2,0,P|121:284|64:279,1,96,0|0,3:0|0:0,0:0:0:0:
82,381,51454,2,0,P|127:366|175:369,1,96,2|0,2:0|0:0,0:0:0:0:
205,134,51715,2,0,B|209:247|284:206|283:321,1,192,8|0,3:1|0:0,0:0:0:0:
512,61,52237,5,2,3:2:0:0:
475,83,52367,1,2,0:2:0:0:
446,85,52498,1,2,0:3:0:0:
426,82,52628,1,2,0:2:0:0:
489,189,52758,2,0,P|449:169|385:175,1,96,8|0,3:1|0:0,0:0:0:0:
370,259,53019,5,2,0:3:0:0:
417,256,53150,1,2,0:2:0:0:
460,276,53280,2,0,P|348:306|290:365,1,192,0|2,3:0|2:0,0:0:0:0:
89,191,53802,2,0,B|193:202|149:254|284:264,1,192,8|0,3:1|0:0,0:0:0:0:
48,369,54324,5,2,3:2:0:0:
41,341,54454,1,2,0:2:0:0:
59,318,54585,1,2,0:3:0:0:
53,289,54715,1,2,0:2:0:0:
0,234,54845,1,8,3:1:0:0:
112,187,55106,5,2,0:3:0:0:
88,193,55236,1,2,0:2:0:0:
39,114,55497,5,2,0:2:0:0:
14,104,55628,1,2,2:2:0:0:
200,170,55889,6,0,P|184:129|127:108,1,96,8|2,3:1|0:2,0:0:0:0:
180,255,56150,1,2,0:2:0:0:
263,231,56280,1,2,0:2:0:0:
293,129,56411,5,2,3:2:0:0:
283,127,56541,1,2,0:2:0:0:
273,124,56672,1,2,0:3:0:0:
263,121,56802,1,2,0:2:0:0:
200,170,56932,1,8,3:1:0:0:
373,230,57193,5,2,0:3:0:0:
347,222,57324,1,2,0:2:0:0:
442,147,57585,5,2,0:2:0:0:
416,155,57716,1,2,2:2:0:0:
494,351,57976,6,0,P|358:363|186:387,1,288,8|2,3:1|0:2,0:0:0:0:
58,281,58498,5,2,3:2:0:0:
95,295,58628,1,2,0:2:0:0:
115,315,58759,1,2,0:3:0:0:
124,331,58889,1,2,0:2:0:0:
243,295,59019,2,0,P|215:341|190:401,1,96,8|0,3:1|0:0,0:0:0:0:
105,203,59280,5,2,0:3:0:0:
113,217,59411,1,2,0:2:0:0:
186,144,59541,2,0,P|93:117|-18:95,1,192,0|2,3:0|2:0,0:0:0:0:
261,13,60063,2,0,B|247:158|345:134|330:290,1,288,8|0,3:1|0:0,0:0:0:0:
465,382,60585,5,2,3:2:0:0:
427,358,60715,1,2,0:2:0:0:
413,332,60845,1,2,0:3:0:0:
411,312,60976,1,2,0:2:0:0:
298,372,61106,2,0,P|324:333|332:271,1,96,8|0,3:1|0:0,0:0:0:0:
210,213,61367,6,0,P|236:252|244:314,1,96,2|2,0:3|0:2,0:0:0:0:
388,159,61628,2,0,B|263:144|334:227|196:201,1,192,0|2,3:0|2:0,0:0:0:0:
443,4,62150,2,0,P|410:35|421:83,1,96,8|0,3:1|0:0,0:0:0:0:
473,201,62411,2,0,P|506:170|495:122,1,96
302,3,62671,5,2,3:2:0:0:
305,31,62801,1,2,0:2:0:0:
325,51,62932,1,2,0:3:0:0:
326,79,63062,1,2,0:2:0:0:
282,142,63192,1,8,3:1:0:0:
167,46,63454,5,2,0:3:0:0:
192,56,63585,1,2,0:2:0:0:
142,156,63845,5,2,0:2:0:0:
167,146,63976,1,2,2:2:0:0:
7,51,64237,6,0,P|41:88|56:143,1,96,8|2,3:1|0:2,0:0:0:0:
9,282,64498,1,2,0:2:0:0:
66,217,64628,1,2,0:2:0:0:
187,276,64758,5,2,3:2:0:0:
177,277,64888,1,2,0:2:0:0:
167,279,65019,1,2,0:3:0:0:
157,281,65149,1,2,0:2:0:0:
105,337,65279,1,8,3:1:0:0:
229,377,65541,5,2,0:3:0:0:
204,367,65672,1,2,0:2:0:0:
290,285,65932,5,2,0:2:0:0:
265,295,66063,1,2,2:2:0:0:
472,384,66324,6,0,B|480:281|493:178|493:178|468:218|431:253,1,288,8|2,3:1|0:2,0:0:0:0:
299,196,66845,5,2,3:2:0:0:
315,237,66975,1,2,0:2:0:0:
340,250,67106,1,2,0:3:0:0:
357,257,67236,1,2,0:2:0:0:
446,169,67367,2,0,P|391:179|374:129,1,96,8|0,3:1|0:0,0:0:0:0:
316,14,67628,5,2,0:3:0:0:
307,27,67758,1,2,0:2:0:0:
297,33,67889,2,0,P|396:37|497:-8,1,192,0|2,3:0|2:0,0:0:0:0:
178,44,68411,2,0,P|191:88|239:143,1,96,8|0,3:1|0:0,0:0:0:0:
264,237,68671,2,0,P|303:213|345:153,1,96
23,209,68932,5,2,3:2:0:0:
62,228,69062,1,2,0:2:0:0:
80,249,69193,1,2,0:3:0:0:
87,266,69323,1,2,0:2:0:0:
182,200,69454,2,0,P|170:244|160:315,1,96,8|0,3:1|0:0,0:0:0:0:
58,119,69715,5,2,0:3:0:0:
53,127,69845,1,2,0:2:0:0:
48,135,69976,2,0,B|187:146|187:146|203:157|203:157|348:170,1,288,0|0,3:0|0:0,0:0:0:0:
459,17,70498,2,0,B|335:9|415:80|281:69,1,192,8|0,3:1|0:0,0:0:0:0:
435,96,71019,5,2,3:2:0:0:
446,122,71149,1,2,0:2:0:0:
434,148,71280,1,2,0:3:0:0:
442,175,71410,1,2,0:2:0:0:
407,244,71540,1,8,3:1:0:0:
300,139,71802,5,2,0:3:0:0:
325,149,71933,1,2,0:2:0:0:
275,249,72193,5,2,0:2:0:0:
300,239,72324,1,2,2:2:0:0:
511,344,72585,2,0,P|468:320|422:302,1,96,8|2,3:1|0:2,0:0:0:0:
189,384,72845,1,2,0:2:0:0:
272,360,72975,1,2,0:2:0:0:
152,299,73106,5,2,3:2:0:0:
143,302,73236,1,2,0:2:0:0:
133,304,73367,1,2,0:3:0:0:
123,307,73497,1,2,0:2:0:0:
77,368,73627,1,8,3:1:0:0:
14,254,73889,5,2,0:3:0:0:
23,260,74019,1,2,0:2:0:0:
27,270,74150,2,0,B|24:179|96:207|93:63,1,192,0|2,3:0|2:2,0:0:0:0:
154,337,74671,6,0,P|137:289|160:222,1,96,8|2,3:1|0:2,0:0:0:0:
243,239,74932,2,0,P|258:285|236:351,1,96,2|2,0:2|0:2,0:0:0:0:
412,169,75193,5,2,3:2:0:0:
434,138,75323,1,2,0:2:0:0:
438,109,75454,1,2,0:3:0:0:
435,90,75584,1,2,0:2:0:0:
309,111,75715,2,0,P|317:159|327:230,1,96,8|0,3:1|0:0,0:0:0:0:
344,34,75976,6,0,P|298:25|243:59,1,96,2|2,0:3|0:2,0:0:0:0:
175,165,76237,2,0,B|190:53|94:117|100:-28,1,192,0|2,3:0|2:0,0:0:0:0:
0,211,76758,2,0,P|127:242|281:328,1,288,8|0,3:1|0:0,0:0:0:0:
205,98,77280,5,2,3:2:0:0:
165,118,77410,1,2,0:2:0:0:
145,139,77541,1,2,0:3:0:0:
138,156,77671,1,2,0:2:0:0:
40,75,77802,2,0,L|59:185,1,96,8|0,3:1|0:0,0:0:0:0:
295,90,78063,2,0,L|279:185,1,96,2|2,0:3|0:2,0:0:0:0:
508,272,78324,2,0,P|490:174|457:63,1,192,0|2,3:0|2:0,0:0:0:0:
237,252,78845,2,0,B|329:282|320:216|424:239,1,192,8|0,3:1|0:0,0:0:0:0:
358,384,79367,5,2,3:2:0:0:
353,355,79497,1,2,0:2:0:0:
377,339,79628,1,2,0:3:0:0:
373,310,79758,1,2,0:2:0:0:
317,258,79888,1,8,3:1:0:0:
215,168,80150,5,2,0:3:0:0:
240,178,80281,1,2,0:2:0:0:
216,307,80541,5,2,0:2:0:0:
241,297,80672,1,2,2:2:0:0:
162,236,80932,2,0,P|133:270|129:333,1,96,8|2,3:1|0:2,0:0:0:0:
0,299,81193,1,2,0:2:0:0:
19,384,81324,1,2,0:2:0:0:
56,228,81454,5,2,3:2:0:0:
57,218,81584,1,2,0:2:0:0:
57,208,81715,1,2,0:3:0:0:
58,198,81845,1,2,0:2:0:0:
7,134,81976,2,0,P|103:173|208:159,1,192,8|2,3:1|0:3,0:0:0:0:
251,110,82367,1,2,0:2:0:0:
242,99,82498,2,0,P|225:193|215:304,1,192,0|2,3:0|2:2,0:0:0:0:
150,14,83019,1,8,3:1:0:0:
456,100,83541,5,2,0:2:0:0:
491,192,84063,1,2,0:2:0:0:
404,232,84454,2,0,B|336:257|336:257|292:211,2,135.000005149841,2|2|2,0:2|0:2|0:2,0:0:0:0:
452,322,85498,1,2,0:2:0:0:
452,322,85628,1,2,0:2:0:0:
156,371,86150,6,0,B|164:331|164:331|159:322|159:322|169:252,1,90.0000034332277,2|0,0:2|0:0,0:0:0:0:
168,263,86541,1,2,0:2:0:0:
74,301,86932,1,2,0:2:0:0:
39,208,87324,1,2,0:2:0:0:
151,177,87715,1,2,0:2:0:0:
174,67,88237,5,2,0:2:0:0:
272,87,88628,1,2,0:2:0:0:
252,239,89019,2,0,B|303:225|285:259|348:239,1,90.0000034332277,2|0,0:2|0:0,0:0:0:0:
366,231,89411,1,2,0:2:0:0:
428,157,89671,1,2,0:2:0:0:
428,157,89802,1,2,0:2:0:0:
503,213,90324,6,0,B|498:252|498:252|504:265|504:265|497:308,1,90.0000034332277,2|0,0:2|0:0,0:0:0:0:
496,318,90715,1,2,0:2:0:0:
401,363,91106,1,2,0:2:0:0:
251,240,91498,1,2,0:2:0:0:
5,319,91889,5,0,3:0:0:0:
22,316,92019,1,0,0:0:0:0:
39,313,92150,1,0,0:0:0:0:
56,310,92280,1,0,0:0:0:0:
118,249,92411,6,2,B|99:310|99:310|128:359,1,120,10|0,3:1|0:0,0:1:0:0:
197,184,92802,2,2,B|226:233|226:233|207:294,1,120,2|0,0:1|0:0,0:1:0:0:
361,362,93193,6,2,B|302:368|302:368|296:372|296:372|241:377,1,120,2|8,0:1|3:1,0:1:0:0:
427,288,93585,2,2,B|368:282|368:282|362:277|362:277|308:272,1,120,2|0,0:1|0:0,0:1:0:0:
498,204,93976,5,0,3:0:0:0:
481,207,94106,1,0,0:0:0:0:
464,210,94237,1,0,0:0:0:0:
447,213,94367,1,0,0:0:0:0:
367,184,94498,2,0,P|405:239|427:289,2,120,10|0|0,3:1|0:0|3:0,0:0:0:0:
472,89,95280,2,2,P|438:117|425:143,1,60,2|0,0:1|0:0,0:1:0:0:
289,10,95541,2,0,B|293:70|293:70|300:75|300:75|307:134,1,120,8|0,3:1|0:0,0:0:0:0:
14,66,96063,5,0,3:0:0:0:
31,69,96193,1,0,0:0:0:0:
48,72,96324,1,0,0:0:0:0:
65,75,96454,1,0,0:0:0:0:
141,36,96585,2,0,L|149:111,1,60,10|0,3:1|0:0,0:0:0:0:
229,150,96845,2,0,L|235:90,1,60,0|2,0:0|0:1,0:0:0:0:
98,177,97106,5,0,3:0:0:0:
194,238,97367,1,2,0:1:0:0:
15,331,97628,1,8,3:1:0:0:
5,320,97758,2,2,B|72:318|46:364|127:360,1,120,2|0,0:1|0:0,0:1:0:0:
197,357,98150,6,0,P|217:347|242:306,1,60,0|0,3:0|0:0,0:0:0:0:
194,238,98411,2,0,P|174:248|149:289,1,60
314,211,98671,2,0,B|317:266|317:266|324:277|324:277|327:344,2,120,10|0|0,3:1|0:0|0:0,0:0:0:0:
398,371,99715,1,0,0:0:0:0:
355,56,100237,6,2,P|425:33|487:109,1,180,2|0,0:1|0:0,0:1:0:0:
291,164,100758,6,0,L|392:155,1,71.9999978027344,8|0,3:1|0:0,0:0:0:0:
489,255,101019,1,2,0:3:0:0:
490,237,101150,1,2,0:0:0:0:
500,217,101280,2,0,P|429:264|402:317,1,143.999995605469,0|2,3:0|0:0,0:0:0:0:
189,185,101802,1,8,3:1:0:0:
189,185,101933,1,2,0:0:0:0:
217,288,102194,1,2,0:0:0:0:
217,288,102324,1,2,3:2:0:0:
317,266,102585,1,2,0:3:0:0:
53,279,102845,6,0,P|85:262|135:272,1,71.9999978027344,8|0,3:1|0:0,0:0:0:0:
141,354,103106,2,0,P|109:371|59:361,1,71.9999978027344,2|2,0:3|0:0,0:0:0:0:
268,217,103367,2,0,P|256:283|255:378,1,143.999995605469,0|2,3:0|0:0,0:0:0:0:
485,211,103889,2,0,B|325:207|386:122|214:111,1,287.999991210938,8|2,3:1|3:2,0:0:0:0:
275,30,104671,1,2,0:3:0:0:
153,190,104932,5,8,3:1:0:0:
77,133,105193,1,2,0:3:0:0:
77,133,105324,1,2,0:0:0:0:
77,133,105454,1,0,3:0:0:0:
132,56,105715,1,2,0:0:0:0:
277,223,105976,1,8,3:1:0:0:
267,226,106106,1,2,0:0:0:0:
256,230,106237,1,0,0:0:0:0:
246,234,106367,1,2,0:0:0:0:
235,238,106498,1,2,3:2:0:0:
310,139,106758,1,2,0:3:0:0:
345,319,107019,6,0,B|357:245|407:284|416:194,1,143.999995605469,8|2,3:1|0:3,0:0:0:0:
492,161,107411,1,2,0:0:0:0:
492,161,107541,2,0,P|484:125|359:52,1,143.999995605469,0|2,3:0|0:0,0:0:0:0:
97,159,108063,2,2,B|188:144|188:144|212:152|212:152|311:138,1,215.999993408203,10|0,3:1|0:0,0:1:0:0:
492,267,108585,6,2,B|387:270|434:211|323:216,1,180,2|0,0:1|0:0,0:1:0:0:
140,305,109106,6,0,P|136:337|188:364,1,71.9999978027344,8|0,3:1|0:0,0:0:0:0:
247,322,109367,2,0,P|250:289|198:262,1,71.9999978027344,2|2,0:3|0:0,0:0:0:0:
50,206,109628,2,0,P|123:222|195:162,1,143.999995605469,0|2,3:0|0:0,0:0:0:0:
0,35,110150,1,8,3:1:0:0:
0,35,110280,1,2,0:0:0:0:
111,4,110541,1,2,0:0:0:0:
111,4,110671,2,0,B|75:84|146:68|99:163,1,143.999995605469,2|2,3:2|0:3,0:0:0:0:
0,307,111193,6,0,P|75:313|142:351,1,143.999995605469,8|2,3:1|0:3,0:0:0:0:
224,364,111585,1,2,0:0:0:0:
224,364,111715,2,0,P|264:355|306:308,1,71.9999978027344,0|0,3:0|0:0,0:0:0:0:
252,249,111976,2,0,P|216:255|187:276,1,71.9999978027344,2|0,0:0|0:0,0:0:0:0:
426,365,112237,2,0,P|410:219|398:67,1,287.999991210938,8|2,3:1|3:2,0:0:0:0:
398,78,113019,1,2,0:3:0:0:
248,13,113280,5,8,3:1:0:0:
313,97,113541,1,2,0:3:0:0:
313,97,113671,1,2,0:0:0:0:
313,97,113802,1,0,3:0:0:0:
364,4,114063,1,2,0:0:0:0:
172,115,114324,1,8,3:1:0:0:
183,111,114455,1,2,0:0:0:0:
193,107,114585,1,0,0:0:0:0:
204,103,114716,1,2,0:0:0:0:
214,100,114846,1,2,3:2:0:0:
145,17,115106,1,2,0:3:0:0:
7,170,115367,6,0,B|82:178|67:208|151:211,1,143.999995605469,8|2,3:1|0:3,0:0:0:0:
206,274,115758,1,2,0:0:0:0:
206,274,115889,1,0,3:0:0:0:
284,188,116150,1,2,0:0:0:0:
503,343,116411,6,2,B|480:147|480:147|470:200|450:235|450:235,1,287.999991210938,10|0,3:1|3:0,0:1:0:0:
215,129,124758,6,0,L|208:30,1,71.9999978027344,8|0,3:1|0:0,0:0:0:0:
324,147,125019,2,0,L|318:218,1,71.9999978027344,8|0,0:0|0:0,0:0:0:0:
24,211,125280,5,2,3:2:0:0:
65,233,125411,1,2,0:2:0:0:
85,256,125541,1,2,0:3:0:0:
93,275,125671,1,2,0:2:0:0:
219,229,125802,2,0,P|187:281|165:334,1,105.000001001358,8|0,3:1|0:0,0:0:0:0:
36,348,126063,1,2,0:3:0:0:
36,348,126193,1,2,0:2:0:0:
36,348,126324,6,0,P|136:357|266:375,1,210.000002002716,0|2,3:0|2:0,0:0:0:0:
512,231,126845,2,0,P|456:241|410:272,1,105.000001001358,8|0,3:1|0:0,0:0:0:0:
286,284,127106,2,0,P|330:317|359:366,1,105.000001001358
311,213,127367,5,2,3:2:0:0:
262,214,127498,1,2,0:2:0:0:
234,228,127628,1,2,0:3:0:0:
221,244,127758,1,2,0:2:0:0:
95,188,127889,2,0,P|126:226|147:291,1,105.000001001358,8|0,3:1|0:0,0:0:0:0:
40,105,128150,1,2,0:3:0:0:
20,127,128280,1,2,0:2:0:0:
0,138,128411,6,0,L|225:155,1,210.000002002716,0|2,3:0|2:0,0:0:0:0:
512,159,128932,2,0,P|470:205|437:266,1,105.000001001358,8|0,3:1|0:0,0:0:0:0:
321,83,129193,2,0,P|363:129|396:190,1,105.000001001358
335,347,129454,5,2,3:2:0:0:
347,306,129584,1,2,0:2:0:0:
315,277,129715,1,2,0:3:0:0:
329,237,129845,1,2,0:2:0:0:
276,175,129975,1,8,3:1:0:0:
456,319,130237,5,2,0:3:0:0:
443,356,130367,1,2,0:2:0:0:
484,197,130628,5,2,0:2:0:0:
497,234,130758,1,2,2:2:0:0:
400,97,131019,6,0,P|457:83|462:29,1,105.000001001358,8|2,3:1|0:2,0:0:0:0:
291,13,131280,1,2,0:2:0:0:
303,107,131411,1,2,0:2:0:0:
212,152,131541,5,2,3:2:0:0:
213,141,131671,1,2,0:2:0:0:
214,130,131802,1,2,0:3:0:0:
215,119,131932,1,2,0:2:0:0:
163,59,132063,1,8,3:1:0:0:
24,217,132324,5,2,0:3:0:0:
7,189,132454,2,0,P|78:237|160:359,1,210.000002002716,2|2,0:2|0:2,0:0:0:0:
276,191,132845,2,0,P|261:249|212:314,1,105.000001001358,2|0,2:2|0:0,0:0:0:0:
489,308,133106,2,0,B|376:292|413:382|284:369,1,210.000002002716,8|2,3:1|0:2,0:0:0:0:
436,226,133628,5,2,3:2:0:0:
395,204,133759,1,2,0:2:0:0:
375,181,133889,1,2,0:3:0:0:
367,162,134019,1,2,0:2:0:0:
467,69,134150,2,0,B|350:75|426:150|270:144,1,210.000002002716,8|2,3:1|0:3,0:0:0:0:
186,114,134541,1,2,0:2:0:0:
197,97,134671,6,0,B|170:209|250:194|227:311,1,210.000002002716,0|2,3:0|2:0,0:0:0:0:
0,139,135193,2,0,P|59:27|200:110,1,315.000003004074,8|0,3:1|0:0,0:0:0:0:
89,181,135715,5,2,3:2:0:0:
130,203,135846,1,2,0:2:0:0:
150,226,135976,1,2,0:3:0:0:
158,245,136106,1,2,0:2:0:0:
275,190,136237,2,0,P|246:243|234:309,1,105.000001001358,8|0,3:1|0:0,0:0:0:0:
376,376,136498,2,0,P|362:325|336:279,1,105.000001001358,2|2,0:3|0:2,0:0:0:0:
72,384,136758,6,0,P|171:373|293:365,1,210.000002002716,0|2,3:0|2:0,0:0:0:0:
475,157,137280,2,0,B|371:224|371:131|262:196,1,210.000002002716,8|0,3:1|0:0,0:0:0:0:
26,243,137802,5,2,3:2:0:0:
37,283,137932,1,2,0:2:0:0:
14,318,138063,1,2,0:3:0:0:
24,358,138193,1,2,0:2:0:0:
104,384,138323,1,8,3:1:0:0:
143,208,138585,5,2,0:3:0:0:
130,171,138715,1,2,0:2:0:0:
171,330,138976,5,2,0:2:0:0:
184,293,139106,1,2,2:2:0:0:
312,175,139367,6,0,P|261:167|223:201,1,105.000001001358,8|2,3:1|0:2,0:0:0:0:
363,256,139628,1,2,0:2:0:0:
408,173,139758,1,2,0:2:0:0:
492,237,139889,5,2,3:2:0:0:
496,247,140019,1,2,0:2:0:0:
500,257,140150,1,2,0:3:0:0:
504,268,140280,1,2,0:2:0:0:
451,334,140411,2,0,B|327:318|396:389|237:374,1,210.000002002716,8|2,3:1|0:3,0:0:0:0:
163,315,140802,5,2,0:2:0:0:
174,354,140932,1,0,3:0:0:0:
292,245,141193,1,2,2:2:0:0:
31,384,141454,2,0,P|44:241|57:53,1,315.000003004074,8|2,3:1|0:2,0:0:0:0:
260,14,141976,5,2,3:2:0:0:
219,36,142107,1,2,0:2:0:0:
199,59,142237,1,2,0:3:0:0:
191,78,142367,1,2,0:2:0:0:
314,136,142498,2,0,P|254:147|211:186,1,105.000001001358,8|0,3:1|0:0,0:0:0:0:
145,285,142758,1,2,0:3:0:0:
136,275,142889,1,2,0:2:0:0:
127,265,143019,6,0,P|238:278|337:297,1,210.000002002716,0|2,3:0|2:0,0:0:0:0:
453,124,143541,2,0,B|442:235|530:224|511:332,1,210.000002002716,8|0,3:1|0:0,0:0:0:0:
265,360,144063,5,2,3:2:0:0:
306,338,144194,1,2,0:2:0:0:
326,315,144324,1,2,0:3:0:0:
334,296,144454,1,2,0:2:0:0:
217,224,144585,2,0,P|184:288|192:332,1,105.000001001358,8|0,3:1|0:0,0:0:0:0:
323,169,144845,2,0,P|264:127|219:129,1,105.000001001358,2|2,0:3|0:2,0:0:0:0:
85,352,145106,6,0,B|99:222|99:222|124:183|124:183|139:34,1,315.000003004074,0|0,3:0|0:0,0:0:0:0:
314,2,145628,2,0,P|253:-6|229:29,1,105.000001001358,8|0,3:1|0:0,0:0:0:0:
258,117,145889,2,0,P|319:125|343:90,1,105.000001001358
504,10,146150,5,2,3:2:0:0:
491,50,146280,1,2,0:2:0:0:
454,71,146411,1,2,0:3:0:0:
443,111,146541,1,2,0:2:0:0:
494,177,146671,1,8,3:1:0:0:
494,339,146932,5,2,0:2:0:0:
507,302,147062,1,2,0:3:0:0:
369,221,147323,5,2,0:2:0:0:
382,258,147453,1,2,2:2:0:0:
242,354,147715,6,0,P|256:299|226:238,1,105.000001001358,8|2,3:1|0:2,0:0:0:0:
112,279,147976,1,2,0:2:0:0:
125,372,148106,1,2,0:2:0:0:
26,337,148237,5,2,3:2:0:0:
26,326,148367,1,2,0:2:0:0:
27,315,148498,1,2,0:3:0:0:
28,303,148628,1,2,0:2:0:0:
0,225,148758,1,8,3:1:0:0:
165,143,149019,5,2,0:3:0:0:
176,154,149150,1,2,0:2:0:0:
186,164,149280,2,0,P|133:154|88:189,1,105.000001001358,0|2,3:0|0:2,0:0:0:0:
112,279,149541,2,0,P|165:289|210:254,1,105.000001001358,2|0,2:2|0:0,0:0:0:0:
286,86,149802,2,0,B|258:209|346:177|311:309,1,210.000002002716,8|2,3:1|0:2,0:0:0:0:
502,28,150324,5,2,3:2:0:0:
468,60,150455,1,2,0:2:0:0:
455,88,150585,1,2,0:3:0:0:
453,108,150715,1,2,0:2:0:0:
359,10,150845,2,0,P|415:80|475:197,1,210.000002002716,8|2,3:1|0:3,0:0:0:0:
353,285,151237,1,2,0:2:0:0:
351,305,151367,6,0,P|399:262|460:271,1,105.000001001358,0|0,3:0|0:0,0:0:0:0:
481,341,151628,2,0,P|433:384|372:375,1,105.000001001358,2|0,2:0|0:0,0:0:0:0:
178,313,151889,2,0,P|196:160|208:-3,1,315.000003004074,8|0,3:1|0:0,0:0:0:0:
10,28,152411,5,2,3:2:0:0:
44,60,152542,1,2,0:2:0:0:
57,88,152672,1,2,0:3:0:0:
59,108,152802,1,2,0:2:0:0:
4,236,152932,2,0,P|25:287|37:355,1,105.000001001358,8|0,3:1|0:0,0:0:0:0:
211,366,153193,2,0,P|221:314|242:266,1,105.000001001358,2|2,0:3|0:2,0:0:0:0:
92,211,153454,6,0,B|217:244|165:155|295:187,1,210.000002002716,0|2,3:0|2:0,0:0:0:0:
503,348,153976,2,0,P|429:282|357:360,1,210.000002002716,8|0,3:1|0:0,0:0:0:0:
487,157,154498,5,2,3:2:0:0:
497,116,154628,1,2,0:2:0:0:
470,83,154759,1,2,0:3:0:0:
481,42,154889,1,2,0:2:0:0:
409,0,155019,1,8,3:1:0:0:
369,176,155281,5,2,0:3:0:0:
382,213,155411,1,2,0:2:0:0:
341,54,155672,5,2,0:2:0:0:
328,91,155802,1,2,2:2:0:0:
200,209,156063,6,0,P|251:217|289:183,1,105.000001001358,8|2,3:1|0:2,0:0:0:0:
149,128,156324,1,2,0:2:0:0:
104,211,156454,1,2,0:2:0:0:
20,147,156585,5,2,3:2:0:0:
16,137,156715,1,2,0:2:0:0:
12,127,156846,1,2,0:3:0:0:
8,116,156976,1,2,0:2:0:0:
61,50,157107,2,0,B|185:66|116:-5|275:10,1,210.000002002716,8|2,3:1|0:3,0:0:0:0:
327,80,157498,1,2,0:2:0:0:
327,80,157628,2,0,P|403:108|485:23,1,210.000002002716,0|2,3:0|2:2,0:0:0:0:
227,95,158150,2,0,P|325:212|419:353,1,315.000003004074,8|2,3:1|0:2,0:0:0:0:
503,193,158671,6,2,B|435:212|435:212|423:206|423:206|314:237,1,143.999995605469,2|0,3:2|0:0,0:1:0:0:
131,217,159193,6,0,B|194:230|194:230|229:291|229:291|239:300|239:300|272:364,3,215.999993408203,2|2|2|2,0:1|0:1|0:1|0:1,0:0:0:0:
270,360,160498,1,0,0:0:0:0:
0,195,160758,6,2,B|81:257|63:163|141:224,1,143.999995605469,2|0,3:2|0:0,0:1:0:0:
316,72,161280,6,0,B|283:55|283:55|297:120|297:120|313:133|313:133|335:228,3,215.999993408203,2|2|2|2,0:1|0:1|0:1|0:1,0:0:0:0:
512,0,162845,6,2,B|506:63|506:63|513:78|513:78|505:149,1,143.999995605469,2|0,3:2|0:0,0:1:0:0:
474,374,163367,6,0,B|484:337|447:330|447:330|381:354|381:354|366:350|366:350|290:374,3,215.999993408203,2|2|2|2,0:1|0:1|0:1|0:1,0:0:0:0:
299,371,164671,1,0,0:0:0:0:
42,292,164932,5,2,3:2:0:0:
113,348,165193,5,0,0:0:0:0:
113,348,165324,1,8,0:0:0:0:
142,317,165454,1,10,0:1:0:0:
260,203,165976,5,4,0:3:0:0:
294,274,166106,1,4,0:3:0:0:
303,173,166367,5,4,0:3:0:0:
250,307,166498,1,8,0:0:0:0:
0,70,167019,5,2,3:2:0:0:
70,85,167150,1,2,0:2:0:0:
97,127,167280,1,2,0:3:0:0:
100,136,167411,1,2,0:2:0:0:
201,169,167541,5,8,3:1:0:0:
162,229,167672,1,2,0:2:0:0:
114,240,167802,1,2,0:3:0:0:
104,240,167933,1,2,0:2:0:0:
8,192,168063,5,2,3:2:0:0:
14,234,168193,1,2,0:2:0:0:
20,275,168324,1,2,0:2:0:0:
25,316,168454,1,2,0:2:0:0:
156,355,168585,1,8,3:1:0:0:
166,365,168715,2,2,P|173:244|192:137,1,210.000002002716,2|2,0:1|0:2,0:1:0:0:
54,62,169106,5,2,3:2:0:0:
75,132,169237,1,2,0:2:0:0:
45,64,169367,1,2,0:3:0:0:
66,134,169498,1,2,0:2:0:0:
168,18,169628,6,0,B|138:120|213:118|176:231,1,210.000002002716,8|0,3:1|0:3,0:0:0:0:
284,179,170019,1,2,0:2:0:0:
284,179,170150,1,2,3:2:0:0:
390,312,170411,5,2,0:2:0:0:
409,290,170541,2,0,P|374:331|440:337,1,105.000001001358,0|8,0:2|3:1,0:0:0:0:
466,195,170802,5,2,0:1:0:0:
482,266,170932,2,0,B|501:240|526:228|526:228|499:222|479:207,1,105.000001001358,0|0,0:2|0:2,0:0:0:0:
406,128,171193,5,2,3:2:0:0:
336,143,171324,1,2,0:2:0:0:
309,185,171454,1,2,0:3:0:0:
306,194,171585,1,2,0:2:0:0:
207,161,171715,5,8,3:1:0:0:
237,227,171845,1,2,0:2:0:0:
209,271,171976,1,2,0:3:0:0:
204,280,172106,1,2,0:2:0:0:
113,337,172237,5,2,3:2:0:0:
152,350,172367,1,2,0:2:0:0:
192,361,172498,1,2,0:2:0:0:
232,372,172628,1,2,0:2:0:0:
365,341,172758,6,0,P|366:299|297:324,1,105.000001001358,8|2,3:1|0:1,0:0:0:0:
456,365,173019,1,2,0:2:0:0:
482,281,173150,1,2,0:2:0:0:
400,215,173280,5,2,3:2:0:0:
410,213,173410,1,2,0:2:0:0:
421,211,173541,1,2,0:3:0:0:
432,209,173671,1,2,0:2:0:0:
477,143,173802,5,8,3:1:0:0:
466,127,173932,1,0,0:2:0:0:
512,21,174193,5,2,0:2:0:0:
505,43,174324,1,2,3:2:0:0:
327,55,174585,6,0,B|347:35|357:14|357:14|372:31|406:38,1,105.000001001358,2|0,0:2|0:2,0:0:0:0:
202,39,174845,1,8,3:1:0:0:
252,147,174976,2,2,B|211:124|193:101|192:69|192:69|175:96|147:107|94:115,1,210.000002002716,2|0,0:1|0:2,0:1:0:0:
0,220,175367,5,2,3:2:0:0:
55,268,175498,1,2,0:2:0:0:
106,257,175628,1,2,0:3:0:0:
103,246,175759,1,2,0:2:0:0:
211,230,175889,5,8,3:1:0:0:
176,295,176020,1,2,0:2:0:0:
186,346,176150,1,2,0:3:0:0:
197,343,176281,1,2,0:2:0:0:
290,295,176411,5,2,3:2:0:0:
323,320,176541,1,2,0:2:0:0:
359,339,176671,1,2,0:2:0:0:
400,346,176802,1,2,0:2:0:0:
486,244,176932,1,8,3:1:0:0:
507,264,177063,2,2,B|387:256|430:193|308:186,1,210.000002002716,2|2,0:1|0:2,0:1:0:0:
418,56,177454,5,2,3:2:0:0:
439,129,177585,1,2,0:2:0:0:
427,58,177715,1,2,0:3:0:0:
448,131,177846,1,2,0:2:0:0:
294,64,177976,6,0,L|311:298,1,210.000002002716,8|0,3:1|0:3,0:0:0:0:
225,212,178367,1,2,0:2:0:0:
225,212,178498,1,2,3:2:0:0:
66,372,178758,5,2,0:2:0:0:
69,335,178889,2,0,B|37:328|11:341|11:341|26:367|57:373,1,105.000001001358,0|8,0:2|3:1,0:0:0:0:
49,229,179150,5,2,0:0:0:0:
22,254,179280,2,2,B|6:227|10:201|10:201|37:210|55:238,1,105.000001001358,2|0,0:1|0:2,0:1:0:0:
169,364,179541,5,2,3:2:0:0:
209,303,179672,1,2,0:2:0:0:
192,254,179802,1,2,0:3:0:0:
182,258,179933,1,2,0:2:0:0:
279,208,180063,5,8,3:1:0:0:
239,147,180194,1,2,0:2:0:0:
256,98,180324,1,2,0:3:0:0:
266,102,180455,1,2,0:2:0:0:
167,38,180585,5,2,3:2:0:0:
175,78,180715,1,2,0:2:0:0:
134,88,180845,1,2,0:2:0:0:
124,46,180976,1,2,0:2:0:0:
87,153,181106,5,8,3:1:0:0:
23,116,181237,1,2,0:1:0:0:
17,189,181367,5,2,0:2:0:0:
95,157,181498,1,2,0:2:0:0:
91,259,181628,5,2,3:2:0:0:
101,257,181758,1,2,0:2:0:0:
112,255,181889,1,2,0:3:0:0:
123,253,182019,1,2,0:2:0:0:
168,187,182150,5,8,3:1:0:0:
173,189,182280,1,2,0:2:0:0:
178,191,182411,1,2,0:3:0:0:
183,194,182541,1,2,0:2:0:0:
278,233,182671,5,2,3:2:0:0:
346,183,182802,1,2,0:2:0:0:
330,100,182932,1,2,0:2:0:0:
397,48,183063,1,2,0:2:0:0:
484,86,183193,1,8,3:1:0:0:
492,74,183323,6,2,P|328:191|223:311,1,315.000003004074,2|0,0:1|0:0,0:1:0:0:
261,37,187367,6,0,L|255:132,1,71.9999978027344,8|0,0:1|0:0,0:0:0:0:
360,162,187628,2,0,L|352:73,1,71.9999978027344,8|0,0:1|0:0,0:0:0:0:
48,216,188411,5,2,0:1:0:0:
127,171,188802,5,2,0:1:0:0:
104,281,189193,5,2,0:1:0:0:
76,98,189585,5,2,0:1:0:0:
464,216,190498,5,2,0:1:0:0:
385,171,190889,5,2,0:1:0:0:
408,281,191280,5,2,0:1:0:0:
290,208,191541,6,0,L|304:123,1,71.9999978027344,8|0,0:1|0:0,0:0:0:0:
181,243,191802,2,0,L|198:337,1,71.9999978027344,8|0,0:1|0:0,0:0:0:0:
0,188,192063,6,0,P|60:177|106:118,1,113.999996955872,2|2,3:2|0:2,0:0:0:0:
97,34,192324,2,0,P|37:45|-9:104,1,113.999996955872,2|2,0:3|0:2,0:0:0:0:
181,243,192585,2,0,L|198:-15,1,227.999993911743,8|2,3:1|0:3,0:0:0:0:
284,101,192976,1,2,0:2:0:0:
284,101,193106,5,0,3:0:0:0:
496,35,193367,2,0,P|433:49|403:93,1,113.999996955872,2|0,2:0|0:0,0:0:0:0:
482,356,193628,2,0,L|497:98,1,227.999993911743,8|0,3:1|0:0,0:0:0:0:
259,30,194150,5,2,3:2:0:0:
275,99,194280,1,2,0:2:0:0:
298,167,194411,1,2,0:3:0:0:
346,219,194541,1,2,0:2:0:0:
488,265,194671,2,0,B|368:268|415:355|283:355,1,227.999993911743,8|2,3:1|0:3,0:0:0:0:
198,297,195063,1,2,0:2:0:0:
192,274,195193,6,0,P|163:318|214:375,1,113.999996955872,0|0,3:0|0:0,0:0:0:0:
89,236,195454,2,0,P|37:222|0:289,1,113.999996955872,2|0,2:0|0:0,0:0:0:0:
167,135,195715,2,0,P|44:107|0:24,1,227.999993911743,8|0,3:1|0:0,0:0:0:0:
297,23,196237,5,2,3:2:0:0:
262,51,196367,1,2,0:2:0:0:
297,23,196498,5,2,0:3:0:0:
263,52,196628,1,2,0:2:0:0:
342,93,196758,1,8,3:1:0:0:
491,27,197019,5,2,0:3:0:0:
419,5,197150,1,2,0:2:0:0:
448,157,197411,5,2,0:2:0:0:
511,116,197541,1,2,2:2:0:0:
342,93,197802,6,0,P|320:147|359:204,1,113.999996955872,8|2,3:1|0:2,0:0:0:0:
498,215,198063,1,2,0:2:0:0:
419,270,198193,1,2,0:2:0:0:
512,350,198324,5,2,3:2:0:0:
500,352,198454,1,2,0:2:0:0:
488,354,198585,1,2,0:3:0:0:
477,357,198715,1,2,0:2:0:0:
390,384,198845,2,0,P|277:370|136:357,1,227.999993911743,8|2,3:1|0:3,0:0:0:0:
15,332,199237,1,2,0:2:0:0:
46,361,199367,6,0,B|59:247|142:308|134:149,1,227.999993911743,0|2,3:0|2:2,0:0:0:0:
20,22,199889,2,0,P|10:82|54:140,1,113.999996955872,8|2,3:1|0:2,0:0:0:0:
218,106,200150,2,0,P|228:46|184:-12,1,113.999996955872,2|2,0:2|0:2,0:0:0:0:
0,220,200411,6,0,P|95:244|226:300,1,227.999993911743,2|2,3:2|0:3,0:0:0:0:
418,213,200932,2,0,P|356:211|307:251,1,113.999996955872,8|0,3:1|0:0,0:0:0:0:
435,315,201193,1,2,0:3:0:0:
426,328,201324,1,2,0:2:0:0:
424,343,201454,6,0,P|431:250|524:141,1,227.999993911743,0|2,3:0|2:0,0:0:0:0:
251,3,201976,2,0,L|273:358,1,341.999990867615,8|0,3:1|0:0,0:0:0:0:
24,364,202498,5,2,3:2:0:0:
72,312,202628,1,2,0:2:0:0:
95,244,202759,1,2,0:3:0:0:
111,175,202889,1,2,0:2:0:0:
28,53,203019,2,0,P|87:78|157:97,1,113.999996955872,8|0,3:1|0:0,0:0:0:0:
343,124,203280,2,0,P|284:149|214:168,1,113.999996955872,2|2,0:3|0:2,0:0:0:0:
0,255,203541,6,0,B|144:260|60:347|227:342,1,227.999993911743,0|2,3:0|2:0,0:0:0:0:
345,316,203932,1,0,0:0:0:0:
345,316,204063,2,0,P|395:323|429:390,1,113.999996955872,8|0,3:1|0:0,0:0:0:0:
496,162,204324,2,0,P|466:209|412:218,1,113.999996955872
404,55,204585,5,2,3:2:0:0:
449,97,204715,1,2,0:2:0:0:
404,55,204846,5,2,0:3:0:0:
448,98,204976,1,2,0:2:0:0:
346,112,205106,1,8,3:1:0:0:
191,22,205367,5,2,0:3:0:0:
263,0,205498,1,2,0:2:0:0:
234,152,205759,5,2,0:2:0:0:
171,111,205889,1,2,2:2:0:0:
267,266,206150,6,0,P|320:267|321:188,1,113.999996955872,8|2,3:1|0:2,0:0:0:0:
175,228,206411,1,2,0:2:0:0:
195,323,206541,1,2,0:2:0:0:
83,361,206671,5,2,3:2:0:0:
81,349,206801,1,2,0:2:0:0:
79,337,206932,1,2,0:3:0:0:
76,326,207062,1,2,0:2:0:0:
12,261,207193,1,8,3:1:0:0:
180,145,207454,1,2,0:3:0:0:
180,145,207585,1,2,0:2:0:0:
180,145,207715,6,0,B|115:141|134:185|63:179,1,113.999996955872,0|2,3:0|0:2,0:0:0:0:
0,16,207976,2,0,P|48:32|47:143,1,113.999996955872,2|0,2:2|0:0,0:0:0:0:
319,23,208237,2,0,P|203:168|124:327,1,341.999990867615,8|2,3:1|0:2,0:0:0:0:
4,161,208758,6,0,B|130:160|72:238|221:233,1,227.999993911743,2|2,3:2|0:3,0:0:0:0:
317,212,209150,1,2,0:2:0:0:
335,195,209280,2,0,P|349:251|291:292,1,113.999996955872,8|0,3:1|0:0,0:0:0:0:
270,149,209541,2,0,P|317:114|369:123,1,113.999996955872,2|2,0:3|0:2,0:0:0:0:
429,289,209802,6,0,B|418:171|510:230|498:48,1,227.999993911743,0|2,3:0|2:0,0:0:0:0:
404,3,210193,1,0,0:0:0:0:
426,16,210324,2,0,P|282:39|82:57,1,341.999990867615,8|0,3:1|0:0,0:0:0:0:
0,267,210845,5,2,3:2:0:0:
69,283,210975,1,2,0:2:0:0:
137,306,211106,1,2,0:3:0:0:
189,353,211236,1,2,0:2:0:0:
330,296,211367,2,0,P|285:329|268:389,1,113.999996955872,8|0,3:1|0:0,0:0:0:0:
464,387,211628,2,0,L|340:378,1,113.999996955872,2|2,0:3|0:2,0:0:0:0:
512,208,211889,6,0,B|364:222|364:222|338:214|338:214|169:229,1,341.999990867615,0|0,3:0|0:0,0:0:0:0:
86,16,212411,2,0,B|77:158|-4:74|0:214,1,227.999993911743,8|0,3:1|0:0,0:0:0:0:
160,329,212932,5,2,3:2:0:0:
130,301,213062,1,2,0:2:0:0:
160,329,213193,5,2,0:3:0:0:
131,300,213323,1,2,0:2:0:0:
218,272,213453,1,8,3:1:0:0:
367,384,213714,5,2,0:3:0:0:
303,342,213845,1,2,0:2:0:0:
503,270,214106,5,2,0:2:0:0:
440,311,214236,1,2,2:2:0:0:
289,179,214498,6,0,P|305:227|368:257,1,113.999996955872,8|2,3:1|0:2,0:0:0:0:
478,146,214758,1,2,0:2:0:0:
382,163,214889,1,2,0:2:0:0:
394,50,215019,5,2,3:2:0:0:
405,52,215149,1,2,0:2:0:0:
417,54,215280,1,2,0:3:0:0:
429,55,215410,1,2,0:2:0:0:
512,11,215541,2,0,P|408:65|367:176,1,227.999993911743,8|2,3:1|0:3,0:0:0:0:
433,243,215932,1,2,0:2:0:0:
446,232,216063,6,0,B|316:239|357:327|242:328,1,227.999993911743,0|2,3:0|2:2,0:0:0:0:
0,173,216585,2,0,P|87:256|157:360,1,227.999993911743,8|2,3:1|0:2,0:0:0:0:
222,85,217106,6,0,P|173:103|152:172,1,113.999996955872,2|2,3:2|0:2,0:0:0:0:
223,226,217367,2,0,P|274:204|294:152,1,113.999996955872,2|2,0:3|0:2,0:0:0:0:
14,48,217628,2,0,P|24:169|33:280,1,227.999993911743,8|2,3:1|0:3,0:0:0:0:
27,384,218019,1,2,0:2:0:0:
0,354,218150,6,0,B|123:327|93:409|246:380,1,227.999993911743,0|2,3:0|2:0,0:0:0:0:
512,273,218671,2,0,P|398:279|395:388,1,227.999993911743,8|0,3:1|0:0,0:0:0:0:
146,270,219193,5,2,3:2:0:0:
215,272,219323,1,2,0:2:0:0:
282,244,219454,1,2,0:3:0:0:
333,198,219584,1,2,0:2:0:0:
390,61,219715,2,0,P|357:106|287:109,1,113.999996955872,8|0,3:1|0:0,0:0:0:0:
512,228,219976,2,0,P|479:183|409:180,1,113.999996955872,2|2,0:3|0:2,0:0:0:0:
313,338,220237,6,0,B|344:197|277:250|305:98,1,227.999993911743,0|2,3:0|2:0,0:0:0:0:
510,321,220758,2,0,P|379:342|147:392,1,341.999990867615,8|0,3:1|0:0,0:0:0:0:
57,296,221280,5,2,3:2:0:0:
27,268,221410,1,2,0:2:0:0:
57,296,221541,5,2,0:3:0:0:
28,267,221671,1,2,0:2:0:0:
115,239,221801,1,8,3:1:0:0:
243,329,222062,5,2,0:3:0:0:
307,371,222193,1,2,0:2:0:0:
427,297,222454,5,2,0:2:0:0:
490,256,222584,1,2,2:2:0:0:
320,164,222845,6,0,L|332:285,1,113.999996955872,8|2,3:1|0:2,0:0:0:0:
466,167,223106,1,2,0:2:0:0:
390,101,223237,1,2,0:2:0:0:
491,32,223367,5,2,3:2:0:0:
479,31,223497,1,2,0:2:0:0:
467,29,223628,1,2,0:3:0:0:
456,27,223758,1,2,0:2:0:0:
360,9,223889,2,0,P|250:21|104:41,1,227.999993911743,8|2,3:1|0:3,0:0:0:0:
22,26,224280,1,2,0:2:0:0:
8,8,224411,6,0,P|116:62|166:157,1,227.999993911743,0|2,3:0|2:2,0:0:0:0:
0,342,224932,2,0,L|403:305,1,341.999990867615,8|2,3:1|0:2,0:0:0:0:
437,345,225454,5,2,3:2:0:0:
