osu file format v14

[General]
AudioFilename: audio.mp3
AudioLeadIn: 0
PreviewTime: 43889
Countdown: 0
SampleSet: Soft
StackLeniency: 0.7
Mode: 0
LetterboxInBreaks: 0
WidescreenStoryboard: 1

[Editor]
Bookmarks: 25628,66845,100758,125280,141976
DistanceSpacing: 1.2
BeatDivisor: 4
GridSize: 16
TimelineZoom: 2

[Metadata]
Title:Stytsamen
TitleUnicode:Стыцамэн
Artist:Ivan Dorn
ArtistUnicode:Иван Дорн
Creator:Myah
Version:Froskya's Hard (feat. Ryxliee)
Source:
Tags:myahkey godsenger aishiteiru- aishiteiru froskya revialink ryxliee Co'N'Dorn pop electronic russian ukrainian русский украинский український поп не надо стесняться стыцамен stycamen stycaman stytsaman
BeatmapID:4033023
BeatmapSetID:1864947

[Difficulty]
HPDrainRate:4
CircleSize:4
OverallDifficulty:6
ApproachRate:7
SliderMultiplier:1.6
SliderTickRate:1

[Events]
//Background and Video events
0,0,"Music__056512_18.jpg",0,0
Video,0,"Stytsamen_new.mp4"
//Break Periods
2,16958,24728
2,42001,48728
2,117132,124158
2,183915,186467
//Storyboard Layer 0 (Background)
//Storyboard Layer 1 (Fail)
//Storyboard Layer 2 (Pass)
//Storyboard Layer 3 (Foreground)
//Storyboard Layer 4 (Overlay)
//Storyboard Sound Samples

[TimingPoints]
63,521.739130434783,4,2,1,50,1,0
3715,-100,4,2,2,50,0,0
4237,-100,4,2,1,50,0,0
12063,-100,4,2,2,50,0,0
12585,-100,4,2,1,50,0,0
16758,-100,4,2,1,30,0,0
25106,-100,4,2,1,50,0,0
25628,-100,4,2,1,60,0,0
28758,-100,4,2,2,60,0,0
29280,-100,4,2,1,60,0,0
33454,-100,4,2,1,60,0,0
33976,-100,4,2,1,60,0,0
37106,-100,4,2,2,60,0,0
37628,-100,4,2,1,60,0,0
41802,-125,4,2,1,30,0,0
49628,-100,4,2,2,75,0,0
49889,-100,4,2,1,75,0,0
50149,-86.9565217391304,4,2,1,75,0,1
53802,-86.9565217391304,4,2,2,75,0,1
54324,-86.9565217391304,4,2,1,75,0,1
57976,-86.9565217391304,4,2,2,75,0,1
58498,-86.9565217391304,4,2,1,75,0,1
62150,-86.9565217391304,4,2,2,75,0,1
63193,-86.9565217391304,4,2,1,75,0,1
66324,-86.9565217391304,4,2,2,75,0,1
67367,-86.9565217391304,4,2,1,75,0,1
70498,-86.9565217391304,4,2,2,75,0,1
71541,-86.9565217391304,4,2,1,75,0,1
74671,-86.9565217391304,4,2,2,75,0,1
75715,-86.9565217391304,4,2,1,75,0,1
78845,-86.9565217391304,4,2,2,75,0,1
79889,-86.9565217391304,4,2,1,75,0,1
83019,-86.9565217391304,4,2,2,75,0,1
83541,-100,4,2,1,40,0,0
91889,-100,4,2,1,50,0,0
100237,-100,4,2,1,60,0,0
100758,-100,4,2,2,60,0,0
101280,-100,4,2,1,60,0,0
108585,-100,4,2,1,60,0,0
109106,-100,4,2,1,60,0,0
112237,-100,4,2,2,60,0,0
112758,-100,4,2,1,60,0,0
116932,-100,4,2,1,30,0,0
124758,-100,4,2,2,75,0,0
125019,-100,4,2,1,75,0,0
125280,-86.9565217391304,4,2,1,75,0,1
128932,-86.9565217391304,4,2,2,75,0,1
129976,-86.9565217391304,4,2,1,75,0,1
133106,-86.9565217391304,4,2,2,75,0,1
134150,-86.9565217391304,4,2,1,75,0,1
137280,-86.9565217391304,4,2,2,75,0,1
138324,-86.9565217391304,4,2,1,75,0,1
141454,-86.9565217391304,4,2,2,75,0,1
142498,-86.9565217391304,4,2,1,75,0,1
145628,-86.9565217391304,4,2,2,75,0,1
146671,-86.9565217391304,4,2,1,75,0,1
149802,-86.9565217391304,4,2,2,75,0,1
150845,-86.9565217391304,4,2,1,75,0,1
153976,-86.9565217391304,4,2,2,75,0,1
155019,-86.9565217391304,4,2,1,75,0,1
158150,-86.9565217391304,4,2,2,75,0,1
158671,-100,4,2,1,50,0,0
165454,-100,4,2,2,50,0,0
166758,-100,4,2,1,50,0,0
167019,-90.9090909090909,4,2,1,85,0,1
170671,-90.9090909090909,4,2,2,85,0,1
171715,-90.9090909090909,4,2,1,85,0,1
174845,-90.9090909090909,4,2,2,85,0,1
175889,-90.9090909090909,4,2,1,85,0,1
179019,-90.9090909090909,4,2,2,85,0,1
180063,-90.9090909090909,4,2,1,85,0,1
183193,-90.9090909090909,4,2,2,85,0,1
183715,-100,4,2,1,100,0,0
187367,-100,4,2,2,75,0,0
187628,-100,4,2,1,75,0,0
187889,-100,4,2,1,60,0,0
191541,-100,4,2,2,85,0,0
191802,-100,4,2,1,85,0,0
192063,-86.9565217391304,4,2,1,85,0,1
195715,-86.9565217391304,4,2,2,85,0,1
196758,-86.9565217391304,4,2,1,85,0,1
199889,-86.9565217391304,4,2,2,85,0,1
200932,-86.9565217391304,4,2,1,85,0,1
204063,-86.9565217391304,4,2,2,85,0,1
205106,-86.9565217391304,4,2,1,85,0,1
208237,-86.9565217391304,4,2,2,85,0,1
209280,-86.9565217391304,4,2,1,85,0,1
212411,-86.9565217391304,4,2,2,85,0,1
213454,-86.9565217391304,4,2,1,85,0,1
216585,-86.9565217391304,4,2,2,85,0,1
217628,-86.9565217391304,4,2,1,85,0,1
220758,-86.9565217391304,4,2,2,85,0,1
221802,-86.9565217391304,4,2,1,85,0,1
224932,-86.9565217391304,4,2,2,85,0,1
225454,-100,4,2,2,85,0,0

[Colours]
Combo1 : 231,165,99
Combo2 : 187,189,121

[HitObjects]
74,370,63,5,2,0:1:0:0:
74,370,585,2,0,P|65:328|53:278,1,80,8|0,3:1|0:0,0:0:0:0:
24,263,976,1,2,0:0:0:0:
24,263,1106,2,0,P|33:221|45:171,1,80,0|2,3:0|0:0,0:0:0:0:
103,110,1628,2,0,P|143:114|170:158,1,80,8|0,3:1|0:0,0:0:0:0:
208,167,2019,2,0,P|198:217|237:284,1,120,2|0,0:0|0:0,0:0:0:0:
290,349,2671,5,8,3:1:0:0:
379,306,2932,1,0,0:0:0:0:
379,306,3063,1,2,0:0:0:0:
379,306,3193,2,0,P|390:343|401:391,1,80,0|2,3:0|0:0,0:0:0:0:
465,312,3715,2,0,B|458:243|427:277|415:207,1,120,8|0,3:1|0:0,0:0:0:0:
455,180,4237,2,0,P|475:150|462:99,1,80,2|0,3:2|0:0,0:0:0:0:
412,30,4758,6,0,P|372:44|302:64,1,80,8|0,3:1|0:0,0:0:0:0:
309,96,5150,1,2,0:0:0:0:
309,96,5280,2,0,P|269:82|199:62,1,80,0|2,3:0|0:0,0:0:0:0:
155,13,5802,1,8,3:1:0:0:
98,90,6063,2,0,P|112:126|125:176,1,80,0|2,0:0|3:2,0:0:0:0:
203,218,6585,1,0,0:0:0:0:
172,309,6846,6,0,P|135:329|92:319,1,80,8|0,3:1|0:0,0:0:0:0:
60,350,7237,1,2,0:0:0:0:
60,350,7367,2,0,P|24:327|11:285,1,80,0|2,3:0|0:0,0:0:0:0:
47,209,7889,5,8,3:1:0:0:
47,209,8019,1,2,0:0:0:0:
47,209,8150,2,0,B|80:201|80:201|94:208|94:208|136:194,1,80,8|2,0:1|0:1,0:0:0:0:
266,70,8932,5,8,3:1:0:0:
357,123,9193,1,0,0:0:0:0:
357,123,9323,1,2,0:0:0:0:
357,123,9454,1,0,3:0:0:0:
429,59,9715,1,2,0:0:0:0:
498,124,9975,2,0,P|490:164|481:208,1,80,8|0,3:1|0:0,0:0:0:0:
442,230,10367,2,0,P|489:277|479:355,1,120,2|0,0:0|0:0,0:0:0:0:
398,351,11019,6,0,P|358:342|319:335,1,80,8|0,3:1|0:0,0:0:0:0:
279,362,11410,1,2,0:0:0:0:
279,362,11541,2,0,P|239:370|200:377,1,80,0|2,3:0|0:0,0:0:0:0:
120,323,12062,2,0,L|130:285,1,40,8|2,3:1|0:0,0:0:0:0:
142,237,12323,1,0,0:0:0:0:
206,165,12584,6,0,B|263:176|248:208|308:223,1,120,2|0,3:2|0:0,0:0:0:0:
335,263,13106,2,0,P|370:255|395:210,1,80,8|0,3:1|0:0,0:0:0:0:
435,194,13497,1,2,0:0:0:0:
435,194,13627,1,0,3:0:0:0:
366,126,13888,1,2,0:0:0:0:
421,47,14149,2,0,L|477:60,1,40,8|2,3:1|0:0,0:0:0:0:
504,75,14410,2,0,L|495:113,1,40,0|2,0:0|0:0,0:0:0:0:
481,157,14671,6,0,L|329:115,1,120,2|0,3:2|0:0,0:0:0:0:
333,89,15193,1,8,3:1:0:0:
250,131,15454,1,0,0:0:0:0:
250,131,15584,1,2,0:0:0:0:
250,131,15714,2,0,P|242:175|272:212,1,80,0|2,3:0|0:0,0:0:0:0:
346,265,16237,5,8,3:1:0:0:
346,265,16367,1,2,0:0:0:0:
346,265,16498,2,0,B|338:298|338:298|345:312|345:312|331:354,1,80,8|0,0:1|3:0,0:0:0:0:
98,87,25628,6,0,L|183:99,1,80,8|2,3:1|0:3,0:0:0:0:
212,66,26019,1,2,0:0:0:0:
212,66,26150,2,0,L|291:54,1,80,0|2,3:0|0:0,0:0:0:0:
364,116,26671,2,0,P|339:156|356:204,1,80,8|0,3:1|0:0,0:0:0:0:
366,229,27063,2,0,P|313:204|261:230,1,120,2|2,0:0|0:3,0:0:0:0:
204,307,27715,5,8,3:1:0:0:
121,280,27976,1,2,0:3:0:0:
121,280,28106,1,2,0:0:0:0:
121,280,28237,2,0,L|132:367,1,80,0|2,3:0|0:0,0:0:0:0:
42,321,28758,2,0,B|31:230|31:230|-5:210,1,120,8|0,3:1|0:0,0:0:0:0:
27,173,29280,2,0,B|63:189|63:189|110:163,1,80,2|2,3:2|0:3,0:0:0:0:
160,96,29802,6,0,P|198:93|230:121,1,80,8|2,3:1|0:3,0:0:0:0:
279,112,30193,1,2,0:0:0:0:
279,112,30324,2,0,P|303:141|298:183,1,80,0|2,3:0|0:0,0:0:0:0:
226,243,30845,1,8,3:1:0:0:
277,323,31106,2,0,L|361:311,1,80,0|2,0:0|3:2,0:0:0:0:
392,280,31498,1,0,0:0:0:0:
392,280,31628,1,2,0:3:0:0:
470,334,31889,6,0,L|480:254,1,80,8|2,3:1|0:3,0:0:0:0:
454,219,32280,1,2,0:0:0:0:
454,219,32411,2,0,L|443:139,1,80,0|2,3:0|0:0,0:0:0:0:
431,44,32932,6,0,B|391:50|391:50|383:59|383:59|344:66|344:66|335:77|335:77|282:86,1,160,10|2,3:1|0:1,0:0:0:0:
282,85,33976,5,8,3:1:0:0:
197,38,34237,1,2,0:3:0:0:
197,38,34367,1,2,0:0:0:0:
197,38,34498,1,0,3:0:0:0:
146,119,34759,1,2,0:0:0:0:
224,176,35019,2,0,P|216:216|207:260,1,80,8|0,3:1|0:0,0:0:0:0:
233,295,35411,2,0,P|220:350|165:357,1,120,2|2,0:0|0:3,0:0:0:0:
71,334,36063,6,0,P|62:294|55:255,1,80,8|2,3:1|0:3,0:0:0:0:
82,215,36454,1,2,0:0:0:0:
82,215,36585,2,0,P|90:175|97:136,1,80,0|2,3:0|0:0,0:0:0:0:
116,42,37106,2,0,L|154:32,1,40,8|2,3:1|0:0,0:0:0:0:
201,22,37367,1,0,0:0:0:0:
243,108,37628,6,0,P|290:122|366:144,1,120,2|0,3:2|0:0,0:0:0:0:
374,96,38150,2,0,L|398:15,1,80,8|2,3:1|0:3,0:0:0:0:
446,5,38541,1,2,0:0:0:0:
446,5,38671,1,0,3:0:0:0:
494,88,38932,1,2,0:0:0:0:
467,180,39193,2,0,L|454:236,1,40,8|2,3:1|0:0,0:0:0:0:
446,265,39454,2,0,L|484:274,2,40,0|2|2,0:0|0:0|3:2,0:0:0:0:
405,291,39845,6,0,B|344:303|368:329|302:349,1,120,0|8,0:0|3:1,0:0:0:0:
210,319,40498,1,2,0:3:0:0:
210,319,40628,1,2,0:0:0:0:
210,319,40758,2,0,P|227:279|199:241,1,80,0|2,3:0|0:0,0:0:0:0:
119,218,41280,6,2,B|113:178|113:178|104:170|104:170|97:131|97:131|86:122|86:122|77:69,1,160,10|0,3:1|3:0,0:1:0:0:
501,54,49628,6,0,L|449:42,1,40,8|0,3:1|0:0,0:0:0:0:
438,84,49889,2,0,L|399:92,1,40,8|0,0:0|0:0,0:0:0:0:
359,54,50149,6,0,L|254:36,1,92.0000017547608,2|2,3:2|0:3,0:0:0:0:
222,67,50541,1,2,0:2:0:0:
222,67,50671,1,8,3:1:0:0:
289,155,50932,2,0,L|300:221,1,46.0000008773804,2|2,0:3|0:2,0:0:0:0:
302,255,51193,2,0,P|257:250|225:292,1,92.0000017547608,0|2,3:0|2:0,0:0:0:0:
191,323,51585,1,0,0:0:0:0:
191,323,51715,2,0,P|145:328|113:286,1,92.0000017547608,8|0,3:1|0:0,0:0:0:0:
24,234,52237,6,0,L|8:290,2,46.0000008773804,2|2|2,3:2|0:2|0:3,0:0:0:0:
7,185,52628,1,2,0:2:0:0:
7,185,52758,2,0,P|38:153|82:159,1,92.0000017547608,8|2,3:1|0:3,0:0:0:0:
125,194,53150,1,2,0:2:0:0:
125,194,53280,2,0,L|152:91,1,92.0000017547608,0|2,3:0|2:0,0:0:0:0:
239,42,53802,2,0,L|247:100,1,46.0000008773804,8|0,3:1|0:0,0:0:0:0:
253,142,54063,1,0,0:0:0:0:
221,247,54324,6,0,B|242:250|242:250|259:292|259:292|315:303|315:303|325:286,1,138.000002632141,2|2,3:2|0:2,0:0:0:0:
370,264,54845,2,0,B|355:308|355:308|384:359,1,92.0000017547608,8|2,3:1|0:3,0:0:0:0:
433,343,55237,2,0,B|448:299|448:299|425:259,1,92.0000017547608,2|2,0:2|0:2,0:0:0:0:
392,214,55628,1,2,2:2:0:0:
459,126,55889,2,0,L|414:117,1,46.0000008773804,8|2,3:1|0:2,0:0:0:0:
395,64,56150,2,0,L|350:73,1,46.0000008773804,2|2,0:2|0:2,0:0:0:0:
310,111,56411,6,0,B|289:108|289:108|272:66|272:66|216:55|216:55|206:72,1,138.000002632141,2|2,3:2|0:2,0:0:0:0:
156,85,56932,2,0,P|166:128|140:163,1,92.0000017547608,8|2,3:1|0:3,0:0:0:0:
85,152,57324,2,0,P|74:108|100:73,1,92.0000017547608,2|2,0:2|0:2,0:0:0:0:
138,32,57715,1,2,2:2:0:0:
247,48,57976,2,0,L|291:56,1,46.0000008773804,8|2,3:1|0:2,0:0:0:0:
317,105,58237,2,0,L|361:113,1,46.0000008773804,2|2,0:2|0:2,0:0:0:0:
398,154,58498,6,0,B|375:179|375:179|384:236,1,92.0000017547608,2|2,3:2|0:3,0:0:0:0:
398,294,58889,1,2,0:2:0:0:
398,294,59019,1,8,3:1:0:0:
307,357,59280,2,0,L|262:351,1,46.0000008773804,2|2,0:3|0:2,0:0:0:0:
217,321,59541,2,0,L|113:336,1,92.0000017547608,0|2,3:0|2:0,0:0:0:0:
90,298,59932,1,0,0:0:0:0:
89,297,60063,2,0,P|95:253|134:225,1,92.0000017547608,8|0,3:1|0:0,0:0:0:0:
238,200,60585,6,0,L|251:261,2,46.0000008773804,2|2|2,3:2|0:2|0:3,0:0:0:0:
272,157,60976,1,2,0:2:0:0:
272,157,61106,2,0,B|322:152|309:181|360:177,1,92.0000017547608,8|2,3:1|0:3,0:0:0:0:
411,208,61498,1,2,0:2:0:0:
411,208,61628,2,0,P|424:152|435:113,1,92.0000017547608,0|2,3:0|2:0,0:0:0:0:
457,10,62150,2,0,L|388:25,1,46.0000008773804,8|0,3:1|0:0,0:0:0:0:
358,34,62411,1,0,0:0:0:0:
296,125,62671,6,0,B|275:122|275:122|258:80|258:80|202:69|202:69|192:86,1,138.000002632141,2|2,3:2|0:2,0:0:0:0:
155,120,63193,2,0,L|132:23,1,92.0000017547608,8|2,3:1|0:3,0:0:0:0:
79,44,63585,2,0,L|102:141,1,92.0000017547608,2|2,0:2|0:2,0:0:0:0:
139,173,63976,1,2,2:2:0:0:
115,280,64236,2,0,L|160:271,1,46.0000008773804,8|2,3:1|0:2,0:0:0:0:
188,318,64497,2,0,L|233:327,1,46.0000008773804,2|2,0:2|0:2,0:0:0:0:
263,280,64758,6,0,B|284:277|284:277|301:235|301:235|357:224|357:224|367:241,1,138.000002632141,2|2,3:2|0:2,0:0:0:0:
403,275,65280,2,0,P|375:310|381:355,1,92.0000017547608,8|2,3:1|0:3,0:0:0:0:
434,370,65671,2,0,P|461:334|455:289,1,92.0000017547608,2|2,0:2|0:2,0:0:0:0:
440,236,66063,1,2,2:2:0:0:
501,144,66324,2,0,L|456:135,1,46.0000008773804,8|2,3:1|0:2,0:0:0:0:
431,87,66585,2,0,L|386:78,1,46.0000008773804,2|2,0:2|0:2,0:0:0:0:
344,42,66845,6,0,L|326:133,1,92.0000017547608,2|2,3:2|0:3,0:0:0:0:
290,175,67236,1,2,0:2:0:0:
290,175,67366,1,8,3:1:0:0:
372,248,67627,2,0,L|383:314,1,46.0000008773804,2|2,0:3|0:2,0:0:0:0:
400,344,67888,2,0,P|368:375|324:369,1,92.0000017547608,0|2,3:0|2:0,0:0:0:0:
302,323,68280,1,0,0:0:0:0:
302,323,68410,2,0,P|270:291|226:297,1,92.0000017547608,8|0,3:1|0:0,0:0:0:0:
124,339,68932,6,0,L|140:395,2,46.0000008773804,2|2|2,3:2|0:2|0:3,0:0:0:0:
86,305,69323,1,2,0:2:0:0:
86,305,69454,2,0,L|113:202,1,92.0000017547608,8|2,3:1|0:3,0:0:0:0:
152,180,69845,1,2,0:2:0:0:
152,180,69975,2,0,P|126:144|49:151,1,92.0000017547608,0|2,3:0|2:0,0:0:0:0:
2,57,70497,2,0,P|26:54|53:40,1,46.0000008773804,8|0,3:1|0:0,0:0:0:0:
96,22,70758,1,0,0:0:0:0:
190,78,71019,6,0,B|211:81|211:81|228:123|228:123|284:134|284:134|294:117,1,138.000002632141,2|2,3:2|0:2,0:0:0:0:
344,104,71540,2,0,P|334:61|360:26,1,92.0000017547608,8|2,3:1|0:3,0:0:0:0:
415,37,71932,2,0,P|426:81|400:116,1,92.0000017547608,2|2,0:2|0:2,0:0:0:0:
362,157,72323,1,2,2:2:0:0:
434,239,72584,2,0,L|389:248,1,46.0000008773804,8|2,3:1|0:2,0:0:0:0:
370,301,72845,2,0,L|325:292,1,46.0000008773804,2|2,0:2|0:2,0:0:0:0:
283,254,73106,6,0,B|262:257|262:257|245:299|245:299|189:310|189:310|179:293,1,138.000002632141,2|2,3:2|0:2,0:0:0:0:
142,259,73628,2,0,L|119:356,1,92.0000017547608,8|2,3:1|0:3,0:0:0:0:
66,335,74020,2,0,L|89:238,1,92.0000017547608,2|2,0:2|0:2,0:0:0:0:
126,206,74411,1,2,2:2:0:0:
102,99,74671,2,0,L|147:108,1,46.0000008773804,8|2,3:1|0:2,0:0:0:0:
175,61,74932,2,0,L|220:52,1,46.0000008773804,2|2,0:2|0:2,0:0:0:0:
268,79,75193,6,0,B|293:56|293:56|350:65,1,92.0000017547608,2|2,3:2|0:3,0:0:0:0:
408,60,75584,1,2,0:2:0:0:
408,60,75714,1,8,3:1:0:0:
505,111,75975,2,0,L|499:156,1,46.0000008773804,2|2,0:3|0:2,0:0:0:0:
469,201,76236,2,0,L|484:305,1,92.0000017547608,0|2,3:0|2:0,0:0:0:0:
451,339,76627,1,0,0:0:0:0:
451,339,76758,2,0,P|407:333|379:294,1,92.0000017547608,8|0,3:1|0:0,0:0:0:0:
321,202,77280,6,0,L|334:141,2,46.0000008773804,2|2|2,3:2|0:2|0:3,0:0:0:0:
292,250,77671,1,2,0:2:0:0:
292,250,77801,2,0,B|242:255|255:226|204:230,1,92.0000017547608,8|2,3:1|0:3,0:0:0:0:
154,219,78193,1,2,0:2:0:0:
154,219,78323,2,0,L|130:314,1,92.0000017547608,0|2,3:0|2:0,0:0:0:0:
44,377,78845,2,0,L|29:308,1,46.0000008773804,8|0,3:1|0:0,0:0:0:0:
21,278,79106,1,0,0:0:0:0:
125,242,79367,6,0,B|146:245|146:245|163:287|163:287|219:298|219:298|229:281,1,138.000002632141,2|2,3:2|0:2,0:0:0:0:
274,259,79888,2,0,B|259:303|259:303|288:354,1,92.0000017547608,8|2,3:1|0:3,0:0:0:0:
337,338,80280,2,0,B|352:294|352:294|329:254,1,92.0000017547608,2|2,0:2|0:2,0:0:0:0:
296,209,80671,1,2,2:2:0:0:
363,121,80932,2,0,L|318:112,1,46.0000008773804,8|2,3:1|0:2,0:0:0:0:
299,59,81193,2,0,L|254:68,1,46.0000008773804,2|2,0:2|0:2,0:0:0:0:
224,115,81454,6,0,B|203:112|203:112|186:70|186:70|130:59|130:59|120:76,1,138.000002632141,2|2,3:2|0:2,0:0:0:0:
77,104,81976,2,0,L|54:7,1,92.0000017547608,8|2,3:1|0:3,0:0:0:0:
1,28,82368,2,0,L|24:125,1,92.0000017547608,2|2,0:2|0:2,0:0:0:0:
61,157,82759,1,2,2:2:0:0:
23,260,83019,2,0,L|68:251,1,46.0000008773804,8|2,3:1|0:2,0:0:0:0:
96,298,83280,2,0,L|141:307,1,46.0000008773804,2|2,0:2|0:2,0:0:0:0:
182,281,83541,5,2,0:2:0:0:
353,366,84063,1,2,0:2:0:0:
483,304,84454,2,0,P|501:253|450:186,2,120,2|2|2,0:2|0:2|0:2,0:0:0:0:
406,254,85498,1,2,0:2:0:0:
406,254,85628,5,2,0:2:0:0:
502,88,86150,1,2,0:2:0:0:
375,20,86541,2,0,P|313:37|249:50,2,120,2|2|2,0:2|0:2|0:2,0:0:0:0:
502,88,87715,5,2,0:2:0:0:
331,173,88237,1,2,0:2:0:0:
201,111,88628,2,0,P|176:62|219:-10,2,120,2|2|2,0:2|0:2|0:2,0:0:0:0:
278,61,89672,1,2,0:2:0:0:
278,61,89802,5,2,0:2:0:0:
182,227,90324,1,2,0:2:0:0:
309,295,90715,2,0,P|371:278|435:265,2,120,2|2|2,0:2|0:2|0:2,0:0:0:0:
174,346,91889,6,0,L|187:383,2,40,0|0|0,3:0|0:0|0:0,0:0:0:0:
141,318,92280,1,0,0:0:0:0:
141,318,92411,2,0,L|170:220,1,80,10|0,3:1|0:0,0:0:0:0:
196,205,92802,1,2,0:1:0:0:
196,205,92932,2,0,P|171:170|127:162,1,80,0|2,3:0|0:1,0:0:0:0:
47,197,93454,2,0,L|32:129,1,40,8|2,3:1|0:1,0:0:0:0:
3,124,93715,2,0,L|18:56,1,40
53,60,93976,6,0,L|41:12,2,40,0|0|0,3:0|0:0|0:0,0:0:0:0:
87,93,94367,1,0,0:0:0:0:
87,93,94498,2,0,L|182:76,1,80,10|0,3:1|0:0,0:0:0:0:
208,54,94889,1,2,0:1:0:0:
208,54,95019,1,0,3:0:0:0:
279,117,95280,2,0,L|270:160,1,40,2|0,0:1|0:0,0:0:0:0:
302,192,95541,2,0,L|323:280,1,80,8|0,3:1|0:0,0:0:0:0:
274,354,96063,6,0,L|235:344,2,40,0|0|0,3:0|0:0|0:0,0:0:0:0:
317,384,96454,1,0,0:0:0:0:
317,384,96585,2,0,L|410:370,1,80,10|0,3:1|0:0,0:0:0:0:
444,358,96976,1,2,0:1:0:0:
444,358,97106,2,0,P|461:324|448:272,1,80,0|2,3:0|0:1,0:0:0:0:
445,187,97628,2,0,L|387:203,1,40,8|2,3:1|0:1,0:0:0:0:
374,233,97889,2,0,L|316:217,1,40
299,208,98150,5,0,3:0:0:0:
299,208,98280,1,0,0:0:0:0:
299,208,98411,1,0,0:0:0:0:
237,134,98671,2,0,L|248:81,1,40,10|0,3:1|0:0,0:0:0:0:
257,48,98932,1,0,0:0:0:0:
338,98,99193,1,0,0:0:0:0:
166,10,99715,6,0,B|75:28|136:105|21:115,1,160,0|2,0:0|0:1,0:0:0:0:
51,109,100758,6,0,P|62:155|73:216,1,80,8|2,3:1|0:3,0:0:0:0:
106,217,101150,1,2,0:0:0:0:
106,217,101280,2,0,P|95:263|84:324,1,80,0|2,3:0|0:0,0:0:0:0:
179,366,101802,2,0,P|214:330|209:290,1,80,8|0,3:1|0:0,0:0:0:0:
187,262,102193,2,0,P|250:284|297:241,1,120,2|2,0:0|0:3,0:0:0:0:
320,165,102845,6,0,L|312:112,1,40,8|0,3:1|0:0,0:0:0:0:
355,100,103106,2,0,L|363:47,1,40,2|2,0:3|0:0,0:0:0:0:
337,14,103367,1,0,3:0:0:0:
432,0,103628,1,2,0:0:0:0:
480,83,103889,2,0,B|449:105|449:105|435:189,1,120,8|0,3:1|0:0,0:0:0:0:
481,200,104411,2,0,B|464:293,1,80,2|2,3:2|0:3,0:0:0:0:
395,343,104932,6,0,P|357:346|325:318,1,80,8|2,3:1|0:3,0:0:0:0:
276,327,105323,1,2,0:0:0:0:
276,327,105454,2,0,P|252:298|257:256,1,80,0|2,3:0|0:0,0:0:0:0:
324,189,105976,1,8,3:1:0:0:
240,140,106237,2,0,L|225:42,1,80,0|2,0:0|3:2,0:0:0:0:
195,32,106628,1,0,0:0:0:0:
195,32,106758,1,2,0:3:0:0:
99,44,107019,6,0,B|80:59|80:59|89:128,1,80,8|2,3:1|0:3,0:0:0:0:
126,150,107411,1,2,0:0:0:0:
126,150,107541,2,0,B|145:165|145:165|136:234,1,80,0|2,3:0|0:0,0:0:0:0:
122,315,108063,6,0,B|162:309|162:309|170:300|170:300|209:293|209:293|218:282|218:282|271:273,1,160,10|2,3:1|0:1,0:0:0:0:
270,273,109106,5,8,3:1:0:0:
230,196,109367,1,2,0:3:0:0:
230,196,109498,1,2,0:0:0:0:
230,196,109628,1,0,3:0:0:0:
313,148,109889,1,2,0:0:0:0:
271,60,110150,2,0,P|302:38|341:41,1,80,8|0,3:1|0:0,0:0:0:0:
382,67,110541,2,0,P|393:128|410:199,1,120,2|2,0:0|0:3,0:0:0:0:
427,278,111193,6,0,P|387:274|356:297,1,80,8|2,3:1|0:3,0:0:0:0:
330,338,111585,1,2,0:0:0:0:
330,338,111715,2,0,P|290:341|259:318,1,80,0|2,3:0|0:0,0:0:0:0:
220,229,112237,2,0,L|164:237,1,40,8|2,3:1|0:0,0:0:0:0:
132,244,112498,1,0,0:0:0:0:
67,314,112758,6,0,P|27:250|56:192,1,120,2|0,3:2|0:0,0:0:0:0:
68,174,113280,1,8,3:1:0:0:
38,71,113541,2,0,L|87:79,1,40,2|2,0:3|0:0,0:0:0:0:
112,44,113802,2,0,L|200:30,1,80,0|2,3:0|0:0,0:0:0:0:
239,114,114324,2,0,L|231:163,1,40,8|2,3:1|0:0,0:0:0:0:
224,200,114585,2,0,L|175:208,2,40,0|2|2,0:0|0:0|3:2,0:0:0:0:
257,234,114976,6,0,B|339:222|339:222|384:272,1,120,0|8,0:0|3:1,0:0:0:0:
316,335,115628,1,2,0:3:0:0:
316,335,115758,1,2,0:0:0:0:
316,335,115889,2,0,L|222:350,1,80,0|2,3:0|0:0,0:0:0:0:
142,355,116411,6,2,B|148:315|148:315|157:307|157:307|164:268|164:268|175:259|175:259|184:206,1,160,10|0,3:1|3:0,0:1:0:0:
153,352,125280,6,0,L|171:261,1,92.0000017547608,2|2,3:2|0:3,0:0:0:0:
217,230,125671,1,2,0:2:0:0:
217,230,125801,1,8,3:1:0:0:
131,160,126062,2,0,L|120:94,1,46.0000008773804,2|2,0:3|0:2,0:0:0:0:
94,67,126323,2,0,P|126:36|170:42,1,92.0000017547608,0|2,3:0|2:0,0:0:0:0:
205,91,126715,1,0,0:0:0:0:
205,91,126845,2,0,P|237:123|281:117,1,92.0000017547608,8|0,3:1|0:0,0:0:0:0:
364,44,127367,6,0,L|351:-1,2,46.0000008773804,2|2|2,3:2|0:2|0:3,0:0:0:0:
416,74,127758,1,2,0:2:0:0:
416,74,127889,2,0,L|389:177,1,92.0000017547608,8|2,3:1|0:3,0:0:0:0:
353,201,128280,1,2,0:2:0:0:
353,201,128410,2,0,P|379:237|456:230,1,92.0000017547608,0|2,3:0|2:0,0:0:0:0:
509,316,128932,2,0,P|485:319|458:333,1,46.0000008773804,8|0,3:1|0:0,0:0:0:0:
429,370,129193,1,0,0:0:0:0:
329,322,129454,6,0,B|308:319|308:319|291:277|291:277|235:266|235:266|225:283,1,138.000002632141,2|2,3:2|0:2,0:0:0:0:
172,281,129976,2,0,L|193:370,1,92.0000017547608,8|2,3:1|0:3,0:0:0:0:
138,384,130368,2,0,L|116:294,1,92.0000017547608,2|2,0:2|0:2,0:0:0:0:
133,241,130759,1,2,2:2:0:0:
56,161,131020,2,0,L|101:152,1,46.0000008773804,8|2,3:1|0:2,0:0:0:0:
120,99,131281,2,0,L|165:108,1,46.0000008773804,2|2,0:2|0:2,0:0:0:0:
198,152,131542,6,0,B|219:149|219:149|236:107|236:107|292:96|292:96|302:113,1,138.000002632141,2|2,3:2|0:2,0:0:0:0:
351,125,132063,2,0,B|336:81|336:81|365:30,1,92.0000017547608,8|2,3:1|0:3,0:0:0:0:
414,46,132455,2,0,B|429:90|429:90|406:130,1,92.0000017547608,2|2,0:2|0:2,0:0:0:0:
373,175,132846,1,2,2:2:0:0:
406,279,133106,2,0,L|362:271,1,46.0000008773804,8|2,3:1|0:2,0:0:0:0:
320,309,133367,2,0,L|276:317,1,46.0000008773804,2|2,0:2|0:2,0:0:0:0:
231,351,133628,6,0,B|208:326|208:326|217:269,1,92.0000017547608,2|2,3:2|0:3,0:0:0:0:
253,227,134020,1,2,0:2:0:0:
253,227,134150,1,8,3:1:0:0:
267,117,134410,2,0,L|222:123,1,46.0000008773804,2|2,0:3|0:2,0:0:0:0:
181,161,134671,2,0,L|77:146,1,92.0000017547608,0|2,3:0|2:0,0:0:0:0:
55,110,135062,1,0,0:0:0:0:
55,110,135193,2,0,P|62:65|98:38,1,92.0000017547608,8|0,3:1|0:0,0:0:0:0:
207,45,135715,6,0,L|220:-16,2,46.0000008773804,2|2|2,3:2|0:2|0:3,0:0:0:0:
172,89,136106,1,2,0:2:0:0:
172,89,136236,2,0,B|196:187,1,92.0000017547608,8|2,3:1|0:3,0:0:0:0:
242,215,136628,1,2,0:2:0:0:
242,215,136758,2,0,P|216:251|139:244,1,92.0000017547608,0|2,3:0|2:0,0:0:0:0:
81,325,137280,2,0,P|105:328|132:342,1,46.0000008773804,8|0,3:1|0:0,0:0:0:0:
161,379,137541,1,0,0:0:0:0:
226,290,137802,6,0,B|247:293|247:293|264:335|264:335|320:346|320:346|330:329,1,138.000002632141,2|2,3:2|0:2,0:0:0:0:
367,295,138324,2,0,L|390:392,1,92.0000017547608,8|2,3:1|0:3,0:0:0:0:
443,371,138716,2,0,L|420:274,1,92.0000017547608,2|2,0:2|0:2,0:0:0:0:
383,242,139107,1,2,2:2:0:0:
407,134,139367,2,0,L|362:125,1,46.0000008773804,8|2,3:1|0:2,0:0:0:0:
330,79,139628,2,0,L|285:88,1,46.0000008773804,2|2,0:2|0:2,0:0:0:0:
251,132,139889,6,0,B|230:129|230:129|213:87|213:87|157:76|157:76|147:93,1,138.000002632141,2|2,3:2|0:2,0:0:0:0:
105,121,140411,2,0,P|110:76|83:40,1,92.0000017547608,8|2,3:1|0:3,0:0:0:0:
30,56,140803,2,0,P|24:100|52:135,1,92.0000017547608,2|2,0:2|0:2,0:0:0:0:
89,175,141194,1,2,2:2:0:0:
52,278,141454,2,0,L|97:269,1,46.0000008773804,8|2,3:1|0:2,0:0:0:0:
125,316,141715,2,0,L|170:325,1,46.0000008773804,2|2,0:2|0:2,0:0:0:0:
208,284,141976,6,0,B|245:280|245:280|262:291|262:291|296:287,1,92.0000017547608,2|2,3:2|0:3,0:0:0:0:
346,322,142367,1,2,0:2:0:0:
346,322,142498,1,8,3:1:0:0:
433,255,142758,2,0,P|439:227|423:203,1,46.0000008773804,2|2,0:3|0:2,0:0:0:0:
397,169,143019,2,0,P|351:175|306:185,1,92.0000017547608,0|2,3:0|2:0,0:0:0:0:
278,143,143411,1,0,0:0:0:0:
278,143,143541,2,0,P|233:132|187:126,1,92.0000017547608,8|0,3:1|0:0,0:0:0:0:
110,45,144063,6,0,P|127:29|149:23,2,46.0000008773804,2|2|2,3:2|0:2|0:3,0:0:0:0:
68,79,144454,1,2,0:2:0:0:
68,79,144585,2,0,P|80:123|88:168,1,92.0000017547608,8|2,3:1|0:3,0:0:0:0:
101,226,144976,1,2,0:2:0:0:
101,226,145106,2,0,P|143:214|174:244,1,92.0000017547608,0|2,3:0|2:0,0:0:0:0:
255,320,145628,2,0,L|261:270,1,46.0000008773804,8|0,3:1|0:0,0:0:0:0:
267,220,145889,1,0,0:0:0:0:
348,145,146150,6,0,B|327:142|327:142|310:100|310:100|254:89|254:89|244:106,1,138.000002632141,2|2,3:2|0:2,0:0:0:0:
199,128,146671,2,0,B|214:84|214:84|185:33,1,92.0000017547608,8|2,3:1|0:3,0:0:0:0:
136,49,147063,2,0,B|121:93|121:93|144:133,1,92.0000017547608,2|2,0:2|0:2,0:0:0:0:
177,178,147454,1,2,2:2:0:0:
133,274,147715,2,0,L|178:265,1,46.0000008773804,8|2,3:1|0:2,0:0:0:0:
200,315,147976,2,0,L|245:324,1,46.0000008773804,2|2,0:2|0:2,0:0:0:0:
275,277,148237,6,0,B|296:274|296:274|313:232|313:232|369:221|369:221|379:238,1,138.000002632141,2|2,3:2|0:2,0:0:0:0:
429,251,148758,2,0,P|419:294|445:329,1,92.0000017547608,8|2,3:1|0:3,0:0:0:0:
496,318,149150,2,0,P|507:274|481:239,1,92.0000017547608,2|2,0:2|0:2,0:0:0:0:
447,198,149541,1,2,2:2:0:0:
422,90,149802,2,0,L|378:98,1,46.0000008773804,8|2,3:1|0:2,0:0:0:0:
336,60,150063,2,0,L|292:68,1,46.0000008773804,2|2,0:2|0:2,0:0:0:0:
263,116,150324,6,0,P|226:90|183:102,1,92.0000017547608,2|2,3:2|0:3,0:0:0:0:
144,141,150715,1,2,0:2:0:0:
144,141,150845,1,8,3:1:0:0:
197,237,151106,2,0,L|184:299,1,46.0000008773804,2|2,0:3|0:2,0:0:0:0:
172,335,151367,2,0,B|147:314|147:314|73:327,1,92.0000017547608,0|2,3:0|2:0,0:0:0:0:
38,342,151758,1,0,0:0:0:0:
38,342,151889,2,0,L|56:251,1,92.0000017547608,8|0,3:1|0:0,0:0:0:0:
76,142,152411,6,0,L|27:150,2,46.0000008773804,2|2|2,3:2|0:2|0:3,0:0:0:0:
107,97,152802,1,2,0:2:0:0:
107,97,152932,2,0,B|144:124|144:124|189:116,1,92.0000017547608,8|2,3:1|0:3,0:0:0:0:
222,72,153324,1,2,0:2:0:0:
222,72,153454,2,0,L|312:87,1,92.0000017547608,0|2,3:0|2:0,0:0:0:0:
420,62,153976,2,0,L|427:107,1,46.0000008773804,8|0,3:1|0:0,0:0:0:0:
436,162,154237,1,0,0:0:0:0:
496,254,154498,6,0,B|475:257|475:257|458:299|458:299|402:310|402:310|392:293,1,138.000002632141,2|2,3:2|0:2,0:0:0:0:
355,259,155020,2,0,L|332:356,1,92.0000017547608,8|2,3:1|0:3,0:0:0:0:
279,335,155410,2,0,L|302:232,1,92.0000017547608,2|2,0:2|0:2,0:0:0:0:
339,206,155803,1,2,2:2:0:0:
365,99,156063,2,0,L|320:108,1,46.0000008773804,8|2,3:1|0:2,0:0:0:0:
292,61,156324,2,0,L|247:52,1,46.0000008773804,2|2,0:2|0:2,0:0:0:0:
217,99,156585,6,0,B|196:102|196:102|179:144|179:144|123:155|123:155|113:138,1,138.000002632141,2|2,3:2|0:2,0:0:0:0:
77,104,157107,2,0,P|105:69|99:24,1,92.0000017547608,8|2,3:1|0:3,0:0:0:0:
46,10,157498,2,0,P|19:46|25:91,1,92.0000017547608,2|2,0:2|0:2,0:0:0:0:
40,143,157890,1,2,2:2:0:0:
61,250,158150,2,0,L|106:241,1,46.0000008773804,8|2,3:1|0:2,0:0:0:0:
134,288,158411,2,0,L|179:297,1,46.0000008773804,2|2,0:2|0:2,0:0:0:0:
211,261,158671,6,0,B|304:244,1,80,2|0,3:2|0:0,0:0:0:0:
365,305,159193,2,0,B|392:280|392:280|376:192,3,120,2|2|2|2,0:1|0:1|0:1|0:1,0:0:0:0:
402,156,160498,1,0,0:0:0:0:
347,83,160758,5,2,3:2:0:0:
347,83,160889,2,0,L|290:92,1,40
257,171,161280,2,0,P|214:129|150:150,3,120,2|2|2|2,0:1|0:1|0:1|0:1,0:0:0:0:
45,56,162845,6,0,B|62:149,1,80,2|0,3:2|0:0,0:0:0:0:
2,210,163367,2,0,B|27:237|27:237|115:221,3,120,2|2|2|2,0:1|0:1|0:1|0:1,0:0:0:0:
150,247,164672,1,0,0:0:0:0:
168,345,164932,5,2,3:2:0:0:
168,345,165063,2,0,L|224:354,1,40
248,325,165324,1,8,0:0:0:0:
248,325,165454,2,0,P|305:341|351:293,1,120,10|0,0:1|0:0,0:0:0:0:
372,265,165976,5,4,0:3:0:0:
372,265,166106,1,4,0:3:0:0:
311,197,166367,1,4,0:3:0:0:
311,197,166498,2,0,L|320:134,1,40,8|0,0:0|0:0,0:0:0:0:
326,110,166758,1,8,0:0:0:0:
343,15,167019,5,2,3:2:0:0:
295,20,167150,1,2,0:2:0:0:
247,28,167280,1,2,0:3:0:0:
199,35,167411,1,2,0:2:0:0:
151,41,167541,2,0,L|144:89,2,44.0000013427735,8|2|2,3:1|0:2|0:3,0:0:0:0:
54,55,168063,5,2,3:2:0:0:
59,103,168194,1,2,0:2:0:0:
67,151,168324,1,2,0:2:0:0:
74,199,168455,1,2,0:2:0:0:
80,246,168585,2,0,B|168:258|131:305|201:306,1,132.00000402832,10|2,3:1|0:2,0:0:0:0:
240,298,169106,6,0,L|233:250,2,44.0000013427735,2|2|2,3:2|0:2|0:3,0:0:0:0:
277,337,169498,1,2,0:2:0:0:
277,337,169628,2,0,P|308:312|357:322,1,88.000002685547,8|0,3:1|0:3,0:0:0:0:
399,335,170019,2,0,P|430:359|479:349,1,88.000002685547,2|0,0:2|0:2,0:0:0:0:
505,313,170411,1,2,0:2:0:0:
483,219,170671,2,0,L|436:229,1,44.0000013427735,8|2,3:1|0:1,0:0:0:0:
410,181,170932,2,0,L|364:174,1,44.0000013427735,0|0,0:2|0:2,0:0:0:0:
331,203,171193,5,2,3:2:0:0:
297,170,171323,1,2,0:2:0:0:
286,124,171453,1,2,0:3:0:0:
304,79,171584,1,2,0:2:0:0:
343,52,171715,2,0,L|386:46,2,44.0000013427735,8|2|2,3:1|0:2|0:3,0:0:0:0:
228,70,172237,5,2,3:2:0:0:
198,33,172367,1,2,0:2:0:0:
153,29,172497,1,2,0:2:0:0:
107,32,172628,1,2,0:2:0:0:
76,68,172758,2,0,B|68:124|68:124|83:136|83:136|69:216,1,132.00000402832,10|2,3:1|0:2,0:0:0:0:
65,239,173280,6,0,L|22:248,2,44.0000013427735,2|2|2,3:2|0:2|0:3,0:0:0:0:
98,275,173671,1,2,0:2:0:0:
98,275,173802,2,0,P|142:285|193:298,1,88.000002685547,8|0,3:1|0:3,0:0:0:0:
212,334,174193,2,0,P|254:323|297:313,1,88.000002685547,2|0,0:2|0:2,0:0:0:0:
322,271,174585,1,2,0:2:0:0:
253,203,174845,2,0,P|242:184|242:162,1,44.0000013427735,8|2,3:1|0:1,0:0:0:0:
205,130,175106,2,0,P|210:108|226:93,1,44.0000013427735,0|0,0:2|0:2,0:0:0:0:
267,67,175367,5,2,3:2:0:0:
311,63,175497,1,2,0:2:0:0:
355,58,175627,1,2,0:3:0:0:
398,53,175758,1,2,0:2:0:0:
446,48,175889,2,0,L|441:1,2,44.0000013427735,8|2|2,3:1|0:2|0:3,0:0:0:0:
456,144,176411,5,2,3:2:0:0:
412,148,176541,1,2,0:2:0:0:
368,153,176671,1,2,0:2:0:0:
325,158,176802,1,2,0:2:0:0:
277,163,176932,2,0,B|191:188|235:229|166:241,1,132.00000402832,10|2,3:1|0:2,0:0:0:0:
131,261,177454,6,0,L|140:320,2,44.0000013427735,2|2|2,3:2|0:2|0:3,0:0:0:0:
87,239,177845,1,2,0:2:0:0:
87,239,177976,2,0,B|69:199|69:199|93:162,1,88.000002685547,8|0,3:1|0:3,0:0:0:0:
64,122,178367,2,0,B|79:80|79:80|122:71,1,88.000002685547,2|0,0:2|0:2,0:0:0:0:
152,33,178758,1,2,0:2:0:0:
234,83,179019,2,0,L|277:92,1,44.0000013427735,8|2,3:1|0:1,0:0:0:0:
307,45,179280,2,0,L|350:37,1,44.0000013427735,0|0,0:2|0:2,0:0:0:0:
397,27,179541,5,2,3:2:0:0:
437,53,179671,1,2,0:2:0:0:
453,98,179801,1,2,0:3:0:0:
438,143,179932,1,2,0:2:0:0:
399,170,180063,2,0,L|411:236,2,44.0000013427735,8|2|2,3:1|0:2|0:3,0:0:0:0:
308,135,180585,5,2,3:2:0:0:
268,161,180715,1,2,0:2:0:0:
252,206,180845,1,2,0:2:0:0:
267,251,180976,1,2,0:2:0:0:
306,278,181106,2,0,P|253:294|156:333,1,132.00000402832,10|2,3:1|0:2,0:0:0:0:
134,335,181628,6,0,L|124:393,2,44.0000013427735,2|2|2,3:2|0:2|0:3,0:0:0:0:
105,302,182019,1,2,0:2:0:0:
105,302,182150,2,0,P|64:279|64:216,1,88.000002685547,8|2,3:1|0:3,0:0:0:0:
29,200,182541,2,0,P|52:159|115:159,1,88.000002685547,2|2,0:2|0:2,0:0:0:0:
130,175,182932,1,2,0:2:0:0:
194,102,183193,2,0,P|215:103|235:94,1,44.0000013427735,8|2,3:1|0:2,0:0:0:0:
290,112,183454,2,0,P|307:98|314:77,1,44.0000013427735,2|2,0:2|0:2,0:0:0:0:
323,27,183715,5,0,0:0:0:0:
323,27,187367,5,8,0:1:0:0:
498,281,192063,6,0,L|407:299,1,92.0000017547608,2|2,3:2|0:3,0:0:0:0:
376,345,192454,1,2,0:2:0:0:
376,345,192584,1,8,3:1:0:0:
281,288,192845,2,0,L|292:222,1,46.0000008773804,2|2,0:3|0:2,0:0:0:0:
324,200,193106,2,0,P|292:168|248:174,1,92.0000017547608,0|2,3:0|2:0,0:0:0:0:
217,221,193498,1,0,0:0:0:0:
217,221,193628,2,0,P|185:252|141:246,1,92.0000017547608,8|0,3:1|0:0,0:0:0:0:
33,219,194150,6,0,L|17:275,2,46.0000008773804,2|2|2,3:2|0:2|0:3,0:0:0:0:
76,183,194541,1,2,0:2:0:0:
76,183,194671,2,0,L|53:84,1,92.0000017547608,8|2,3:1|0:3,0:0:0:0:
20,55,195063,1,2,0:2:0:0:
20,55,195193,2,0,P|50:23|94:28,1,92.0000017547608,0|2,3:0|2:0,0:0:0:0:
205,30,195715,2,0,L|190:102,1,46.0000008773804,8|0,3:1|0:0,0:0:0:0:
163,120,195976,1,0,0:0:0:0:
237,201,196237,6,0,B|258:198|258:198|275:156|275:156|331:145|331:145|341:162,1,138.000002632141,2|2,3:2|0:2,0:0:0:0:
386,184,196758,2,0,B|371:140|371:140|400:89,1,92.0000017547608,8|2,3:1|0:3,0:0:0:0:
447,105,197150,2,0,B|462:149|462:149|439:189,1,92.0000017547608,2|2,0:2|0:2,0:0:0:0:
408,234,197541,1,2,2:2:0:0:
386,342,197802,2,0,L|341:333,1,46.0000008773804,8|2,3:1|0:2,0:0:0:0:
322,280,198063,2,0,L|277:289,1,46.0000008773804,2|2,0:2|0:2,0:0:0:0:
241,331,198324,6,0,B|220:328|220:328|203:286|203:286|147:275|147:275|137:292,1,138.000002632141,2|2,3:2|0:2,0:0:0:0:
87,305,198845,2,0,P|97:348|71:383,1,92.0000017547608,8|2,3:1|0:3,0:0:0:0:
18,372,199237,2,0,P|7:328|33:293,1,92.0000017547608,2|2,0:2|0:2,0:0:0:0:
69,252,199628,1,2,2:2:0:0:
46,143,199889,2,0,L|90:151,1,46.0000008773804,8|2,3:1|0:2,0:0:0:0:
135,118,200150,2,0,L|179:126,1,46.0000008773804,2|2,0:2|0:2,0:0:0:0:
218,166,200411,6,0,B|241:141|241:141|232:84,1,92.0000017547608,2|2,3:2|0:3,0:0:0:0:
196,48,200802,1,2,0:2:0:0:
196,48,200932,1,8,3:1:0:0:
296,1,201193,2,0,L|341:7,1,46.0000008773804,2|2,0:3|0:2,0:0:0:0:
371,53,201454,2,0,L|475:38,1,92.0000017547608,0|2,3:0|2:0,0:0:0:0:
511,74,201845,1,0,0:0:0:0:
512,75,201976,2,0,P|506:119|467:147,1,92.0000017547608,8|0,3:1|0:0,0:0:0:0:
377,208,202498,6,0,L|316:195,2,46.0000008773804,2|2|2,3:2|0:2|0:3,0:0:0:0:
426,242,202889,1,2,0:2:0:0:
426,242,203019,2,0,P|430:305|376:330,1,92.0000017547608,8|2,3:1|0:3,0:0:0:0:
381,369,203411,1,2,0:2:0:0:
381,369,203541,2,0,P|336:356|291:346,1,92.0000017547608,0|2,3:0|2:0,0:0:0:0:
187,383,204063,2,0,P|171:352|174:315,1,46.0000008773804,8|0,3:1|0:0,0:0:0:0:
195,292,204324,1,0,0:0:0:0:
295,247,204584,6,0,B|316:250|316:250|333:292|333:292|389:303|389:303|399:286,1,138.000002632141,2|2,3:2|0:2,0:0:0:0:
436,252,205106,2,0,L|459:349,1,92.0000017547608,8|2,3:1|0:3,0:0:0:0:
512,328,205498,2,0,L|489:231,1,92.0000017547608,2|2,0:2|0:2,0:0:0:0:
452,199,205889,1,2,2:2:0:0:
466,89,206149,2,0,L|421:98,1,46.0000008773804,8|2,3:1|0:2,0:0:0:0:
383,139,206410,2,0,L|338:130,1,46.0000008773804,2|2,0:2|0:2,0:0:0:0:
297,92,206671,6,0,B|276:95|276:95|259:137|259:137|203:148|203:148|193:131,1,138.000002632141,2|2,3:2|0:2,0:0:0:0:
157,97,207193,2,0,P|185:62|179:17,1,92.0000017547608,8|2,3:1|0:3,0:0:0:0:
126,2,207584,2,0,P|99:38|105:83,1,92.0000017547608,2|2,0:2|0:2,0:0:0:0:
120,136,207976,1,2,2:2:0:0:
46,218,208237,2,0,L|91:227,1,46.0000008773804,8|2,3:1|0:2,0:0:0:0:
116,275,208498,2,0,L|161:284,1,46.0000008773804,2|2,0:2|0:2,0:0:0:0:
203,320,208758,6,0,L|221:229,1,92.0000017547608,2|2,3:2|0:3,0:0:0:0:
258,189,209149,1,2,0:2:0:0:
258,189,209279,1,8,3:1:0:0:
353,132,209540,2,0,L|342:66,1,46.0000008773804,2|2,0:3|0:2,0:0:0:0:
339,31,209802,2,0,P|294:25|263:57,1,92.0000017547608,0|2,3:0|2:0,0:0:0:0:
235,106,210193,1,0,0:0:0:0:
235,106,210323,2,0,P|190:111|159:79,1,92.0000017547608,8|0,3:1|0:0,0:0:0:0:
54,43,210845,6,0,L|70:-13,2,46.0000008773804,2|2|2,3:2|0:2|0:3,0:0:0:0:
16,77,211236,1,2,0:2:0:0:
16,77,211367,2,0,L|43:180,1,92.0000017547608,8|2,3:1|0:3,0:0:0:0:
67,219,211758,1,2,0:2:0:0:
67,219,211889,2,0,B|117:214|104:243|155:239,1,92.0000017547608,0|2,3:0|2:0,0:0:0:0:
263,255,212410,2,0,L|251:211,1,46.0000008773804,8|0,3:1|0:0,0:0:0:0:
215,167,212671,1,0,0:0:0:0:
279,77,212932,6,0,B|300:80|300:80|317:122|317:122|373:133|373:133|383:116,1,138.000002632141,2|2,3:2|0:2,0:0:0:0:
433,103,213453,2,0,P|423:60|449:25,1,92.0000017547608,8|2,3:1|0:3,0:0:0:0:
504,36,213845,2,0,P|515:80|489:115,1,92.0000017547608,2|2,0:2|0:2,0:0:0:0:
451,156,214236,1,2,2:2:0:0:
502,253,214497,2,0,L|457:262,1,46.0000008773804,8|2,3:1|0:2,0:0:0:0:
438,315,214758,2,0,L|393:306,1,46.0000008773804,2|2,0:2|0:2,0:0:0:0:
354,265,215019,6,0,B|333:268|333:268|316:310|316:310|260:321|260:321|250:304,1,138.000002632141,2|2,3:2|0:2,0:0:0:0:
213,270,215541,2,0,L|190:367,1,92.0000017547608,8|2,3:1|0:3,0:0:0:0:
137,346,215933,2,0,L|160:249,1,92.0000017547608,2|2,0:2|0:2,0:0:0:0:
197,217,216324,1,2,2:2:0:0:
179,108,216584,2,0,L|224:117,1,46.0000008773804,8|2,3:1|0:2,0:0:0:0:
271,88,216845,2,0,L|316:97,1,46.0000008773804,2|2,0:2|0:2,0:0:0:0:
367,75,217106,6,0,B|390:100|390:100|381:157,1,92.0000017547608,2|2,3:2|0:3,0:0:0:0:
390,216,217497,1,2,0:2:0:0:
390,216,217627,1,8,3:1:0:0:
289,262,217888,2,0,L|295:307,1,46.0000008773804,2|2,0:3|0:2,0:0:0:0:
305,362,218150,2,0,B|255:367|268:338|217:342,1,92.0000017547608,0|2,3:0|2:0,0:0:0:0:
169,365,218540,1,0,0:0:0:0:
169,365,218671,2,0,L|154:274,1,92.0000017547608,8|0,3:1|0:0,0:0:0:0:
148,163,219193,6,0,L|209:176,2,46.0000008773804,2|2|2,3:2|0:2|0:3,0:0:0:0:
96,172,219584,1,2,0:2:0:0:
96,172,219715,2,0,L|111:81,1,92.0000017547608,8|2,3:1|0:3,0:0:0:0:
124,30,220106,1,2,0:2:0:0:
124,30,220236,2,0,P|165:18|208:61,1,92.0000017547608,0|2,3:0|2:0,0:0:0:0:
306,85,220758,2,0,L|295:154,1,46.0000008773804,8|0,3:1|0:0,0:0:0:0:
263,172,221019,1,0,0:0:0:0:
209,268,221280,6,0,B|230:271|230:271|247:313|247:313|303:324|303:324|313:307,1,138.000002632141,2|2,3:2|0:2,0:0:0:0:
358,285,221801,2,0,B|343:329|343:329|372:380,1,92.0000017547608,8|2,3:1|0:3,0:0:0:0:
421,364,222193,2,0,B|436:320|436:320|413:280,1,92.0000017547608,2|2,0:2|0:2,0:0:0:0:
380,235,222584,1,2,2:2:0:0:
435,139,222845,2,0,L|390:130,1,46.0000008773804,8|2,3:1|0:2,0:0:0:0:
371,77,223106,2,0,L|326:86,1,46.0000008773804,2|2,0:2|0:2,0:0:0:0:
294,131,223367,6,0,B|273:128|273:128|256:86|256:86|200:75|200:75|190:92,1,138.000002632141,2|2,3:2|0:2,0:0:0:0:
147,120,223889,2,0,L|124:23,1,92.0000017547608,8|2,3:1|0:3,0:0:0:0:
71,44,224281,2,0,L|94:141,1,92.0000017547608,2|2,0:2|0:2,0:0:0:0:
131,173,224672,1,2,2:2:0:0:
73,266,224932,2,0,L|118:275,1,46.0000008773804,8|2,3:1|0:2,0:0:0:0:
144,323,225193,2,0,L|189:332,1,46.0000008773804,2|2,0:2|0:2,0:0:0:0:
228,359,225454,5,2,3:2:0:0:
