osu file format v14

[General]
AudioFilename: audio.mp3
AudioLeadIn: 0
PreviewTime: 23059
Countdown: 0
SampleSet: Soft
StackLeniency: 0.7
Mode: 0
LetterboxInBreaks: 0
WidescreenStoryboard: 0

[Editor]
DistanceSpacing: 1
BeatDivisor: 4
GridSize: 8
TimelineZoom: 0.8000001

[Metadata]
Title:Junkyard
TitleUnicode:Junkyard
Artist:Iuri Rodrigues
ArtistUnicode:Iuri Rodrigues
Creator:EggsGone
Version:Normal
Source:Out There Somewhere
Tags:Jonis221 ost 8bit chiptune ots miniboss original soundtrack
BeatmapID:1275104
BeatmapSetID:603769

[Difficulty]
HPDrainRate:4
CircleSize:3
OverallDifficulty:5
ApproachRate:5
SliderMultiplier:1.3
SliderTickRate:2

[Events]
//Background and Video events
0,0,"b.jpg",0,0
//Break Periods
//Storyboard Layer 0 (Background)
//Storyboard Layer 1 (Fail)
//Storyboard Layer 2 (Pass)
//Storyboard Layer 3 (Foreground)
//Storyboard Sound Samples

[TimingPoints]
19,480,4,2,1,45,1,0
3859,-100,4,2,1,55,0,0
7699,-100,4,2,1,60,0,0
8659,-100,4,2,1,55,0,0
11539,-100,4,2,1,35,0,0
13459,-100,4,2,1,45,0,0
15379,-100,4,2,1,55,0,0
17299,-100,4,2,1,65,0,0
19219,-100,4,2,1,45,0,0
23059,-100,4,2,1,55,0,0
26899,-100,4,2,1,50,0,0
27379,-100,4,2,0,30,0,0
30739,-100,4,2,1,50,0,1
30979,-100,4,2,1,50,0,0
32659,-100,4,2,1,55,0,1
38419,-100,4,2,1,55,0,0
39379,-100,4,2,0,55,0,0
39409,-100,4,2,1,55,0,0
39619,-100,4,2,0,55,0,0
39859,-100,4,2,0,55,0,0
39889,-100,4,2,1,55,0,0
40099,-100,4,2,0,55,0,0
40339,-100,4,2,1,55,0,0

[Colours]
Combo1 : 66,72,85
Combo2 : 53,96,121
Combo3 : 159,3,0
Combo4 : 203,160,89

[HitObjects]
467,204,19,6,0,P|402:202|339:151,1,130,2|8,0:0|0:0,0:0:0:0:
276,273,979,2,0,P|231:225|222:145,1,130,2|8,0:0|0:0,0:0:0:0:
91,188,1939,2,0,P|93:122|143:59,1,130,2|8,0:0|0:0,0:0:0:0:
219,163,2899,1,2,0:0:0:0:
326,236,3379,1,8,0:0:0:0:
335,105,3859,6,0,P|398:96|458:120,1,130,2|8,0:0|0:0,0:0:0:0:
449,251,4819,2,0,P|386:260|326:236,1,130,2|8,0:0|0:0,0:0:0:0:
195,236,5779,6,0,P|135:260|71:251,1,130,2|8,0:0|0:0,0:0:0:0:
17,215,6499,1,0,0:0:0:0:
17,215,6739,2,0,L|51:160,1,65,2|0,0:0|0:0,0:0:0:0:
86,106,7219,1,8,0:0:0:0:
149,111,7459,1,0,0:0:0:0:
213,118,7699,6,0,P|258:161|321:164,1,130,4|8,0:0|0:0,0:0:0:0:
429,89,8659,2,0,B|408:132|408:132|422:172|399:216,1,130,2|8,0:0|0:0,0:0:0:0:
439,335,9619,6,0,B|403:314|403:314|351:315|318:274,1,130,2|8,0:0|0:0,0:0:0:0:
274,239,10339,1,0,0:0:0:0:
222,199,10579,2,0,P|191:191|158:197,1,65,2|0,0:0|0:0,0:0:0:0:
96,215,11059,2,0,P|63:220|32:212,1,65,8|0,0:0|0:0,0:0:0:0:
7,152,11539,6,0,P|49:104|112:104,1,130,8|2,0:0|0:0,0:0:0:0:
173,125,12259,1,0,0:0:0:0:
235,143,12499,2,0,P|298:144|339:96,1,130,2|2,0:0|0:0,0:0:0:0:
446,169,13459,6,0,P|417:224|441:282,1,130,8|2,0:0|0:0,0:0:0:0:
478,336,14179,1,0,0:0:0:0:
416,358,14419,2,0,P|383:365|352:358,2,65,2|0|2,0:0|0:0|0:0,0:0:0:0:
374,234,15379,6,0,P|311:230|256:263,1,130,8|2,0:0|0:0,0:0:0:0:
211,311,16099,1,0,0:0:0:0:
155,274,16339,2,0,P|129:256|97:249,2,65,2|0|2,0:0|0:0|0:0,0:0:0:0:
25,291,17299,6,0,P|15:228|53:179,1,130,8|2,0:0|0:0,0:0:0:0:
110,147,18019,1,0,0:0:0:0:
159,189,18259,2,0,L|222:176,1,65,2|0,0:0|0:0,0:0:0:0:
283,200,18739,2,0,L|346:187,1,65,2|0,0:0|0:0,0:0:0:0:
395,144,19219,6,0,P|332:133|299:79,1,130,4|8,0:0|0:0,0:0:0:0:
181,23,20179,2,0,L|164:85,1,65,2|0,0:0|0:0,0:0:0:0:
145,148,20659,1,8,0:0:0:0:
38,222,21139,6,0,P|16:164|25:99,1,130,2|8,0:0|0:0,0:0:0:0:
133,23,22099,2,0,P|154:80|145:145,1,130,2|8,0:0|0:0,0:0:0:0:
106,271,23059,6,0,L|175:301,1,65,2|0,0:0|0:0,0:0:0:0:
225,322,23539,1,8,0:0:0:0:
353,342,24019,2,0,P|414:319|458:272,1,130,2|8,0:0|0:0,0:0:0:0:
483,213,24739,1,0,0:0:0:0:
461,150,24979,6,0,P|430:142|398:144,1,65,2|0,0:0|0:0,0:0:0:0:
335,161,25459,1,8,0:0:0:0:
230,238,25939,2,0,B|230:271|230:271|209:303,2,65,2|0|8,0:0|0:0|0:0,0:0:0:0:
191,185,26659,1,0,0:0:0:0:
149,134,26899,5,2,0:0:0:0:
191,10,27379,1,2,0:0:0:0:
321,10,27859,1,2,0:0:0:0:
363,134,28339,1,2,0:0:0:0:
256,192,28579,12,4,30739,0:0:0:0:
90,264,32659,6,0,P|152:249|183:194,1,130,4|8,0:0|0:0,0:0:0:0:
210,67,33619,2,0,L|147:49,2,65,2|0|8,0:0|0:0|0:0,0:0:0:0:
270,87,34339,2,0,P|318:123|334:190,1,130,2|2,0:0|0:0,0:0:0:0:
339,253,35059,1,8,0:0:0:0:
466,226,35539,2,0,B|447:262|447:262|448:311|448:311|429:347,1,130,2|8,0:0|0:0,0:0:0:0:
298,347,36499,6,0,B|266:335|247:307|247:307|182:299,1,130,2|8,0:0|0:0,0:0:0:0:
204,170,37459,2,0,B|266:177|266:177|292:154|326:151,1,130,2|8,0:0|0:0,0:0:0:0:
390,138,38179,1,2,0:0:0:0:
343,16,38659,5,2,0:0:0:0:
165,92,39379,2,0,L|110:123,1,65,2|0,0:0|0:0,0:0:0:0:
82,184,39859,2,0,L|23:217,1,65,2|0,0:0|0:0,0:0:0:0:
1,276,40339,1,8,0:0:0:0:
