osu file format v14

[General]
AudioFilename: audio.mp3
AudioLeadIn: 0
PreviewTime: 23059
Countdown: 0
SampleSet: Soft
StackLeniency: 0.4
Mode: 0
LetterboxInBreaks: 0
WidescreenStoryboard: 0

[Editor]
DistanceSpacing: 1.7
BeatDivisor: 4
GridSize: 8
TimelineZoom: 0.6999999

[Metadata]
Title:Junkyard
TitleUnicode:Junkyard
Artist:Iuri Rodrigues
ArtistUnicode:Iuri Rodrigues
Creator:EggsGone
Version:Hard
Source:Out There Somewhere
Tags:Jonis221 ost 8bit chiptune ots miniboss original soundtrack
BeatmapID:1467217
BeatmapSetID:603769

[Difficulty]
HPDrainRate:6
CircleSize:3.5
OverallDifficulty:7
ApproachRate:7
SliderMultiplier:1.6
SliderTickRate:2

[Events]
//Background and Video events
0,0,"c.jpg",0,0
//Break Periods
//Storyboard Layer 0 (Background)
//Storyboard Layer 1 (Fail)
//Storyboard Layer 2 (Pass)
//Storyboard Layer 3 (Foreground)
//Storyboard Sound Samples

[TimingPoints]
19,480,4,2,1,45,1,0
3859,-100,4,2,1,55,0,0
7699,-100,4,2,1,60,0,0
8659,-100,4,2,1,55,0,0
11539,-100,4,2,1,35,0,0
13459,-100,4,2,1,55,0,0
15379,-100,4,2,1,55,0,0
17299,-100,4,2,1,65,0,0
19219,-100,4,2,1,45,0,0
23059,-100,4,2,1,55,0,0
26899,-100,4,2,1,50,0,0
27379,-100,4,2,0,30,0,0
27409,-100,4,2,1,30,0,0
27859,-100,4,2,0,30,0,0
30739,-100,4,2,1,50,0,1
30979,-100,4,2,1,50,0,0
32659,-100,4,2,1,55,0,1
38419,-100,4,2,1,55,0,0
39379,-100,4,2,0,55,0,0
40339,-100,4,2,1,55,0,0

[Colours]
Combo1 : 66,72,85
Combo2 : 53,96,121
Combo3 : 159,3,0
Combo4 : 203,160,89

[HitObjects]
414,118,19,5,2,0:0:0:0:
320,285,499,1,8,0:0:0:0:
493,202,979,1,2,0:0:0:0:
304,167,1459,1,8,0:0:0:0:
113,189,1939,5,2,0:0:0:0:
207,356,2419,1,8,0:0:0:0:
34,273,2899,1,2,0:0:0:0:
223,238,3379,1,8,0:0:0:0:
331,79,3859,6,0,P|399:113|409:190,1,160,2|8,0:0|0:0,0:0:0:0:
381,282,4579,1,0,0:0:0:0:
245,293,4819,2,0,B|181:299|138:334|138:334|123:319|100:314,1,160,2|8,0:0|0:0,0:0:0:0:
6,292,5539,1,0,0:0:0:0:
104,198,5779,6,0,B|150:186|164:151|164:151|197:174|243:163,1,160,2|8,0:0|0:0,0:0:0:0:
217,69,6499,1,0,0:0:0:0:
342,122,6739,1,2,0:0:0:0:
422,233,6979,1,0,0:0:0:0:
292,190,7219,1,8,0:0:0:0:
422,148,7459,1,0,0:0:0:0:
341,259,7699,6,0,B|316:301|280:308|280:308|245:293|229:243,1,160,4|8,0:0|0:0,0:0:0:0:
193,161,8419,1,0,0:0:0:0:
67,212,8659,2,0,P|44:244|37:283,1,80,2|0,0:0|0:0,0:0:0:0:
133,281,9139,1,8,0:0:0:0:
217,326,9379,1,0,0:0:0:0:
319,236,9619,6,0,P|365:174|442:163,1,160,2|8,0:0|0:0,0:0:0:0:
413,255,10339,1,0,0:0:0:0:
315,349,10579,2,0,P|276:343|244:320,1,80,2|0,0:0|0:0,0:0:0:0:
259,184,11059,1,8,0:0:0:0:
185,69,11299,1,0,0:0:0:0:
64,131,11539,6,0,P|31:152|14:188,1,80,8|0,0:0|0:0,0:0:0:0:
105,217,12019,2,0,P|138:195|155:159,1,80,2|0,0:0|0:0,0:0:0:0:
185,69,12499,1,2,0:0:0:0:
274,34,12739,1,0,0:0:0:0:
369,41,12979,1,2,0:0:0:0:
449,91,13219,1,0,0:0:0:0:
500,181,13459,6,0,P|480:214|447:237,1,80,8|0,0:0|0:0,0:0:0:0:
355,269,13939,2,0,P|321:289|298:322,1,80,2|0,0:0|0:0,0:0:0:0:
211,363,14419,1,2,0:0:0:0:
121,344,14659,1,0,0:0:0:0:
80,260,14899,1,2,0:0:0:0:
120,177,15139,1,0,0:0:0:0:
221,113,15379,6,0,L|310:101,1,80,8|0,0:0|0:0,0:0:0:0:
381,50,15859,2,0,P|394:87|392:127,1,80,2|0,0:0|0:0,0:0:0:0:
358,217,16339,1,2,0:0:0:0:
276,262,16579,1,0,0:0:0:0:
182,267,16819,1,2,0:0:0:0:
91,232,17059,1,0,0:0:0:0:
3,128,17299,6,0,P|32:105|72:98,1,80,8|0,0:0|0:0,0:0:0:0:
170,92,17779,1,2,0:0:0:0:
251,138,18019,1,0,0:0:0:0:
281,227,18259,1,2,0:0:0:0:
244,313,18499,1,0,0:0:0:0:
158,356,18739,1,2,0:0:0:0:
158,356,18859,1,0,0:0:0:0:
158,356,18979,1,0,0:0:0:0:
39,288,19219,6,0,P|14:256|6:217,1,80,4|0,0:0|0:0,0:0:0:0:
69,145,19699,2,0,P|92:176|101:214,1,80,8|0,0:0|0:0,0:0:0:0:
131,307,20179,1,2,0:0:0:0:
218,267,20419,1,0,0:0:0:0:
302,220,20659,2,0,P|309:182|302:143,1,80,8|0,0:0|0:0,0:0:0:0:
212,100,21139,6,0,P|204:138|212:177,1,80,2|0,0:0|0:0,0:0:0:0:
149,249,21619,2,0,P|110:242|71:250,1,80,8|0,0:0|0:0,0:0:0:0:
7,177,22099,2,0,P|13:138|6:99,1,80,2|0,0:0|0:0,0:0:0:0:
77,33,22579,1,8,0:0:0:0:
155,87,22819,1,0,0:0:0:0:
280,33,23059,6,0,P|317:23|356:32,1,80,2|0,0:0|0:0,0:0:0:0:
317,120,23539,2,0,P|327:158|318:197,1,80,8|0,0:0|0:0,0:0:0:0:
229,160,24019,2,0,P|190:170|151:161,1,80,2|0,0:0|0:0,0:0:0:0:
191,74,24499,1,8,0:0:0:0:
280,33,24739,1,0,0:0:0:0:
363,80,24979,5,2,0:0:0:0:
452,39,25219,1,0,0:0:0:0:
441,134,25459,2,0,P|431:171|441:210,1,80,8|0,0:0|0:0,0:0:0:0:
361,267,25939,2,0,P|322:276|283:267,1,80,2|0,0:0|0:0,0:0:0:0:
244,136,26419,2,0,P|281:127|320:135,1,80,8|0,0:0|0:0,0:0:0:0:
284,267,26899,5,2,0:0:0:0:
284,267,27379,2,0,L|206:275,1,80,2|0,0:0|0:0,0:0:0:0:
111,286,27859,1,2,0:0:0:0:
111,286,28339,1,2,0:0:0:0:
256,192,28579,12,4,30739,0:0:0:0:
403,128,31219,6,0,P|351:101|293:108,1,120,2|0,0:0|0:0,0:0:0:0:
248,128,31699,2,0,P|214:149|194:182,1,80,2|0,0:0|0:0,0:0:0:0:
324,281,32179,2,0,L|281:214,1,80,2|0,0:0|0:0,0:0:0:0:
345,367,32659,5,4,0:0:0:0:
377,362,32779,1,0,0:0:0:0:
402,340,32899,2,0,P|417:301|413:263,2,80,0|8|0,0:0|0:0|0:0,0:0:0:0:
324,281,33619,2,0,L|290:334,2,40,2|0|0,0:0|0:0|0:0,0:0:0:0:
329,232,33979,1,0,0:0:0:0:
329,184,34099,2,0,P|311:148|278:127,1,80,8|2,0:0|0:0,0:0:0:0:
239,214,34579,5,0,0:0:0:0:
143,206,34819,1,2,0:0:0:0:
120,182,34939,1,0,0:0:0:0:
109,151,35059,2,0,P|100:111|111:73,1,80,8|0,0:0|0:0,0:0:0:0:
152,50,35419,1,0,0:0:0:0:
199,43,35539,2,0,L|238:50,3,40,2|0|0|0,0:0|0:0|0:0|0:0,0:0:0:0:
234,97,36019,2,0,L|263:123,3,40,8|0|0|0,0:0|0:0|0:0|0:0,0:0:0:0:
236,163,36499,6,0,L|246:205,2,40,2|0|0,0:0|0:0|0:0,0:0:0:0:
140,174,36979,2,0,L|159:252,1,80,8|0,0:0|0:0,0:0:0:0:
140,345,37459,2,0,L|86:336,2,40,2|0|0,0:0|0:0|0:0,0:0:0:0:
189,340,37819,1,0,0:0:0:0:
226,311,37939,2,0,B|254:282|254:282|268:245,1,80,8|2,0:0|0:0,0:0:0:0:
246,150,38419,5,0,0:0:0:0:
150,163,38659,2,0,B|121:191|121:191|107:228,1,80,2|0,0:0|0:0,0:0:0:0:
250,355,39379,1,2,0:0:0:0:
332,306,39619,1,0,0:0:0:0:
375,221,39859,1,2,0:0:0:0:
363,128,40099,1,0,0:0:0:0:
272,52,40339,5,8,0:0:0:0:
