osu file format v14

[General]
AudioFilename: audio.mp3
AudioLeadIn: 0
PreviewTime: 1012
Countdown: 0
SampleSet: Soft
StackLeniency: 0.7
Mode: 0
LetterboxInBreaks: 0
WidescreenStoryboard: 1

[Editor]
DistanceSpacing: 0.9
BeatDivisor: 8
GridSize: 4
TimelineZoom: 2.1

[Metadata]
Title:Unmei no Wa
TitleUnicode:運命の輪
Artist:Iuchi Maiko
ArtistUnicode:井内 舞子
Creator:rosario wknd
Version:Normal
Source:あの夏で待ってる
Tags:ano natsu de matteru waiting in the summer ost insert anime instrumental wheel of fortune
BeatmapID:3985834
BeatmapSetID:1862514

[Difficulty]
HPDrainRate:4
CircleSize:4.1
OverallDifficulty:5
ApproachRate:5
SliderMultiplier:1.1
SliderTickRate:1

[Events]
//Background and Video events
0,0,"kanna.png",0,0
//Break Periods
2,79195,84388
//Storyboard Layer 0 (Background)
//Storyboard Layer 1 (Fail)
//Storyboard Layer 2 (Pass)
//Storyboard Layer 3 (Foreground)
//Storyboard Layer 4 (Overlay)
//Storyboard Sound Samples

[TimingPoints]
1060,377.358490566038,4,2,1,45,1,0
1060,-111.111111111111,4,2,1,45,0,0
7097,-111.111111111111,4,2,1,35,0,0
13512,-111.111111111111,4,2,1,45,0,0
14644,-100,4,2,1,60,0,0
25965,-100,4,2,1,30,0,0
26720,-111.111111111111,4,2,1,40,0,0
38795,-111.111111111111,4,2,1,45,0,0
50871,-111.111111111111,4,2,1,35,0,0
62946,-111.111111111111,4,2,1,45,0,0
78041,-111.111111111111,4,2,1,20,0,0
85588,-111.111111111111,4,2,1,30,0,0
90116,-111.111111111111,4,2,1,11,0,0
90305,-111.111111111111,4,2,1,15,0,0
90493,-111.111111111111,4,2,1,20,0,0
90682,-111.111111111111,4,2,1,25,0,0
90871,-111.111111111111,4,2,1,30,0,0
91060,-111.111111111111,4,2,1,35,0,0
91626,-99.9999999999999,4,2,1,60,0,0
103701,-90.9090909090909,4,2,1,65,0,0
114267,-90.9090909090909,4,2,1,70,0,0

[Colours]
Combo1 : 255,255,89
Combo2 : 0,128,192
Combo3 : 75,75,150

[HitObjects]
382,58,1060,6,0,P|410:48|436:39,2,49.4999984893799,2|2|2,0:0|0:0|0:0,0:0:0:0:
341,76,1626,1,2,0:0:0:0:
261,35,2003,1,2,0:0:0:0:
137,86,2569,2,0,P|130:62|116:22,2,49.4999984893799,2|2|2,0:0|0:0|0:0,0:0:0:0:
158,124,3135,2,0,P|143:178|131:231,1,98.9999969787599,2|2,0:0|0:0,0:0:0:0:
122,308,3890,5,2,0:0:0:0:
122,308,4078,2,0,P|88:317|59:332,2,49.4999984893799,2|2|2,0:0|0:0|0:0,0:0:0:0:
155,337,4644,1,2,0:0:0:0:
219,275,5022,1,2,0:0:0:0:
291,326,5399,1,2,0:0:0:0:
291,326,5588,2,0,P|322:314|358:307,1,49.4999984893799,2|2,0:0|0:0,0:0:0:0:
361,272,5965,1,2,0:0:0:0:
361,272,6154,1,2,0:0:0:0:
264,71,7097,6,0,P|318:68|340:112,1,98.9999969787599,2|2,0:0|0:0,0:0:0:0:
372,131,7663,2,0,P|429:114|480:106,2,98.9999969787599,2|2|2,0:0|0:0|0:0,0:0:0:0:
358,173,8607,2,0,P|329:180|293:195,2,49.4999984893799,2|2|2,0:0|0:0|0:0,0:0:0:0:
390,204,9173,1,2,0:0:0:0:
340,277,9550,1,2,0:0:0:0:
372,359,9927,5,2,0:0:0:0:
372,359,10116,2,0,B|327:376|327:376|306:358|279:346,1,98.9999969787599,2|2,0:0|0:0,0:0:0:0:
247,323,10682,2,0,L|138:350,1,98.9999969787599,2|2,0:0|0:0,0:0:0:0:
68,381,11437,1,2,0:0:0:0:
0,322,11814,1,0,0:0:0:0:
56,253,12192,2,0,B|136:290|170:234|179:141|281:199,1,247.4999924469,0|0,0:0|0:0,0:0:0:0:
322,266,13512,6,0,P|375:247|430:233,1,98.9999969787599,8|0,0:0|3:0,0:0:0:0:
445,202,14078,1,8,0:0:0:0:
445,202,14267,1,8,0:0:0:0:
418,106,14644,6,0,L|344:92,1,55,6|0,3:0|3:0,0:0:0:0:
332,57,15022,2,0,L|258:43,1,55,10|0,0:0|0:0,0:0:0:0:
231,32,15399,2,0,P|240:105|247:154,1,110,0|2,3:0|0:0,0:0:0:0:
217,181,15965,1,8,0:0:0:0:
217,181,16154,1,2,0:0:0:0:
283,254,16531,1,8,0:0:0:0:
220,329,16909,2,0,P|162:317|151:315,1,55,2|0,0:0|3:0,0:0:0:0:
130,284,17286,1,2,0:0:0:0:
40,324,17663,6,0,B|10:289|10:289|49:232,1,110,0|10,3:0|0:0,0:0:0:0:
75,195,18229,1,0,0:0:0:0:
75,195,18418,2,0,P|64:157|54:125,1,55,2|0,3:0|3:0,0:0:0:0:
20,112,18795,1,0,0:0:0:0:
97,49,19173,2,0,P|60:7|-2:28,2,110,2|10|0,0:0|0:0|3:0,0:0:0:0:
107,97,20116,1,0,3:0:0:0:
107,97,20305,1,10,0:0:0:0:
198,59,20682,6,0,P|230:65|265:72,1,55,2|0,3:0|3:0,0:0:0:0:
291,39,21060,1,10,0:0:0:0:
358,111,21437,1,0,3:0:0:0:
293,185,21814,2,0,P|306:226|315:257,1,55,2|8,0:0|0:0,0:0:0:0:
325,284,22192,2,0,P|400:267|454:263,1,110,2|8,0:0|0:0,0:0:0:0:
459,222,22758,1,0,3:0:0:0:
459,222,22946,1,2,0:0:0:0:
394,146,23324,1,2,0:0:0:0:
450,64,23701,6,0,P|436:26|360:34,1,110,0|10,3:0|0:0,0:0:0:0:
363,68,24267,1,0,0:0:0:0:
363,68,24456,2,0,L|291:84,1,55,2|0,3:0|3:0,0:0:0:0:
282,121,24833,2,0,L|208:106,1,55,0|10,0:0|0:0,0:0:0:0:
199,69,25210,1,2,0:0:0:0:
107,107,25588,2,0,P|120:146|125:172,1,55,10|0,0:0|3:0,0:0:0:0:
131,208,25965,2,0,B|106:243|91:276|91:276|53:250|-1:223,1,165,0|0,0:0|0:0,0:0:0:0:
13,187,26720,6,0,P|27:134|39:77,1,98.9999969787599,6|10,3:0|0:0,0:0:0:0:
63,55,27286,1,2,0:0:0:0:
63,55,27475,2,0,P|91:61|132:68,1,49.4999984893799,2|2,3:0|3:0,0:0:0:0:
186,113,28041,2,0,L|304:96,1,98.9999969787599,8|0,0:0|0:0,0:0:0:0:
332,24,28795,2,0,B|380:49|380:49|362:99,1,98.9999969787599,0|0,0:0|3:0,0:0:0:0:
370,135,29361,2,0,P|399:141|437:150,1,49.4999984893799,0|8,0:0|0:0,0:0:0:0:
444,181,29739,6,0,L|422:294,1,98.9999969787599,2|10,3:0|0:0,0:0:0:0:
391,308,30305,1,2,0:0:0:0:
391,308,30493,2,0,P|403:342|411:371,2,49.4999984893799,2|2|0,3:0|3:0|0:0,0:0:0:0:
336,292,31060,1,8,0:0:0:0:
281,221,31437,6,0,L|299:151,1,49.4999984893799,0|8,3:0|0:0,0:0:0:0:
326,142,31814,2,0,P|314:84|265:87,1,98.9999969787599,0|0,0:0|3:0,0:0:0:0:
241,96,32380,1,8,0:0:0:0:
203,14,32758,6,0,L|137:26,1,49.4999984893799,2|2,3:0|0:0,0:0:0:0:
122,54,33135,2,0,L|56:66,1,49.4999984893799,10|2,0:0|0:0,0:0:0:0:
29,52,33512,2,0,P|23:23|13:-10,2,49.4999984893799,2|2|0,3:0|3:0|0:0,0:0:0:0:
8,91,34078,2,0,P|20:146|28:194,1,98.9999969787599,8|0,0:0|3:0,0:0:0:0:
61,215,34644,1,8,0:0:0:0:
135,165,35022,2,0,P|194:169|202:216,1,98.9999969787599,0|0,0:0|0:0,0:0:0:0:
232,236,35588,5,8,0:0:0:0:
232,236,35776,2,0,P|260:230|294:223,2,49.4999984893799,2|2|10,3:0|0:0|0:0,0:0:0:0:
209,274,36343,1,2,3:0:0:0:
209,274,36531,2,0,L|145:261,1,49.4999984893799,2|2,3:0|3:0,0:0:0:0:
128,232,36909,1,0,0:0:0:0:
128,232,37097,1,8,0:0:0:0:
50,276,37475,2,0,P|56:312|59:336,1,49.4999984893799,0|8,3:0|0:0,0:0:0:0:
78,364,37852,1,0,0:0:0:0:
78,364,38041,2,0,P|132:351|195:343,1,98.9999969787599,0|8,0:0|0:0,0:0:0:0:
252,300,38795,6,0,L|307:311,1,49.4999984893799,6|0,3:0|0:0,0:0:0:0:
325,347,39173,1,10,0:0:0:0:
395,292,39550,2,0,L|456:304,2,49.4999984893799,2|2|2,3:0|3:0|0:0,0:0:0:0:
362,260,40116,1,8,0:0:0:0:
362,260,40305,2,0,B|341:214|341:214|386:171,1,98.9999969787599,2|8,0:0|0:0,0:0:0:0:
414,157,40871,1,0,0:0:0:0:
414,157,41060,1,2,0:0:0:0:
357,87,41437,1,2,0:0:0:0:
410,16,41814,6,0,P|438:24|468:31,1,49.4999984893799,2|0,3:0|0:0,0:0:0:0:
484,64,42192,2,0,P|475:107|471:131,1,49.4999984893799,10|2,0:0|0:0,0:0:0:0:
443,145,42569,2,0,L|467:251,1,98.9999969787599,2|0,3:0|0:0,0:0:0:0:
437,276,43135,1,8,0:0:0:0:
437,276,43324,2,0,P|428:308|423:338,2,49.4999984893799,2|0|10,0:0|3:0|0:0,0:0:0:0:
394,261,43890,1,2,0:0:0:0:
329,322,44267,1,2,3:0:0:0:
329,322,44456,1,10,0:0:0:0:
252,276,44833,6,0,P|224:281|186:288,1,49.4999984893799,2|0,3:0|0:0,0:0:0:0:
173,318,45210,1,10,0:0:0:0:
100,265,45588,2,0,P|64:258|31:253,2,49.4999984893799,2|2|2,3:0|3:0|0:0,0:0:0:0:
136,239,46154,1,8,0:0:0:0:
136,239,46343,2,0,P|135:172|92:167,1,98.9999969787599,2|8,0:0|0:0,0:0:0:0:
70,167,46909,1,0,0:0:0:0:
70,167,47097,2,0,P|39:159|17:155,1,49.4999984893799,2|0,0:0|3:0,0:0:0:0:
5,113,47475,1,2,0:0:0:0:
59,42,47852,5,2,3:0:0:0:
132,92,48229,2,0,L|201:82,1,49.4999984893799,10|2,0:0|0:0,0:0:0:0:
209,50,48607,2,0,L|313:37,1,98.9999969787599,0|2,3:0|0:0,0:0:0:0:
334,72,49173,1,8,0:0:0:0:
334,72,49361,1,2,0:0:0:0:
409,24,49739,1,10,0:0:0:0:
461,95,50116,2,0,P|449:148|439:203,1,98.9999969787599,2|8,0:0|0:0,0:0:0:0:
400,210,50682,5,0,3:0:0:0:
400,210,50871,2,0,B|352:197|352:197|333:159|333:159|270:142,1,148.49999546814,6|0,3:0|0:0,0:0:0:0:
234,67,51814,1,0,0:0:0:0:
234,67,52003,2,0,L|168:85,1,49.4999984893799,2|2,0:0|0:0,0:0:0:0:
144,65,52380,2,0,B|74:36|74:36|93:112|100:167,1,197.99999395752,2|2,3:0|0:0,0:0:0:0:
169,209,53512,1,0,0:0:0:0:
220,136,53890,6,0,P|271:135|288:185,1,98.9999969787599,2|0,3:0|0:0,0:0:0:0:
264,209,54456,2,0,L|275:264,1,49.4999984893799,0|0,0:0|0:0,0:0:0:0:
255,298,54833,2,0,L|266:353,1,49.4999984893799,0|2,0:0|0:0,0:0:0:0:
306,363,55210,1,0,0:0:0:0:
306,363,55399,2,0,B|359:341|409:339|409:339|437:277|371:247,1,197.99999395752,2|2,3:0|0:0,0:0:0:0:
319,203,56531,1,0,0:0:0:0:
248,257,56909,6,0,L|131:241,1,98.9999969787599,10|0,0:0|0:0,0:0:0:0:
112,267,57475,1,0,0:0:0:0:
112,267,57663,2,0,P|39:247|41:216,1,98.9999969787599,2|0,0:0|0:0,0:0:0:0:
86,163,58418,2,0,L|62:56,1,98.9999969787599,2|0,3:0|0:0,0:0:0:0:
88,28,58984,1,0,0:0:0:0:
88,28,59173,1,2,0:0:0:0:
165,71,59550,1,0,0:0:0:0:
248,39,59927,6,0,B|294:64|294:64|275:111,1,98.9999969787599,2|2,3:0|0:0,0:0:0:0:
272,151,60493,1,2,0:0:0:0:
272,151,60682,2,0,P|241:154|204:161,1,49.4999984893799,2|0,0:0|0:0,0:0:0:0:
189,187,61060,2,0,P|161:182|118:175,1,49.4999984893799,2|2,0:0|0:0,0:0:0:0:
102,154,61437,2,0,P|45:156|39:198,2,98.9999969787599,2|2|2,3:0|0:0|3:0,0:0:0:0:
123,240,62569,2,0,L|111:295,1,49.4999984893799,2|8,3:0|0:0,0:0:0:0:
130,329,62946,6,0,P|196:321|246:315,1,98.9999969787599,4|8,3:0|0:0,0:0:0:0:
261,287,63512,1,0,0:0:0:0:
261,287,63701,1,0,3:0:0:0:
328,344,64078,2,0,P|359:341|400:336,1,49.4999984893799,0|10,0:0|0:0,0:0:0:0:
417,357,64456,2,0,B|463:346|463:346|453:284,1,98.9999969787599,2|8,0:0|0:0,0:0:0:0:
421,265,65022,1,2,0:0:0:0:
421,265,65210,2,0,L|436:195,1,49.4999984893799,2|0,0:0|0:0,0:0:0:0:
466,189,65588,1,2,0:0:0:0:
434,105,65965,6,0,P|379:99|361:132,1,98.9999969787599,2|8,3:0|0:0,0:0:0:0:
323,155,66531,1,2,0:0:0:0:
323,155,66720,2,0,L|234:135,2,74.2499977340699,0|2|10,3:0|0:0|0:0,0:0:0:0:
347,192,67475,2,0,P|341:220|337:247,1,49.4999984893799,2|0,0:0|3:0,0:0:0:0:
363,277,67852,1,10,0:0:0:0:
297,337,68229,2,0,P|305:361|314:396,2,49.4999984893799,2|0|8,0:0|3:0|0:0,0:0:0:0:
254,324,68795,5,0,0:0:0:0:
254,324,68984,2,0,P|165:303|138:298,1,98.9999969787599,2|8,3:0|0:0,0:0:0:0:
121,327,69550,1,2,0:0:0:0:
121,327,69739,2,0,L|53:341,1,49.4999984893799,2|2,3:0|3:0,0:0:0:0:
34,313,70116,2,0,L|45:252,1,49.4999984893799,2|10,0:0|0:0,0:0:0:0:
77,236,70493,2,0,L|50:120,1,98.9999969787599,2|10,0:0|0:0,0:0:0:0:
21,109,71060,1,2,0:0:0:0:
92,56,71437,1,2,0:0:0:0:
92,56,71626,2,0,P|126:67|162:75,1,49.4999984893799,2|10,0:0|0:0,0:0:0:0:
170,101,72003,6,0,B|257:76|257:76|274:108|298:133,1,148.49999546814,2|2,3:0|0:0,0:0:0:0:
315,159,72758,1,2,3:0:0:0:
396,122,73135,2,0,L|417:52,1,49.4999984893799,0|8,0:0|0:0,0:0:0:0:
387,36,73512,1,0,0:0:0:0:
301,60,73890,2,0,P|247:47|188:34,2,98.9999969787599,10|2|10,0:0|0:0|0:0,0:0:0:0:
330,144,75022,6,0,P|339:178|345:209,1,49.4999984893799,2|0,3:0|0:0,0:0:0:0:
377,219,75399,2,0,P|369:244|362:275,1,49.4999984893799,10|2,0:0|0:0,0:0:0:0:
328,293,75776,2,0,P|281:298|216:308,1,98.9999969787599,2|2,3:0|0:0,0:0:0:0:
192,280,76343,1,8,0:0:0:0:
192,280,76531,1,2,0:0:0:0:
245,208,76909,1,8,0:0:0:0:
195,134,77286,2,0,B|139:98|101:150|89:194|14:162,1,197.99999395752,2|0,0:0|0:0,0:0:0:0:
153,286,85588,6,0,L|210:275,2,49.4999984893799,2|2|2,0:0|0:0|0:0,0:0:0:0:
122,318,86154,1,2,0:0:0:0:
44,273,86531,1,2,0:0:0:0:
111,157,87097,2,0,L|58:146,2,49.4999984893799,2|2|2,0:0|0:0|0:0,0:0:0:0:
142,125,87663,2,0,P|129:68|119:20,2,98.9999969787599,2|2|2,0:0|0:0|0:0,0:0:0:0:
176,153,88607,6,0,P|206:148|247:143,1,49.4999984893799,2|2,0:0|0:0,0:0:0:0:
249,107,88984,1,2,0:0:0:0:
249,107,89173,1,2,0:0:0:0:
321,158,89550,1,2,0:0:0:0:
421,70,90116,6,0,B|481:92|481:92|464:131|450:185,1,148.49999546814
431,210,90871,1,0,0:0:0:0:
431,210,91060,2,0,L|450:277,2,49.4999984893799,0|0|0,0:0|0:0|0:0,0:0:0:0:
387,186,91626,6,0,L|313:172,1,55,6|0,3:0|3:0,0:0:0:0:
296,209,92004,2,0,L|222:195,1,55,10|2,0:0|0:0,0:0:0:0:
203,167,92380,2,0,P|135:172|133:216,1,110,2|2,3:0|0:0,0:0:0:0:
151,245,92946,1,8,0:0:0:0:
151,245,93135,1,2,0:0:0:0:
227,307,93512,2,0,P|219:339|213:371,1,55,8|0,0:0|3:0,0:0:0:0:
168,378,93890,1,2,0:0:0:0:
77,338,94267,1,2,0:0:0:0:
138,260,94644,6,0,L|109:134,1,110,0|10,3:0|0:0,0:0:0:0:
158,131,95211,1,2,0:0:0:0:
158,131,95400,2,0,L|176:69,1,55,2|2,3:0|3:0,0:0:0:0:
148,35,95777,1,0,0:0:0:0:
57,73,96154,2,0,B|9:50|9:50|35:-13,2,110,2|10|0,0:0|0:0|3:0,0:0:0:0:
88,111,97098,1,0,3:0:0:0:
88,111,97287,1,10,0:0:0:0:
31,191,97663,6,0,L|48:256,1,55,2|0,3:0|3:0,0:0:0:0:
18,286,98042,1,10,0:0:0:0:
90,352,98419,1,2,3:0:0:0:
164,287,98795,2,0,P|194:292|232:300,1,55,2|8,0:0|0:0,0:0:0:0:
254,331,99173,2,0,L|377:315,1,110,2|8,0:0|0:0,0:0:0:0:
401,284,99740,1,0,3:0:0:0:
401,284,99928,1,2,0:0:0:0:
488,238,100305,2,0,P|477:204|467:171,1,55,2|8,0:0|0:0,0:0:0:0:
488,138,100682,6,0,P|472:93|403:95,1,110,2|10,3:0|0:0,0:0:0:0:
369,103,101249,1,2,0:0:0:0:
369,103,101438,2,0,P|338:95|300:87,2,55,2|0|0,3:0|3:0|0:0,0:0:0:0:
382,150,102003,1,8,0:0:0:0:
382,150,102192,1,2,0:0:0:0:
343,241,102569,2,0,L|276:253,1,55,10|0,0:0|3:0,0:0:0:0:
246,224,102946,1,0,0:0:0:0:
179,297,103324,1,10,0:0:0:0:
85,241,103701,6,0,P|94:202|101:168,1,60.5000018463135,6|2,3:0|3:0,0:0:0:0:
62,140,104078,2,0,P|71:101|78:67,1,60.5000018463135,10|2,0:0|0:0,0:0:0:0:
117,45,104456,2,0,P|199:57|250:66,1,121.000003692627,2|2,3:0|0:0,0:0:0:0:
276,26,105022,1,8,0:0:0:0:
276,26,105210,1,2,0:0:0:0:
337,116,105588,2,0,L|412:103,1,60.5000018463135,8|0,0:0|3:0,0:0:0:0:
437,69,105965,1,2,0:0:0:0:
505,154,106343,1,2,0:0:0:0:
436,238,106720,6,0,L|453:308,2,60.5000018463135,2|2|10,3:0|0:0|0:0,0:0:0:0:
397,199,107286,1,2,0:0:0:0:
397,199,107475,2,0,P|331:204|325:258,1,121.000003692627,2|0,3:0|0:0,0:0:0:0:
345,297,108041,1,10,0:0:0:0:
345,297,108229,2,0,P|414:315|467:331,2,121.000003692627,2|10|0,0:0|0:0|3:0,0:0:0:0:
302,332,109173,1,0,3:0:0:0:
302,332,109361,1,10,0:0:0:0:
199,370,109739,6,0,P|193:342|185:304,1,60.5000018463135,2|2,3:0|3:0,0:0:0:0:
225,272,110116,1,10,0:0:0:0:
125,227,110493,2,0,L|143:153,1,60.5000018463135,2|2,3:0|3:0,0:0:0:0:
189,146,110871,2,0,L|174:87,1,60.5000018463135,2|8,0:0|0:0,0:0:0:0:
183,33,111248,2,0,B|128:6|128:6|81:65,1,121.000003692627,2|8,0:0|0:0,0:0:0:0:
52,91,111814,1,0,3:0:0:0:
52,91,112003,1,2,0:0:0:0:
137,157,112380,2,0,L|112:236,1,60.5000018463135,2|8,0:0|0:0,0:0:0:0:
79,252,112758,6,0,L|9:269,2,60.5000018463135,2|2|10,3:0|0:0|0:0,0:0:0:0:
114,293,113324,1,2,0:0:0:0:
114,293,113512,1,2,3:0:0:0:
212,246,113890,2,0,L|277:261,1,60.5000018463135,0|10,0:0|0:0,0:0:0:0:
308,298,114267,2,0,P|301:233|292:159,1,121.000003692627,2|10,0:0|0:0,0:0:0:0:
342,152,114833,1,0,3:0:0:0:
342,152,115022,2,0,P|374:159|416:174,2,60.5000018463135,0|2|10,0:0|3:0|0:0,0:0:0:0:
329,98,115588,1,2,0:0:0:0:
