osu file format v14

[General]
AudioFilename: audio.mp3
AudioLeadIn: 0
PreviewTime: 1012
Countdown: 0
SampleSet: Soft
StackLeniency: 0.7
Mode: 0
LetterboxInBreaks: 0
WidescreenStoryboard: 0

[Editor]
DistanceSpacing: 0.9
BeatDivisor: 8
GridSize: 4
TimelineZoom: 2.1

[Metadata]
Title:Unmei no Wa
TitleUnicode:運命の輪
Artist:Iuchi Maiko
ArtistUnicode:井内 舞子
Creator:rosario wknd
Version:Heartache
Source:あの夏で待ってる
Tags:ano natsu de matteru waiting in the summer ost insert anime instrumental wheel of fortune
BeatmapID:3829809
BeatmapSetID:1862514

[Difficulty]
HPDrainRate:6
CircleSize:4.4
OverallDifficulty:7
ApproachRate:9
SliderMultiplier:1.6
SliderTickRate:1

[Events]
//Background and Video events
0,0,"kanna.png",0,0
//Break Periods
2,79195,84988
//Storyboard Layer 0 (Background)
//Storyboard Layer 1 (Fail)
//Storyboard Layer 2 (Pass)
//Storyboard Layer 3 (Foreground)
//Storyboard Layer 4 (Overlay)
//Storyboard Sound Samples

[TimingPoints]
1060,377.358490566038,4,2,1,30,1,0
1060,-111.111111111111,4,2,1,30,0,0
6154,-125,4,2,1,30,0,0
7003,-125,4,2,1,5,0,0
7097,-100,4,2,1,35,0,0
13324,-125,4,2,1,5,0,0
13512,-76.9230769230769,4,2,1,45,0,0
14644,-66.6666666666667,4,2,1,60,0,0
25965,-125,4,2,1,30,0,0
26720,-83.3333333333333,4,2,1,40,0,0
38795,-76.9230769230769,4,2,1,45,0,0
50871,-90.9090909090909,4,2,1,35,0,0
62946,-76.9230769230769,4,2,1,45,0,0
78041,-76.9230769230769,4,2,1,20,0,0
79550,-111.111111111111,4,2,1,20,0,0
85588,-142.857142857143,4,2,1,30,0,0
90116,-142.857142857143,4,2,1,11,0,0
90305,-125,4,2,1,15,0,0
90493,-111.111111111111,4,2,1,20,0,0
90682,-90.909090909091,4,2,1,25,0,0
90871,-76.9230769230769,4,2,1,30,0,0
90965,-71.4285714285714,4,2,1,30,0,0
91060,-71.4285714285714,4,2,1,35,0,0
91626,-66.6666666666667,4,2,1,60,0,0
103701,-62.5,4,2,1,65,0,0
114267,-62.5,4,2,1,70,0,0

[Colours]
Combo1 : 255,255,89
Combo2 : 0,128,192
Combo3 : 75,75,150

[HitObjects]
47,29,1060,5,2,0:0:0:0:
65,14,1248,1,2,0:0:0:0:
136,16,1437,1,2,0:0:0:0:
226,111,1626,2,0,P|308:86|379:71,1,143.999995605469,2|2,0:0|0:0,0:0:0:0:
364,73,2569,5,2,0:0:0:0:
378,86,2758,1,2,0:0:0:0:
335,145,2946,1,2,0:0:0:0:
414,225,3135,2,0,P|481:262|448:331,2,143.999995605469,2|2|2,0:0|0:0|0:0,0:0:0:0:
414,225,4078,6,0,P|352:218|341:192,1,71.9999978027344,2|2,0:0|0:0,0:0:0:0:
336,147,4456,1,2,0:0:0:0:
236,279,4644,2,0,P|162:265|87:255,2,143.999995605469,2|2|2,0:0|0:0|0:0,0:0:0:0:
348,160,5588,5,2,0:0:0:0:
345,141,5776,1,2,0:0:0:0:
292,87,5965,1,2,0:0:0:0:
113,215,6154,2,0,B|226:275|237:193|265:130|324:142|371:180,1,288,2|0,0:0|0:0,0:0:0:0:
366,176,7097,5,2,0:0:0:0:
421,132,7286,1,2,0:0:0:0:
398,252,7475,1,2,0:0:0:0:
276,133,7663,2,0,P|264:86|244:15,1,120,2|0,0:0|0:0,0:0:0:0:
244,17,8041,2,0,P|177:33|84:50,1,160,2|2,0:0|0:0,0:0:0:0:
73,202,8607,5,2,0:0:0:0:
31,145,8795,1,2,0:0:0:0:
154,193,8984,1,2,0:0:0:0:
20,268,9173,2,0,P|85:282|185:318,2,160,2|2|0,0:0|0:0|0:0,0:0:0:0:
254,130,10116,5,2,0:0:0:0:
198,88,10305,1,2,0:0:0:0:
120,155,10493,1,2,0:0:0:0:
272,226,10682,2,0,P|350:211|404:205,1,120,2|0,0:0|0:0,0:0:0:0:
390,206,11060,2,0,P|378:157|369:121,1,80,2|0,0:0|0:0,0:0:0:0:
313,301,11437,5,2,0:0:0:0:
256,192,11626,12,0,13324,0:0:0:0:
319,307,13512,5,8,0:0:0:0:
308,294,13607,2,0,P|324:240|336:165,1,103.999995239258,8|8,0:0|0:0,0:0:0:0:
403,83,13890,1,0,3:0:0:0:
408,57,13984,1,0,3:0:0:0:
394,35,14078,2,0,P|365:44|328:54,1,51.999997619629,8|8,0:0|0:0,0:0:0:0:
243,216,14267,5,8,0:0:0:0:
222,200,14361,1,8,0:0:0:0:
217,174,14456,1,0,3:0:0:0:
227,150,14550,1,0,3:0:0:0:
243,138,14644,6,0,P|280:126|326:113,1,60.0000022888184,6|0,3:0|0:0,0:0:0:0:
363,96,14833,1,0,3:0:0:0:
85,0,15022,2,0,B|101:32|101:32|104:55|104:55|118:76|118:76|137:143,1,120.000004577637,10|0,0:0|0:0,0:0:0:0:
42,143,15305,1,0,0:0:0:0:
78,84,15399,1,0,3:0:0:0:
217,159,15588,1,0,3:0:0:0:
149,337,15776,6,0,P|140:299|130:258,1,60.0000022888184,2|0,0:0|0:0,0:0:0:0:
108,186,15965,1,8,0:0:0:0:
245,302,16154,1,2,0:0:0:0:
297,253,16343,1,0,3:0:0:0:
298,235,16437,1,0,0:0:0:0:
286,221,16531,1,8,0:0:0:0:
102,342,16720,1,0,3:0:0:0:
230,296,16909,6,0,L|93:262,1,120.000004577637,2|0,0:0|3:0,0:0:0:0:
125,188,17192,1,0,0:0:0:0:
125,188,17286,2,0,L|143:263,1,60.0000022888184,2|0,0:0|0:0,0:0:0:0:
244,354,17475,2,0,L|229:295,1,60.0000022888184,8|0,0:0|0:0,0:0:0:0:
333,80,17663,5,0,3:0:0:0:
205,163,17852,1,0,0:0:0:0:
333,80,18041,2,0,P|394:105|367:162,1,120.000004577637,10|0,0:0|0:0,0:0:0:0:
471,198,18324,1,0,0:0:0:0:
471,198,18418,2,0,P|349:165|277:152,1,180.000006866455,2|0,3:0|0:0,0:0:0:0:
272,88,18795,1,0,0:0:0:0:
366,309,18984,5,10,0:0:0:0:
380,240,19078,1,0,0:0:0:0:
315,263,19173,1,2,0:0:0:0:
430,380,19361,1,0,3:0:0:0:
456,211,19550,1,10,0:0:0:0:
209,359,19739,2,0,P|243:349|305:336,1,60.0000022888184,2|0,3:0|0:0,0:0:0:0:
412,308,19927,5,0,3:0:0:0:
192,214,20116,2,0,P|271:236|286:242,1,60.0000022888184,0|0,3:0|0:0,0:0:0:0:
482,229,20305,1,10,0:0:0:0:
442,241,20399,1,0,0:0:0:0:
401,253,20493,1,0,0:0:0:0:
361,265,20587,1,0,0:0:0:0:
327,275,20682,6,0,P|317:222|298:152,1,120.000004577637,2|0,3:0|3:0,0:0:0:0:
364,113,20965,1,0,0:0:0:0:
339,176,21060,1,10,0:0:0:0:
132,85,21248,2,0,P|197:62|227:55,1,60.0000022888184
237,12,21437,1,0,3:0:0:0:
293,151,21626,2,0,P|357:175|379:182,1,60.0000022888184,0|0,3:0|0:0,0:0:0:0:
417,73,21814,5,2,0:0:0:0:
209,181,22003,1,8,0:0:0:0:
279,9,22192,1,2,0:0:0:0:
323,92,22380,1,0,3:0:0:0:
339,74,22475,1,0,0:0:0:0:
339,50,22569,1,8,0:0:0:0:
181,104,22758,1,0,3:0:0:0:
358,265,22946,6,0,B|360:234|375:202|375:202|229:240,1,180.000006866455,2|0,0:0|0:0,0:0:0:0:
126,255,23324,1,2,0:0:0:0:
190,280,23418,1,0,0:0:0:0:
253,305,23512,2,0,P|258:284|284:211,1,60.0000022888184,8|0,0:0|0:0,0:0:0:0:
155,84,23701,5,0,3:0:0:0:
115,143,23890,1,0,0:0:0:0:
258,63,24078,1,10,0:0:0:0:
81,23,24267,2,0,P|53:30|15:38,2,60.0000022888184,0|0|2,0:0|0:0|3:0,0:0:0:0:
253,217,24644,2,0,L|274:141,1,60.0000022888184,0|0,3:0|0:0,0:0:0:0:
292,95,24833,1,0,0:0:0:0:
98,281,25022,2,0,P|167:265|183:261,1,60.0000022888184,10|0,0:0|0:0,0:0:0:0:
333,349,25210,5,2,0:0:0:0:
351,327,25399,1,0,3:0:0:0:
354,234,25588,1,10,0:0:0:0:
254,134,25776,1,0,3:0:0:0:
67,253,25965,2,0,B|146:199|166:280|189:339|269:295,1,224
390,286,26720,6,0,P|386:215|326:220,1,143.999995605469,6|0,3:0|0:0,0:0:0:0:
328,218,27097,2,0,P|304:141|290:105,1,95.9999970703126,10|2,0:0|0:0,0:0:0:0:
409,14,27475,1,2,3:0:0:0:
445,91,27663,2,0,P|358:74|308:69,1,95.9999970703126,2|0,3:0|0:0,0:0:0:0:
234,44,28041,6,0,P|182:45|185:112,1,95.9999970703126,8|0,0:0|0:0,0:0:0:0:
131,205,28418,1,0,0:0:0:0:
195,165,28607,1,8,0:0:0:0:
58,60,28795,2,0,B|5:98|5:98|23:129|51:182,1,143.999995605469
43,166,29173,1,0,3:0:0:0:
221,247,29361,2,0,P|149:258|79:273,1,143.999995605469
79,273,29739,6,0,B|55:229|55:229|98:179,1,95.9999970703126,2|0,3:0|0:0,0:0:0:0:
218,357,30116,1,10,0:0:0:0:
271,304,30305,1,2,0:0:0:0:
182,176,30493,1,2,3:0:0:0:
233,114,30682,1,2,3:0:0:0:
304,142,30871,1,0,0:0:0:0:
175,261,31060,6,0,P|98:235|26:220,1,143.999995605469,8|0,0:0|0:0,0:0:0:0:
36,221,31437,2,0,P|13:286|39:298,1,95.9999970703126,0|8,3:0|0:0,0:0:0:0:
172,366,31814,2,0,B|201:357|229:339|229:339|282:342|282:342|322:324|368:315,1,191.999994140625,0|0,0:0|3:0,0:0:0:0:
422,246,32380,1,8,0:0:0:0:
462,360,32569,1,0,3:0:0:0:
262,216,32758,5,2,3:0:0:0:
329,89,32946,1,2,0:0:0:0:
262,216,33135,2,0,P|252:169|235:97,1,95.9999970703126,10|2,0:0|0:0,0:0:0:0:
241,122,33418,1,0,0:0:0:0:
241,122,33512,1,2,3:0:0:0:
323,163,33701,1,2,3:0:0:0:
197,265,33890,1,0,0:0:0:0:
328,338,34078,6,0,P|405:321|453:316,1,95.9999970703126,8|0,0:0|0:0,0:0:0:0:
261,164,34456,1,0,3:0:0:0:
318,128,34644,2,0,P|395:145|443:150,1,95.9999970703126,8|0,0:0|0:0,0:0:0:0:
261,34,35022,2,0,P|190:46|119:59,1,143.999995605469
119,59,35399,2,0,P|174:97|166:137,1,95.9999970703126,0|8,0:0|0:0,0:0:0:0:
173,120,35682,1,0,0:0:0:0:
173,120,35776,1,2,3:0:0:0:
248,45,35965,5,2,0:0:0:0:
81,122,36154,1,10,0:0:0:0:
52,58,36343,1,2,3:0:0:0:
209,208,36531,1,2,3:0:0:0:
253,151,36720,2,0,P|225:106|178:133,1,95.9999970703126,2|0,3:0|0:0,0:0:0:0:
91,342,37097,6,0,P|157:332|135:261,1,143.999995605469,8|0,0:0|0:0,0:0:0:0:
149,269,37475,2,0,P|235:253|276:248,1,95.9999970703126,0|8,3:0|0:0,0:0:0:0:
306,141,37852,1,0,0:0:0:0:
346,196,38041,2,0,P|432:219|476:234,2,95.9999970703126,0|0|8,0:0|3:0|0:0,0:0:0:0:
174,33,38607,5,0,0:0:0:0:
174,33,38701,1,0,0:0:0:0:
174,33,38795,2,0,L|258:56,1,51.999997619629,6|0,3:0|0:0,0:0:0:0:
290,66,38984,1,0,0:0:0:0:
351,198,39173,1,10,0:0:0:0:
407,63,39361,1,2,0:0:0:0:
237,175,39550,2,0,P|251:243|259:294,1,103.999995239258,2|2,3:0|3:0,0:0:0:0:
256,277,39833,1,0,0:0:0:0:
256,277,39927,1,2,0:0:0:0:
321,320,40116,1,8,0:0:0:0:
90,354,40305,6,0,B|114:350|157:341|157:341|192:360|192:360|226:366|277:379,1,155.999992858887,2|0,0:0|0:0,0:0:0:0:
238,369,40682,1,8,0:0:0:0:
107,239,40871,1,0,0:0:0:0:
107,239,40965,1,0,0:0:0:0:
107,239,41060,1,2,0:0:0:0:
195,144,41248,1,0,3:0:0:0:
245,195,41437,1,2,0:0:0:0:
107,239,41626,1,8,0:0:0:0:
143,21,41814,5,2,3:0:0:0:
222,114,42003,1,0,0:0:0:0:
143,21,42192,2,0,P|82:18|70:72,1,103.999995239258,10|2,0:0|0:0,0:0:0:0:
17,106,42475,1,0,0:0:0:0:
17,106,42569,2,0,B|107:80|107:80|149:164,1,155.999992858887,2|0,3:0|0:0,0:0:0:0:
134,135,42946,1,0,0:0:0:0:
270,19,43135,5,10,0:0:0:0:
270,19,43229,1,2,0:0:0:0:
270,19,43324,1,2,0:0:0:0:
355,133,43512,2,0,P|360:104|368:62,1,51.999997619629,0|0,3:0|0:0,0:0:0:0:
381,15,43701,1,10,0:0:0:0:
230,118,43890,2,0,P|235:145|243:189,1,51.999997619629,2|0,0:0|0:0,0:0:0:0:
269,303,44079,5,0,0:0:0:0:
327,262,44267,1,2,3:0:0:0:
131,186,44456,1,10,0:0:0:0:
206,263,44644,1,0,3:0:0:0:
349,152,44833,6,0,P|407:170|388:217,1,103.999995239258,2|0,3:0|0:0,0:0:0:0:
403,202,45116,1,0,0:0:0:0:
403,202,45210,1,10,0:0:0:0:
346,257,45399,1,2,0:0:0:0:
212,127,45588,2,0,P|138:135|163:197,1,155.999992858887,2|0,3:0|0:0,0:0:0:0:
264,319,45965,6,0,P|254:288|243:246,1,51.999997619629,2|0,0:0|0:0,0:0:0:0:
230,195,46154,1,8,0:0:0:0:
71,335,46343,1,2,0:0:0:0:
133,300,46531,1,0,3:0:0:0:
133,300,46626,1,0,0:0:0:0:
133,300,46720,1,8,0:0:0:0:
189,349,46909,1,0,0:0:0:0:
323,244,47097,6,0,P|335:300|352:358,1,103.999995239258,2|0,0:0|3:0,0:0:0:0:
243,90,47475,2,0,P|230:152|217:203,1,103.999995239258,2|8,0:0|0:0,0:0:0:0:
220,191,47758,5,0,0:0:0:0:
220,191,47852,2,0,P|192:199|154:212,1,51.999997619629,2|0,3:0|0:0,0:0:0:0:
176,52,48041,1,2,0:0:0:0:
333,155,48229,1,10,0:0:0:0:
176,52,48418,2,0,B|124:61|124:61|59:46|59:46|37:83|-12:130,1,207.999990478516,2|0,0:0|3:0,0:0:0:0:
246,31,48984,2,0,P|301:46|287:101,1,103.999995239258,2|8,0:0|0:0,0:0:0:0:
232,123,49267,5,0,0:0:0:0:
232,123,49361,2,0,P|330:104|434:90,1,155.999992858887,2|0,0:0|0:0,0:0:0:0:
385,95,49739,1,10,0:0:0:0:
302,29,49927,1,0,0:0:0:0:
212,197,50116,6,0,P|264:208|296:221,1,51.999997619629,2|0,0:0|0:0,0:0:0:0:
395,138,50305,2,0,P|343:127|311:114,1,51.999997619629,0|0,3:0|0:0,0:0:0:0:
191,271,50493,1,8,0:0:0:0:
217,273,50588,1,0,3:0:0:0:
242,278,50682,1,0,3:0:0:0:
266,285,50776,1,0,3:0:0:0:
289,293,50871,6,0,P|401:268|495:257,1,176.000005371094,6|0,3:0|0:0,0:0:0:0:
276,368,51437,2,0,P|260:283|232:170,1,176.000005371094
287,142,52003,1,2,0:0:0:0:
182,38,52192,5,2,0:0:0:0:
182,38,52286,1,2,0:0:0:0:
182,38,52380,2,0,P|112:41|125:127,1,176.000005371094,2|0,3:0|0:0,0:0:0:0:
123,125,52946,1,0,0:0:0:0:
267,66,53135,2,0,P|315:86|315:124,1,88.000002685547,2|0,0:0|0:0,0:0:0:0:
232,223,53512,2,0,P|194:210|119:201,1,88.000002685547
101,139,53795,5,0,0:0:0:0:
101,139,53890,2,0,B|41:177|41:177|76:224|90:272,1,176.000005371094,2|0,3:0|0:0,0:0:0:0:
214,351,54456,1,0,0:0:0:0:
214,351,54644,1,0,0:0:0:0:
253,290,54833,1,0,0:0:0:0:
354,192,55022,2,0,P|412:217|387:263,1,88.000002685547,2|0,0:0|0:0,0:0:0:0:
359,301,55305,5,0,0:0:0:0:
359,301,55399,2,0,P|334:207|310:119,1,176.000005371094,2|0,3:0|0:0,0:0:0:0:
259,0,55965,2,0,L|239:63,1,44.0000013427735
177,87,56154,2,0,P|312:59|369:51,1,176.000005371094,2|0,0:0|0:0,0:0:0:0:
349,53,56720,1,0,0:0:0:0:
446,284,56909,6,0,B|453:259|455:233|455:233|473:197|473:197|472:146|472:146|483:85,1,176.000005371094,10|0,0:0|0:0,0:0:0:0:
438,56,57475,1,0,0:0:0:0:
316,145,57663,2,0,P|249:155|173:179,1,132.00000402832,2|0,0:0|0:0,0:0:0:0:
187,173,58041,2,0,P|165:102|134:56,1,88.000002685547
55,223,58418,6,0,P|159:246|243:275,1,176.000005371094,2|0,3:0|0:0,0:0:0:0:
281,228,58984,1,0,0:0:0:0:
101,375,59173,2,0,P|223:339|301:323,1,176.000005371094,2|0,0:0|0:0,0:0:0:0:
385,306,59739,1,0,0:0:0:0:
299,118,59927,6,0,P|235:127|234:197,1,132.00000402832,2|0,3:0|0:0,0:0:0:0:
226,184,60305,1,2,0:0:0:0:
281,237,60493,1,2,0:0:0:0:
383,113,60682,2,0,P|431:124|493:140,1,88.000002685547,2|0,0:0|0:0,0:0:0:0:
355,43,61060,1,2,0:0:0:0:
418,200,61248,1,2,0:0:0:0:
355,43,61437,6,0,P|253:63|166:84,1,176.000005371094,2|2,3:0|0:0,0:0:0:0:
66,112,62003,1,0,0:0:0:0:
157,9,62192,1,2,3:0:0:0:
218,54,62380,1,8,0:0:0:0:
228,69,62475,1,0,0:0:0:0:
228,84,62569,1,2,3:0:0:0:
160,181,62758,1,8,0:0:0:0:
366,25,62946,6,0,P|433:26|403:110,1,155.999992858887,4|0,3:0|0:0,0:0:0:0:
430,98,63324,2,0,P|363:117|357:122,1,51.999997619629,8|0,0:0|0:0,0:0:0:0:
321,147,63512,1,0,0:0:0:0:
251,17,63701,1,0,3:0:0:0:
128,87,63890,1,0,3:0:0:0:
251,17,64078,2,0,L|221:142,1,103.999995239258,0|10,0:0|0:0,0:0:0:0:
143,161,64361,5,2,0:0:0:0:
143,161,64456,2,0,P|243:140|325:132,1,155.999992858887,2|0,0:0|0:0,0:0:0:0:
296,133,64833,1,8,0:0:0:0:
250,331,65022,1,2,0:0:0:0:
250,331,65116,1,0,0:0:0:0:
250,331,65210,2,0,P|222:243|213:217,1,103.999995239258,2|0,0:0|0:0,0:0:0:0:
93,115,65588,2,0,P|46:148|73:189,1,103.999995239258,2|8,0:0|0:0,0:0:0:0:
0,236,65871,5,0,0:0:0:0:
0,236,65965,2,0,B|37:225|37:225|79:225|79:225|114:206|114:206|142:204|173:198,1,155.999992858887,2|0,3:0|0:0,0:0:0:0:
149,202,66343,1,8,0:0:0:0:
265,337,66531,1,2,0:0:0:0:
265,337,66626,1,2,0:0:0:0:
265,337,66720,2,0,B|292:308|317:287|317:287|265:201,1,155.999992858887,0|2,3:0|0:0,0:0:0:0:
273,215,67097,2,0,P|303:209|341:198,1,51.999997619629
208,272,67286,2,0,P|178:278|140:289,1,51.999997619629,10|0,0:0|0:0,0:0:0:0:
330,84,67475,5,2,0:0:0:0:
272,120,67663,1,0,3:0:0:0:
439,263,67852,1,10,0:0:0:0:
442,104,68041,5,0,0:0:0:0:
460,121,68135,1,0,0:0:0:0:
452,145,68229,1,2,0:0:0:0:
395,191,68418,1,0,3:0:0:0:
303,34,68607,2,0,P|251:44|240:95,1,103.999995239258,8|0,0:0|0:0,0:0:0:0:
164,147,68890,1,0,0:0:0:0:
164,147,68984,6,0,B|244:121|244:121|298:133|284:195,1,155.999992858887,2|0,3:0|0:0,0:0:0:0:
286,170,69361,2,0,L|267:238,1,51.999997619629,8|0,0:0|0:0,0:0:0:0:
359,77,69550,1,2,0:0:0:0:
359,77,69644,1,2,0:0:0:0:
359,77,69739,1,2,3:0:0:0:
269,24,69927,1,2,3:0:0:0:
206,144,70116,1,2,0:0:0:0:
353,222,70305,1,10,0:0:0:0:
215,371,70493,6,0,P|196:300|169:211,1,155.999992858887,2|0,0:0|0:0,0:0:0:0:
172,221,70871,2,0,P|120:245|100:252,1,51.999997619629,10|0,0:0|0:0,0:0:0:0:
294,135,71060,2,0,P|215:101|143:69,1,155.999992858887,2|0,0:0|0:0,0:0:0:0:
151,72,71437,1,2,0:0:0:0:
217,179,71626,1,2,0:0:0:0:
245,4,71814,1,10,0:0:0:0:
74,237,72003,6,0,B|105:254|141:263|141:263|183:319|183:319|225:310|275:303,1,207.999990478516,2|8,3:0|0:0,0:0:0:0:
351,316,72569,1,2,0:0:0:0:
364,300,72663,1,2,0:0:0:0:
359,279,72758,1,2,3:0:0:0:
304,231,72946,1,0,3:0:0:0:
203,353,73135,2,0,P|150:312|195:265,1,103.999995239258,0|8,0:0|0:0,0:0:0:0:
223,232,73418,5,0,0:0:0:0:
223,232,73512,2,0,P|195:225|149:213,1,51.999997619629
106,199,73701,1,0,3:0:0:0:
309,350,73890,6,0,P|388:336|368:265,1,155.999992858887,10|0,0:0|0:0,0:0:0:0:
445,247,74267,2,0,P|371:221|384:171,1,103.999995239258,2|0,0:0|3:0,0:0:0:0:
468,148,74550,1,0,0:0:0:0:
468,148,74644,2,0,P|381:167|290:188,1,155.999992858887,10|0,0:0|0:0,0:0:0:0:
272,62,75022,6,0,P|267:27|325:9,2,69.3333301595054,2|2|2,3:0|0:0|0:0,0:0:0:0:
362,93,75399,6,0,P|416:89|430:96,2,51.999997619629,10|2|2,0:0|0:0|0:0,0:0:0:0:
362,21,75682,5,2,0:0:0:0:
362,21,75776,2,0,L|320:181,1,155.999992858887,2|0,3:0|0:0,0:0:0:0:
322,171,76154,1,2,0:0:0:0:
256,82,76343,1,8,0:0:0:0:
22,152,76531,6,0,B|43:120|60:84|60:84|104:101|160:113,1,155.999992858887,2|0,0:0|0:0,0:0:0:0:
135,108,76909,2,0,P|143:164|157:232,1,103.999995239258,8|0,0:0|0:0,0:0:0:0:
152,210,77192,1,0,0:0:0:0:
152,210,77286,1,2,0:0:0:0:
18,301,77475,5,0,3:0:0:0:
80,262,77663,1,8,0:0:0:0:
143,290,77852,1,0,0:0:0:0:
88,380,78041,1,0,0:0:0:0:
173,30,85588,6,0,P|215:20|240:18,2,55.9999982910157,2|2|2,0:0|0:0|0:0,0:0:0:0:
129,83,86154,1,2,0:0:0:0:
129,83,86531,2,0,P|151:164|158:206,1,111.999996582031,2|0,0:0|0:0,0:0:0:0:
72,289,87097,6,0,P|27:279|8:276,2,55.9999982910157,2|2|2,0:0|0:0|0:0,0:0:0:0:
122,239,87663,2,0,P|180:251|183:305,2,111.999996582031,2|2|2,0:0|0:0|0:0,0:0:0:0:
222,360,88607,5,2,0:0:0:0:
243,364,88795,1,2,0:0:0:0:
298,323,88984,1,2,0:0:0:0:
220,231,89173,2,0,P|206:176|180:110,2,111.999996582031,2|2|0,0:0|0:0|0:0,0:0:0:0:
285,285,90116,6,0,P|290:281|284:285,1,27.9999991455078
314,272,90305,2,0,P|310:275|312:273,1,32
365,213,90493,6,0,P|364:210|365:214,1,35.9999989013672
332,128,90682,2,0,P|329:141|331:127,1,44.0000013427735
214,91,90871,6,0,P|226:104|212:92,1,51.999997619629
55,156,91060,6,0,P|84:161|135:176,1,55.9999982910157
281,62,91248,1,0,0:0:0:0:
290,32,91343,1,0,0:0:0:0:
274,9,91437,2,0,L|212:25,1,55.9999982910157
89,227,91626,6,0,L|119:318,1,60.0000022888184,6|0,3:0|0:0,0:0:0:0:
130,352,91815,1,0,3:0:0:0:
191,99,92003,2,0,P|141:50|96:81,1,120.000004577637,10|2,0:0|0:0,0:0:0:0:
99,149,92286,1,0,0:0:0:0:
115,84,92380,1,2,3:0:0:0:
18,151,92570,1,2,3:0:0:0:
240,232,92758,6,0,P|247:197|257:165,1,60.0000022888184,2|0,0:0|0:0,0:0:0:0:
283,67,92946,1,8,0:0:0:0:
387,211,93135,1,2,0:0:0:0:
413,151,93324,1,0,3:0:0:0:
396,134,93418,1,0,0:0:0:0:
372,139,93512,1,8,0:0:0:0:
177,156,93702,1,0,3:0:0:0:
316,9,93890,6,0,P|300:78|284:154,1,120.000004577637,2|0,0:0|3:0,0:0:0:0:
377,191,94174,1,0,0:0:0:0:
377,191,94267,2,0,P|367:163|352:120,1,60.0000022888184,2|0,0:0|0:0,0:0:0:0:
246,0,94456,2,0,P|255:27|270:70,1,60.0000022888184,8|0,0:0|0:0,0:0:0:0:
404,56,94644,5,0,3:0:0:0:
229,145,94833,1,0,0:0:0:0:
404,56,95022,2,0,P|463:88|445:128,1,120.000004577637,10|2,0:0|0:0,0:0:0:0:
502,169,95306,1,0,0:0:0:0:
502,169,95399,2,0,B|478:158|450:155|450:155|404:129|404:129|371:131|317:114,1,180.000006866455,2|0,3:0|0:0,0:0:0:0:
297,59,95777,1,0,0:0:0:0:
131,143,95966,5,8,0:0:0:0:
90,89,96060,1,0,0:0:0:0:
140,41,96155,1,2,0:0:0:0:
226,214,96343,2,0,P|263:203|296:197,2,60.0000022888184,0|0|10,3:0|0:0|0:0,0:0:0:0:
43,209,96720,2,0,P|104:224|129:232,1,60.0000022888184,2|0,3:0|0:0,0:0:0:0:
269,284,96909,5,0,3:0:0:0:
103,359,97097,2,0,P|80:297|70:270,1,60.0000022888184,0|0,3:0|0:0,0:0:0:0:
163,78,97287,1,10,0:0:0:0:
177,104,97381,1,0,0:0:0:0:
183,133,97475,1,0,0:0:0:0:
180,162,97569,1,0,0:0:0:0:
171,190,97663,6,0,P|110:178|89:175,1,60.0000022888184,2|0,3:0|0:0,0:0:0:0:
42,160,97852,1,0,3:0:0:0:
193,378,98041,2,0,P|243:337|216:301,1,120.000004577637,10|2,0:0|0:0,0:0:0:0:
138,254,98324,1,0,0:0:0:0:
185,309,98418,1,2,3:0:0:0:
365,161,98607,2,0,L|381:238,1,60.0000022888184,2|0,3:0|0:0,0:0:0:0:
391,289,98795,5,2,0:0:0:0:
233,149,98984,2,0,P|300:136|319:132,1,60.0000022888184,8|0,0:0|0:0,0:0:0:0:
481,88,99173,1,2,0:0:0:0:
441,34,99361,1,0,3:0:0:0:
418,24,99456,1,0,0:0:0:0:
395,32,99550,1,8,0:0:0:0:
476,179,99739,1,0,3:0:0:0:
395,32,99927,6,0,B|290:55|290:55|298:81|302:130,1,180.000006866455,2|0,0:0|0:0,0:0:0:0:
182,217,100306,1,2,0:0:0:0:
223,160,100400,1,0,0:0:0:0:
283,194,100493,2,0,P|300:247|312:275,1,60.0000022888184,8|0,0:0|0:0,0:0:0:0:
145,311,100682,6,0,P|167:379|225:366,1,120.000004577637,2|2,3:0|0:0,0:0:0:0:
303,332,100965,1,0,0:0:0:0:
303,332,101060,2,0,L|239:319,1,60.0000022888184,10|0,0:0|0:0,0:0:0:0:
95,269,101248,2,0,L|153:280,1,60.0000022888184,2|0,0:0|0:0,0:0:0:0:
239,100,101437,1,2,3:0:0:0:
290,235,101626,1,0,3:0:0:0:
124,142,101814,1,0,0:0:0:0:
313,74,102003,1,8,0:0:0:0:
124,142,102192,6,0,P|53:123|-17:109,1,120.000004577637,2|0,0:0|3:0,0:0:0:0:
22,33,102475,1,0,0:0:0:0:
61,91,102569,1,10,0:0:0:0:
16,226,102758,2,0,P|26:260|36:300,2,60.0000022888184,0|0|0,3:0|0:0|0:0,0:0:0:0:
139,83,103135,2,0,P|130:114|123:145,1,60.0000022888184,0|0,3:0|0:0,0:0:0:0:
235,339,103324,5,10,0:0:0:0:
267,324,103418,1,0,0:0:0:0:
302,317,103512,1,0,0:0:0:0:
338,316,103607,1,0,0:0:0:0:
375,322,103701,6,0,P|390:261|395:244,1,64,6|0,3:0|0:0,0:0:0:0:
421,141,103890,1,2,3:0:0:0:
201,206,104078,2,0,B|222:230|241:257|241:257|311:227,1,128,10|2,0:0|0:0,0:0:0:0:
347,168,104362,1,0,0:0:0:0:
284,193,104456,1,2,3:0:0:0:
354,298,104645,1,2,3:0:0:0:
211,34,104833,6,0,P|202:66|192:105,1,64,2|0,0:0|0:0,0:0:0:0:
218,228,105022,2,0,P|226:195|237:157,1,64,8|0,0:0|0:0,0:0:0:0:
94,88,105210,1,2,0:0:0:0:
278,49,105400,1,0,3:0:0:0:
303,68,105494,1,0,0:0:0:0:
299,99,105588,1,8,0:0:0:0:
84,122,105777,1,0,3:0:0:0:
300,203,105965,6,0,P|269:272|212:251,1,128,2|0,0:0|3:0,0:0:0:0:
145,237,106249,1,0,0:0:0:0:
205,194,106343,2,0,P|213:231|223:272,1,64,2|0,0:0|0:0,0:0:0:0:
254,372,106531,1,8,0:0:0:0:
105,171,106720,5,2,3:0:0:0:
307,270,106909,1,2,0:0:0:0:
105,171,107097,2,0,P|41:177|48:235,1,128,10|2,0:0|0:0,0:0:0:0:
131,258,107381,1,0,0:0:0:0:
131,258,107475,2,0,P|103:139|83:43,1,192,2|0,3:0|0:0,0:0:0:0:
131,14,107852,1,0,0:0:0:0:
244,155,108041,5,10,0:0:0:0:
261,87,108135,1,0,0:0:0:0:
281,19,108230,1,2,0:0:0:0:
163,119,108418,1,0,3:0:0:0:
314,236,108607,1,10,0:0:0:0:
439,55,108796,6,0,P|410:62|377:71,1,64,2|0,3:0|0:0,0:0:0:0:
251,43,108984,1,0,3:0:0:0:
474,188,109173,2,0,P|446:175|413:161,1,64,0|0,3:0|0:0,0:0:0:0:
244,49,109361,1,10,0:0:0:0:
259,84,109456,1,0,0:0:0:0:
269,120,109550,1,0,0:0:0:0:
281,156,109644,1,0,0:0:0:0:
296,191,109739,6,0,P|274:260|254:347,1,128,2|2,3:0|3:0,0:0:0:0:
373,335,110022,1,0,0:0:0:0:
338,275,110116,2,0,L|252:296,1,64,10|0,0:0|0:0,0:0:0:0:
141,329,110305,1,2,0:0:0:0:
370,189,110494,1,2,3:0:0:0:
234,89,110682,1,2,3:0:0:0:
275,290,110871,6,0,P|282:253|291:214,1,64,2|0,0:0|0:0,0:0:0:0:
322,62,111060,1,8,0:0:0:0:
162,186,111248,1,2,0:0:0:0:
322,62,111437,1,0,3:0:0:0:
361,58,111532,1,0,0:0:0:0:
385,89,111626,1,8,0:0:0:0:
167,196,111815,1,0,3:0:0:0:
436,279,112003,6,0,B|390:283|366:281|366:281|330:314|330:314|293:324|251:344,1,192,2|0,0:0|0:0,0:0:0:0:
181,253,112380,2,0,L|272:276,1,64,2|0,0:0|0:0,0:0:0:0:
415,364,112569,2,0,L|324:341,1,64,8|0,0:0|0:0,0:0:0:0:
250,185,112758,5,2,3:0:0:0:
142,323,112947,1,2,0:0:0:0:
334,227,113135,1,10,0:0:0:0:
140,110,113324,1,2,0:0:0:0:
140,110,113418,1,0,0:0:0:0:
140,110,113512,1,2,3:0:0:0:
242,291,113701,2,0,P|248:259|254:228,1,64,0|0,3:0|0:0,0:0:0:0:
282,91,113890,1,0,0:0:0:0:
57,218,114078,2,0,P|134:233|158:238,1,64,10|0,0:0|0:0,0:0:0:0:
341,369,114267,5,2,0:0:0:0:
407,329,114456,1,0,3:0:0:0:
152,264,114644,5,10,0:0:0:0:
72,216,114833,1,0,3:0:0:0:
343,157,115022,5,0,0:0:0:0:
439,98,115211,1,2,3:0:0:0:
182,19,115399,5,10,0:0:0:0:
371,255,115588,5,2,0:0:0:0:
