osu file format v14

[General]
AudioFilename: audio.mp3
AudioLeadIn: 0
PreviewTime: -1
Countdown: 1
SampleSet: Normal
StackLeniency: 0.7
Mode: 0
LetterboxInBreaks: 0
WidescreenStoryboard: 0

[Editor]
Bookmarks: 63821
DistanceSpacing: 1
BeatDivisor: 6
GridSize: 4
TimelineZoom: 0.8

[Metadata]
Title:Hinagiku
TitleUnicode:Hinagiku
Artist:Iuchi Maiko
ArtistUnicode:Iuchi Maiko
Creator:DarioTD
Version:Moon
Source:Rewrite Key
Tags:rewrite moon terra key visual arts
BeatmapID:1192966
BeatmapSetID:563638

[Difficulty]
HPDrainRate:4
CircleSize:4.2
OverallDifficulty:6.5
ApproachRate:6.8
SliderMultiplier:1.50000000596046
SliderTickRate:1

[Events]
//Background and Video events
0,0,"terra3.jpg",0,0
//Break Periods
2,12842,23404
//Storyboard Layer 0 (Background)
//Storyboard Layer 1 (Fail)
//Storyboard Layer 2 (Pass)
//Storyboard Layer 3 (Foreground)
//Storyboard Sound Samples

[TimingPoints]
0,499.066722240747,3,1,0,100,1,0
27468,500.0684056428,3,1,0,100,1,0
27468,-50,3,1,0,100,0,0

[HitObjects]
256,192,2162,12,10,3410,0:0:0:0:
148,208,4158,5,2,0:0:0:0:
216,180,4408,1,2,0:0:0:0:
272,320,4907,1,2,0:0:0:0:
380,212,5406,1,2,0:0:0:0:
236,252,5905,1,2,0:0:0:0:
268,104,6404,1,14,0:0:0:0:
172,180,9482,6,0,L|216:164,1,25.000000099341,6|0,0:0|0:0,0:0:0:0:
224,192,10314,1,2,0:0:0:0:
224,192,10563,5,2,0:0:0:0:
356,116,11062,1,2,0:0:0:0:
316,260,11561,1,2,0:0:0:0:
180,340,12060,5,2,0:0:0:0:
180,200,12559,2,0,L|208:180,1,25.000000099341,6|0,0:0|0:0,0:0:0:0:
256,192,24454,12,4,25785,0:0:0:0:
256,188,27365,5,14,0:0:0:0:
256,112,27634,1,8,0:0:0:0:
256,192,27884,2,2,L|256:360,1,150.000000596046,6|0,0:0|0:0,0:0:0:0:
256,192,28884,5,14,0:0:0:0:
320,240,29134,1,8,0:0:0:0:
256,192,29384,2,2,L|100:80,1,150.000000596046,6|0,0:0|0:0,0:0:0:0:
256,192,30385,5,14,0:0:0:0:
192,240,30635,1,8,0:0:0:0:
256,192,30885,2,2,L|404:64,1,150.000000596046,6|0,0:0|0:0,0:0:0:0:
256,188,31885,5,10,0:0:0:0:
256,188,32385,1,10,0:0:0:0:
256,188,32885,1,10,0:0:0:0:
256,196,33385,5,14,0:0:0:0:
256,272,33635,1,8,0:0:0:0:
256,192,33885,2,2,L|256:24,1,150.000000596046,6|0,0:0|0:0,0:0:0:0:
260,192,34885,5,14,0:0:0:0:
320,144,35135,1,8,0:0:0:0:
256,192,35385,2,2,L|112:300,1,150.000000596046,6|0,0:0|0:0,0:0:0:0:
256,192,36385,5,14,0:0:0:0:
196,140,36635,1,8,0:0:0:0:
256,192,36885,2,2,L|396:288,1,150.000000596046,6|0,0:0|0:0,0:0:0:0:
144,268,38886,6,0,L|0:340,2,150.000000596046,2|2|2,0:0|0:0|0:0,0:0:0:0:
244,68,40386,1,2,0:0:0:0:
344,264,40886,1,2,0:0:0:0:
156,280,41886,1,2,0:0:0:0:
248,180,42386,6,8,L|400:200,4,150.000000596046,14|14|14|14|14,0:0|0:0|0:0|0:0|0:0,0:0:0:0:
260,100,43636,2,10,P|328:68|328:100,1,150.000000596046,8|2,0:0|0:0,0:0:0:0:
76,268,44887,2,0,P|84:244|179:263,2,150.000000596046,2|2|2,0:0|0:0|0:0,0:0:0:0:
239,84,46387,1,2,0:0:0:0:
239,84,46887,5,2,0:0:0:0:
100,132,47887,1,2,0:0:0:0:
100,132,48387,6,8,L|120:284,4,150.000000596046,14|14|14|14|14,0:0|0:0|0:0|0:0|0:0,0:0:0:0:
244,176,49637,1,2,0:0:0:0:
244,176,49887,1,10,0:0:0:0:
132,196,50887,6,0,P|204:140|248:164,1,150.000000596046,2|2,0:0|0:0,0:0:0:0:
246,162,51387,5,10,0:0:0:0:
376,224,52388,1,10,0:0:0:0:
104,148,52888,1,10,0:0:0:0:
324,364,53388,1,10,0:0:0:0:
328,64,53888,1,10,0:0:0:0:
116,236,54388,2,0,P|392:88|488:300,1,600.000002384184,6|2,0:0|0:0,0:0:0:0:
380,276,55888,6,0,P|200:136|236:116,1,450.000001788138,6|2,0:0|0:0,0:0:0:0:
288,208,56888,1,10,0:0:0:0:
432,204,57388,1,10,0:0:0:0:
96,216,58138,2,2,L|240:168,1,150.000000596046
238,168,58888,5,2,0:0:0:0:
256,56,59889,1,2,0:0:0:0:
176,232,60389,2,8,B|248:132|216:120|156:168,4,150.000000596046,14|14|14|14|14,0:0|0:0|0:0|0:0|0:0,0:0:0:0:
320,196,61639,5,10,0:0:0:0:
320,196,61889,1,10,0:0:0:0:
168,116,62972,5,2,0:0:0:0:
172,264,63222,1,2,0:0:0:0:
40,196,63472,1,2,0:0:0:0:
284,180,64473,1,2,0:0:0:0:
284,304,64973,5,2,0:0:0:0:
332,152,65973,1,2,0:0:0:0:
332,152,66473,6,0,L|480:116,1,150.000000596046,6|2,0:0|0:0,0:0:0:0:
500,196,66973,2,0,L|344:236,1,150.000000596046,6|2,0:0|0:0,0:0:0:0:
344,236,67473,5,2,0:0:0:0:
164,292,67973,1,2,0:0:0:0:
240,56,68473,1,10,0:0:0:0:
156,120,68973,6,8,L|308:228,1,150.000000596046,2|2,0:0|0:0,0:0:0:0:
278,206,69473,5,10,0:0:0:0:
144,264,70473,1,2,0:0:0:0:
428,164,70973,1,2,0:0:0:0:
52,208,71974,1,2,0:0:0:0:
88,280,72474,6,0,L|236:244,1,150.000000596046,6|2,0:0|0:0,0:0:0:0:
200,96,72974,2,0,L|44:136,1,150.000000596046,6|2,0:0|0:0,0:0:0:0:
72,208,73474,2,0,L|248:164,1,150.000000596046,6|2,0:0|0:0,0:0:0:0:
217,171,73974,5,10,0:0:0:0:
217,171,74474,1,10,0:0:0:0:
468,316,74974,5,2,0:0:0:0:
340,292,75224,1,2,0:0:0:0:
224,196,75474,1,10,0:0:0:0:
292,188,76474,5,2,0:0:0:0:
16,140,76974,1,2,0:0:0:0:
228,304,77474,1,2,0:0:0:0:
436,88,77974,1,2,0:0:0:0:
176,224,78474,1,14,0:0:0:0:
328,272,79475,5,2,0:0:0:0:
76,148,79975,1,14,0:0:0:0:
96,328,80975,2,0,L|400:268,3,300.000001192092,10|10|10|10,0:0|0:0|0:0|0:0,0:0:0:0:
440,240,82975,5,10,0:0:0:0:
148,192,83475,1,10,0:0:0:0:
444,240,83975,1,10,0:0:0:0:
148,192,84475,1,2,0:0:0:0:
196,128,85475,5,10,0:0:0:0:
132,244,85725,1,10,0:0:0:0:
260,232,85976,1,2,0:0:0:0:
256,192,86142,12,14,87476,0:0:0:0:
308,124,88226,6,0,B|156:168|156:168|156:160|157:162|156:160,1,150.000000596046,2|2,0:0|0:0,0:0:0:0:
116,252,88976,2,0,L|416:168,3,300.000001192092,2|2|2|2,0:0|0:0|0:0|0:0,0:0:0:0:
224,256,91476,5,2,0:0:0:0:
288,120,91726,1,2,0:0:0:0:
404,204,91976,1,2,0:0:0:0:
160,148,92976,5,2,0:0:0:0:
452,288,93477,1,2,0:0:0:0:
184,188,94477,6,0,L|328:260,2,150.000000596046,2|2|2,0:0|0:0|0:0,0:0:0:0:
184,188,95977,5,2,0:0:0:0:
264,76,96477,1,2,0:0:0:0:
152,108,99477,5,2,0:0:0:0:
344,248,100477,5,2,0:0:0:0:
192,224,100728,1,2,0:0:0:0:
300,120,100978,1,2,0:0:0:0:
72,208,101978,2,2,B|124:200|219:259|367:175,1,300.000001192092,0|2,0:0|0:0,0:0:0:0:
264,152,103478,5,2,0:0:0:0:
96,108,103728,1,2,0:0:0:0:
96,240,103978,1,2,0:0:0:0:
232,212,104978,5,10,0:0:0:0:
128,184,105478,1,2,0:0:0:0:
180,176,106978,6,0,B|236:80|280:104|316:216|152:268,2,300.000001192092,2|2|2,0:0|0:0|0:0,0:0:0:0:
180,176,108479,1,2,0:0:0:0:
112,284,109979,5,14,0:0:0:0:
212,172,111479,1,6,0:0:0:0:
144,144,112229,2,0,L|52:266,1,150.000000596046,2|2,0:0|0:0,0:0:0:0:
60,336,112979,6,0,B|168:296|248:372|288:176,3,300.000001192092,2|2|2|14,0:0|0:0|0:0|0:0,0:0:0:0:
308,180,115480,5,2,0:0:0:0:
160,180,115730,1,2,0:0:0:0:
236,308,115980,1,2,0:0:0:0:
232,220,116980,5,2,0:0:0:0:
416,280,117480,1,2,0:0:0:0:
388,152,118480,5,2,0:0:0:0:
248,104,118730,1,2,0:0:0:0:
116,172,118980,1,2,0:0:0:0:
264,260,119980,5,2,0:0:0:0:
44,160,120480,1,2,0:0:0:0:
216,212,121480,6,0,L|352:136,2,150.000000596046,2|2|2,0:0|0:0|0:0,0:0:0:0:
248,144,123481,5,6,0:0:0:0:
64,224,124481,1,2,0:0:0:0:
204,244,124731,1,2,0:0:0:0:
324,152,124981,1,2,0:0:0:0:
96,204,125981,5,2,0:0:0:0:
280,224,126481,1,2,0:0:0:0:
312,88,126981,1,2,0:0:0:0:
140,88,127481,5,2,0:0:0:0:
80,148,127731,1,2,0:0:0:0:
136,284,127981,5,6,0:0:0:0:
288,244,128481,1,2,0:0:0:0:
384,100,128981,1,2,0:0:0:0:
160,132,129481,2,0,L|104:132,18,50.000000198682,4|2|4|2|4|2|4|2|4|2|4|2|4|2|4|2|4|2|4,0:0|0:0|0:0|0:0|0:0|0:0|0:0|0:0|0:0|0:0|0:0|0:0|0:0|0:0|0:0|0:0|0:0|0:0|0:0,0:0:0:0:
232,160,131482,5,14,0:0:0:0:
228,244,131982,1,14,0:0:0:0:
300,248,132482,6,0,L|340:200,18,50.000000198682,4|2|4|2|4|2|4|2|4|2|4|2|4|2|4|2|4|2|4,0:0|0:0|0:0|0:0|0:0|0:0|0:0|0:0|0:0|0:0|0:0|0:0|0:0|0:0|0:0|0:0|0:0|0:0|0:0,0:0:0:0:
256,192,135482,12,14,138483,0:0:0:0:
136,72,139983,6,2,P|140:304|268:16,1,900.000003576276,2|14,0:0|0:0,0:0:0:0:
