osu file format v14

[General]
AudioFilename: audio.mp3
AudioLeadIn: 0
PreviewTime: 49056
Countdown: 0
SampleSet: Normal
StackLeniency: 0.7
Mode: 1
LetterboxInBreaks: 0
WidescreenStoryboard: 1

[Editor]
Bookmarks: 1110,7967,21681,35395,49110,76538,90252,103967,117681,131395,158824,172538,186252,203395,218824,232538,246252,261681
DistanceSpacing: 0.8
BeatDivisor: 4
GridSize: 32
TimelineZoom: 1.300001

[Metadata]
Title:Koi no EveryDay*HappyDay (Full Size)
TitleUnicode:恋のEveryDay☆HappyDay (フルサイズ)
Artist:Itsuka Kotori (CV: Taketatsu Ayana)
ArtistUnicode:五河琴里 (CV: 竹達彩奈)
Creator:jacky10186
Version:Lovely Oni
Source:デート・ア・ライブ
Tags:約會大作戰 DATE_A_LIVE DATE A MUSIC second half bonus track Every Happy Day collaboration いつか ことり JarvisGaming
BeatmapID:2014168
BeatmapSetID:961926

[Difficulty]
HPDrainRate:5
CircleSize:5
OverallDifficulty:5
ApproachRate:5
SliderMultiplier:1.4
SliderTickRate:1

[Events]
//Background and Video events
0,0,"dontlookatmeplz.jpg",0,277
//Break Periods
//Storyboard Layer 0 (Background)
//Storyboard Layer 1 (Fail)
//Storyboard Layer 2 (Pass)
//Storyboard Layer 3 (Foreground)
//Storyboard Layer 4 (Overlay)
//Storyboard Sound Samples

[TimingPoints]
1110,428.571428571429,4,1,0,70,1,0
49110,-100,4,1,0,70,0,1
90252,-100,4,1,0,70,0,0
131395,-100,4,1,0,70,0,1
172538,-100,4,1,0,70,0,0
201681,-103.092783505155,4,1,0,70,0,0
202110,-106.382978723404,4,1,0,65,0,0
202538,-109.89010989011,4,1,0,60,0,0
202967,-113.636363636364,4,1,0,55,0,0
203395,-117.647058823529,4,1,0,50,0,0
212610,-111.111111111111,4,1,0,50,0,0
213038,-105.263157894737,4,1,0,50,0,0
213252,-102.040816326531,4,1,0,50,0,0
213681,-100,4,1,0,70,0,0
218824,-100,4,1,0,70,0,1
259967,-100,4,1,0,70,0,0
275395,-100,4,1,0,60,0,0
278824,-100,4,1,0,50,0,0
278931,-100,4,1,0,45,0,0
279038,-100,4,1,0,40,0,0
279145,-100,4,1,0,35,0,0
279252,-100,4,1,0,30,0,0
279360,-100,4,1,0,25,0,0
279467,-100,4,1,0,20,0,0
279574,-100,4,1,0,15,0,0
279681,-100,4,1,0,10,0,0

[HitObjects]
245,234,1110,5,0,0:0:0:0:
266,192,1538,1,0,0:0:0:0:
332,256,1967,1,8,0:0:0:0:
255,212,2181,1,0,0:0:0:0:
402,186,2610,1,8,0:0:0:0:
359,133,3038,1,0,0:0:0:0:
328,236,3252,1,8,0:0:0:0:
361,214,3467,1,8,0:0:0:0:
395,174,3681,1,0,0:0:0:0:
379,259,4110,1,0,0:0:0:0:
408,147,4538,1,8,0:0:0:0:
260,269,4967,1,8,0:0:0:0:
279,328,5395,1,8,0:0:0:0:
207,181,5610,1,0,0:0:0:0:
252,291,6038,1,8,0:0:0:0:
328,262,6467,1,0,0:0:0:0:
328,262,6574,1,0,0:0:0:0:
360,275,6681,1,0,0:0:0:0:
334,295,6895,1,0,0:0:0:0:
307,264,7110,1,8,0:0:0:0:
349,262,7538,1,12,0:0:0:0:
194,85,7967,1,0,0:0:0:0:
194,85,8181,1,8,0:0:0:0:
194,85,8395,1,8,0:0:0:0:
194,85,8610,1,0,0:0:0:0:
194,85,8824,1,8,0:0:0:0:
194,85,9038,1,0,0:0:0:0:
194,85,9252,1,0,0:0:0:0:
194,85,9467,1,8,0:0:0:0:
68,175,9895,1,8,0:0:0:0:
72,172,10324,1,0,0:0:0:0:
120,124,10538,1,8,0:0:0:0:
120,124,10752,1,0,0:0:0:0:
120,124,10967,1,12,0:0:0:0:
161,211,11395,1,0,0:0:0:0:
161,211,11610,1,8,0:0:0:0:
161,211,11824,1,8,0:0:0:0:
161,211,12038,1,0,0:0:0:0:
161,211,12252,1,8,0:0:0:0:
161,211,12467,1,8,0:0:0:0:
161,211,12681,1,0,0:0:0:0:
161,211,12895,1,0,0:0:0:0:
109,165,13324,1,0,0:0:0:0:
159,113,13752,1,8,0:0:0:0:
159,113,13860,1,8,0:0:0:0:
159,113,13967,1,8,0:0:0:0:
71,175,14288,1,8,0:0:0:0:
71,175,14610,1,0,0:0:0:0:
194,85,14824,1,0,0:0:0:0:
194,85,15038,1,8,0:0:0:0:
194,85,15252,1,8,0:0:0:0:
194,85,15467,1,0,0:0:0:0:
194,85,15681,1,8,0:0:0:0:
194,85,15895,1,0,0:0:0:0:
194,85,16110,1,0,0:0:0:0:
194,85,16324,1,8,0:0:0:0:
68,175,16752,1,8,0:0:0:0:
72,172,17181,1,0,0:0:0:0:
120,124,17395,1,8,0:0:0:0:
120,124,17610,1,0,0:0:0:0:
120,124,17824,1,12,0:0:0:0:
161,211,18252,1,0,0:0:0:0:
161,211,18467,1,0,0:0:0:0:
161,211,18681,1,8,0:0:0:0:
161,211,18895,1,0,0:0:0:0:
161,211,19324,1,0,0:0:0:0:
161,211,19538,1,8,0:0:0:0:
161,211,19752,1,0,0:0:0:0:
68,157,19967,1,8,0:0:0:0:
68,157,20181,1,0,0:0:0:0:
68,157,20288,1,0,0:0:0:0:
68,157,20395,1,0,0:0:0:0:
211,94,20610,1,8,0:0:0:0:
211,94,20717,1,8,0:0:0:0:
211,94,20824,1,8,0:0:0:0:
211,94,21038,1,8,0:0:0:0:
211,94,21252,1,4,0:0:0:0:
343,248,21681,5,8,0:0:0:0:
266,246,22110,1,0,0:0:0:0:
280,262,22538,1,8,0:0:0:0:
288,248,22752,1,0,0:0:0:0:
334,264,22967,1,8,0:0:0:0:
356,250,23181,1,0,0:0:0:0:
301,98,23610,1,0,0:0:0:0:
330,235,23824,1,8,0:0:0:0:
240,261,24038,1,8,0:0:0:0:
304,202,24252,1,0,0:0:0:0:
302,115,24467,1,0,0:0:0:0:
292,274,24681,1,8,0:0:0:0:
314,273,25110,1,0,0:0:0:0:
343,228,25538,1,8,0:0:0:0:
462,200,25967,1,0,0:0:0:0:
462,200,26181,1,0,0:0:0:0:
396,254,26395,1,8,0:0:0:0:
462,200,26610,1,0,0:0:0:0:
396,176,27038,1,0,0:0:0:0:
318,265,27252,1,8,0:0:0:0:
309,268,27681,1,0,0:0:0:0:
268,259,27788,1,0,0:0:0:0:
260,178,27895,1,0,0:0:0:0:
362,217,28110,1,12,0:0:0:0:
356,218,28538,1,8,0:0:0:0:
236,273,28967,1,0,0:0:0:0:
319,265,29395,1,8,0:0:0:0:
326,222,29610,1,0,0:0:0:0:
366,226,29824,1,8,0:0:0:0:
353,247,30038,1,0,0:0:0:0:
389,185,30467,1,0,0:0:0:0:
313,245,30681,1,8,0:0:0:0:
300,298,30895,1,8,0:0:0:0:
426,246,31110,1,0,0:0:0:0:
245,112,31324,1,0,0:0:0:0:
308,278,31538,1,8,0:0:0:0:
386,130,31967,1,0,0:0:0:0:
250,200,32181,1,0,0:0:0:0:
255,169,32395,1,8,0:0:0:0:
286,270,32824,1,0,0:0:0:0:
289,225,33038,1,8,0:0:0:0:
202,125,33467,1,0,0:0:0:0:
202,125,33574,1,0,0:0:0:0:
241,156,33681,1,8,0:0:0:0:
366,150,33895,1,0,0:0:0:0:
281,182,34324,1,0,0:0:0:0:
361,241,34752,1,12,0:0:0:0:
319,189,34967,1,4,0:0:0:0:
110,233,35395,1,0,0:0:0:0:
124,224,35824,1,8,0:0:0:0:
167,233,36038,1,0,0:0:0:0:
167,233,36145,1,0,0:0:0:0:
167,233,36252,1,0,0:0:0:0:
167,233,36467,1,0,0:0:0:0:
167,233,36681,1,8,0:0:0:0:
198,222,37110,1,8,0:0:0:0:
94,150,37324,1,0,0:0:0:0:
158,176,37752,1,8,0:0:0:0:
158,176,37860,1,8,0:0:0:0:
159,169,37967,1,8,0:0:0:0:
138,118,38181,1,8,0:0:0:0:
131,120,38395,1,0,0:0:0:0:
63,122,38824,1,8,0:0:0:0:
71,115,39038,1,8,0:0:0:0:
77,119,39252,1,0,0:0:0:0:
77,119,39467,1,0,0:0:0:0:
3,111,39574,1,0,0:0:0:0:
28,114,39681,1,0,0:0:0:0:
155,49,39895,1,8,0:0:0:0:
155,49,40110,1,8,0:0:0:0:
252,91,40538,1,8,0:0:0:0:
247,95,40752,1,0,0:0:0:0:
247,95,40967,1,8,0:0:0:0:
247,95,41181,1,0,0:0:0:0:
145,146,41395,1,0,0:0:0:0:
145,146,41610,1,8,0:0:0:0:
145,146,41824,1,0,0:0:0:0:
145,146,42038,1,8,0:0:0:0:
145,146,42252,1,8,0:0:0:0:
162,95,42681,1,0,0:0:0:0:
162,95,42895,1,0,0:0:0:0:
162,95,43002,1,0,0:0:0:0:
162,95,43110,1,8,0:0:0:0:
196,88,43324,1,0,0:0:0:0:
196,88,43538,1,8,0:0:0:0:
123,91,43752,1,0,0:0:0:0:
123,91,43967,1,8,0:0:0:0:
123,91,44181,1,0,0:0:0:0:
79,127,44610,1,8,0:0:0:0:
79,127,44717,1,8,0:0:0:0:
79,127,44824,1,0,0:0:0:0:
79,127,45038,1,8,0:0:0:0:
79,127,45252,1,8,0:0:0:0:
91,116,45681,1,4,0:0:0:0:
176,191,46110,1,8,0:0:0:0:
176,191,46324,1,0,0:0:0:0:
165,131,46752,1,8,0:0:0:0:
159,122,47181,1,8,0:0:0:0:
244,182,47395,1,0,0:0:0:0:
149,71,47824,1,12,0:0:0:0:
231,98,48252,1,8,0:0:0:0:
231,98,48467,1,8,0:0:0:0:
231,98,48681,1,0,0:0:0:0:
231,98,48895,1,8,0:0:0:0:
408,281,49110,5,4,0:0:0:0:
373,237,49324,5,8,0:0:0:0:
437,242,49538,1,8,0:0:0:0:
331,179,49967,1,0,0:0:0:0:
337,183,50181,1,8,0:0:0:0:
372,258,50395,1,0,0:0:0:0:
316,221,50610,1,8,0:0:0:0:
316,221,51038,1,8,0:0:0:0:
410,190,51252,1,0,0:0:0:0:
316,221,51467,1,8,0:0:0:0:
316,221,51681,1,0,0:0:0:0:
405,172,51788,1,0,0:0:0:0:
316,221,51895,1,0,0:0:0:0:
316,221,52110,1,8,0:0:0:0:
313,190,52538,1,0,0:0:0:0:
313,190,52752,1,8,0:0:0:0:
301,265,52967,1,8,0:0:0:0:
156,245,53395,1,8,0:0:0:0:
284,159,53610,1,8,0:0:0:0:
240,217,53824,1,0,0:0:0:0:
245,261,54038,1,0,0:0:0:0:
311,226,54467,1,0,0:0:0:0:
298,258,54681,1,8,0:0:0:0:
412,150,54895,1,0,0:0:0:0:
407,160,55002,1,0,0:0:0:0:
407,160,55110,1,0,0:0:0:0:
407,165,55324,1,0,0:0:0:0:
268,267,55538,1,12,0:0:0:0:
302,183,55967,1,0,0:0:0:0:
396,156,56181,1,8,0:0:0:0:
351,146,56395,1,8,0:0:0:0:
348,237,56824,1,0,0:0:0:0:
331,225,57038,1,8,0:0:0:0:
333,221,57252,1,0,0:0:0:0:
269,153,57467,1,8,0:0:0:0:
224,141,57895,1,8,0:0:0:0:
229,141,58110,1,8,0:0:0:0:
319,131,58324,1,0,0:0:0:0:
373,214,58538,1,8,0:0:0:0:
236,123,58645,1,0,0:0:0:0:
343,278,58752,1,8,0:0:0:0:
444,218,58967,1,0,0:0:0:0:
315,169,59395,1,0,0:0:0:0:
299,184,59610,1,8,0:0:0:0:
319,205,59824,1,8,0:0:0:0:
346,136,60038,1,8,0:0:0:0:
434,237,60467,1,8,0:0:0:0:
444,227,60681,1,0,0:0:0:0:
413,256,60895,1,8,0:0:0:0:
263,100,61324,1,0,0:0:0:0:
329,146,61538,1,8,0:0:0:0:
329,146,61752,1,0,0:0:0:0:
319,143,61860,1,8,0:0:0:0:
319,143,61967,1,0,0:0:0:0:
317,141,62181,1,0,0:0:0:0:
370,269,62395,1,12,0:0:0:0:
300,151,62610,1,0,0:0:0:0:
300,151,62717,1,0,0:0:0:0:
345,279,62824,1,0,0:0:0:0:
383,229,63038,1,8,0:0:0:0:
427,182,63252,1,8,0:0:0:0:
479,129,63681,1,0,0:0:0:0:
280,237,63895,1,8,0:0:0:0:
331,246,64110,1,0,0:0:0:0:
286,229,64324,1,8,0:0:0:0:
323,192,64752,1,8,0:0:0:0:
240,120,64860,1,8,0:0:0:0:
430,194,64967,1,8,0:0:0:0:
400,237,65181,1,0,0:0:0:0:
463,205,65395,1,8,0:0:0:0:
292,228,65610,1,0,0:0:0:0:
315,112,65824,1,8,0:0:0:0:
261,194,66252,1,0,0:0:0:0:
368,255,66467,1,8,0:0:0:0:
261,194,66681,1,8,0:0:0:0:
312,148,67110,1,0,0:0:0:0:
398,152,67324,1,0,0:0:0:0:
398,152,67538,1,8,0:0:0:0:
419,242,67752,1,0,0:0:0:0:
319,145,68181,1,0,0:0:0:0:
401,239,68395,1,8,0:0:0:0:
343,182,68610,1,0,0:0:0:0:
343,182,68717,1,0,0:0:0:0:
343,182,68824,1,0,0:0:0:0:
343,182,69038,1,0,0:0:0:0:
350,237,69252,1,12,0:0:0:0:
261,111,69681,1,0,0:0:0:0:
350,237,69895,1,8,0:0:0:0:
350,237,70110,1,8,0:0:0:0:
322,263,70538,1,8,0:0:0:0:
305,203,70752,1,0,0:0:0:0:
399,249,70967,1,0,0:0:0:0:
313,201,71181,1,8,0:0:0:0:
297,176,71610,1,0,0:0:0:0:
297,180,71824,1,8,0:0:0:0:
304,120,72038,1,0,0:0:0:0:
407,197,72252,1,8,0:0:0:0:
347,230,72360,1,0,0:0:0:0:
407,197,72467,1,8,0:0:0:0:
469,200,72681,1,8,0:0:0:0:
196,169,73110,1,0,0:0:0:0:
339,254,73324,1,8,0:0:0:0:
333,244,73538,1,0,0:0:0:0:
313,222,73752,1,8,0:0:0:0:
412,174,74181,1,8,0:0:0:0:
414,181,74395,1,8,0:0:0:0:
414,181,74610,1,0,0:0:0:0:
384,197,75038,1,0,0:0:0:0:
358,238,75252,1,8,0:0:0:0:
339,258,75467,1,0,0:0:0:0:
314,249,75681,1,0,0:0:0:0:
275,130,75788,1,8,0:0:0:0:
311,241,75895,1,0,0:0:0:0:
355,219,76110,1,8,0:0:0:0:
355,226,76324,1,0,0:0:0:0:
266,281,76538,1,12,0:0:0:0:
174,145,76967,1,0,0:0:0:0:
174,145,77181,1,0,0:0:0:0:
174,145,77288,1,0,0:0:0:0:
174,145,77395,1,8,0:0:0:0:
174,145,77610,1,0,0:0:0:0:
174,145,77824,1,8,0:0:0:0:
237,95,78038,1,8,0:0:0:0:
237,95,78252,1,0,0:0:0:0:
109,189,78681,1,8,0:0:0:0:
109,189,78895,1,8,0:0:0:0:
120,128,79002,1,0,0:0:0:0:
109,189,79110,1,8,0:0:0:0:
90,130,79324,1,0,0:0:0:0:
90,130,79538,1,8,0:0:0:0:
90,130,79752,1,0,0:0:0:0:
90,130,80181,1,0,0:0:0:0:
90,130,80395,1,8,0:0:0:0:
90,130,80610,1,0,0:0:0:0:
90,130,81038,1,0,0:0:0:0:
90,130,81252,1,8,0:0:0:0:
90,130,81467,1,0,0:0:0:0:
127,92,81574,1,0,0:0:0:0:
127,92,81681,1,8,0:0:0:0:
127,92,81895,1,8,0:0:0:0:
127,92,82110,1,0,0:0:0:0:
127,92,82324,1,8,0:0:0:0:
246,144,82431,1,0,0:0:0:0:
87,156,82538,1,8,0:0:0:0:
87,156,82752,1,8,0:0:0:0:
87,156,82967,1,4,0:0:0:0:
216,143,83395,1,0,0:0:0:0:
216,143,83824,1,8,0:0:0:0:
216,143,84038,1,8,0:0:0:0:
216,143,84145,1,8,0:0:0:0:
216,143,84252,1,0,0:0:0:0:
216,143,84467,1,0,0:0:0:0:
216,143,84681,1,8,0:0:0:0:
216,143,84895,1,8,0:0:0:0:
232,152,85324,1,8,0:0:0:0:
232,152,85538,1,0,0:0:0:0:
232,152,85752,1,0,0:0:0:0:
138,130,85860,1,0,0:0:0:0:
232,152,85967,1,8,0:0:0:0:
138,130,86181,1,0,0:0:0:0:
138,130,86395,1,8,0:0:0:0:
138,130,86610,1,0,0:0:0:0:
138,130,87038,1,0,0:0:0:0:
138,130,87252,1,8,0:0:0:0:
138,130,87467,1,0,0:0:0:0:
121,51,87574,1,0,0:0:0:0:
121,51,87681,1,0,0:0:0:0:
115,51,87788,1,0,0:0:0:0:
138,130,87895,1,0,0:0:0:0:
138,130,88110,1,8,0:0:0:0:
138,130,88324,1,0,0:0:0:0:
94,118,88538,1,0,0:0:0:0:
163,125,89181,1,8,0:0:0:0:
163,125,89288,1,8,0:0:0:0:
163,125,89395,1,8,0:0:0:0:
163,125,89717,1,8,0:0:0:0:
163,125,90038,1,8,0:0:0:0:
335,169,90252,1,4,0:0:0:0:
290,152,90681,1,8,0:0:0:0:
430,172,90895,1,8,0:0:0:0:
368,255,91110,1,0,0:0:0:0:
207,240,91217,1,0,0:0:0:0:
390,189,91324,1,0,0:0:0:0:
212,58,91538,1,0,0:0:0:0:
441,227,91752,1,8,0:0:0:0:
328,85,92181,1,8,0:0:0:0:
253,93,92288,1,0,0:0:0:0:
253,93,92395,1,8,0:0:0:0:
368,252,92610,1,0,0:0:0:0:
326,185,92824,1,8,0:0:0:0:
388,216,93038,1,0,0:0:0:0:
470,211,93252,1,12,0:0:0:0:
292,101,93681,1,0,0:0:0:0:
215,55,93895,1,8,0:0:0:0:
368,172,94110,1,8,0:0:0:0:
370,216,94538,1,8,0:0:0:0:
370,216,94752,1,8,0:0:0:0:
374,220,94967,1,0,0:0:0:0:
374,221,95181,1,0,0:0:0:0:
374,221,95610,1,8,0:0:0:0:
226,82,95717,1,8,0:0:0:0:
226,82,95824,1,8,0:0:0:0:
374,221,96038,1,0,0:0:0:0:
234,90,96252,1,0,0:0:0:0:
233,258,96360,1,0,0:0:0:0:
233,258,96467,1,0,0:0:0:0:
374,221,96681,1,12,0:0:0:0:
319,159,97110,1,0,0:0:0:0:
286,212,97538,1,8,0:0:0:0:
322,211,97752,1,8,0:0:0:0:
384,173,97967,1,0,0:0:0:0:
225,148,98074,1,0,0:0:0:0:
384,173,98181,1,0,0:0:0:0:
384,173,98395,1,0,0:0:0:0:
441,231,98610,1,8,0:0:0:0:
452,218,99038,1,8,0:0:0:0:
280,202,99145,1,0,0:0:0:0:
426,218,99252,1,8,0:0:0:0:
373,240,99467,1,8,0:0:0:0:
305,168,99681,1,0,0:0:0:0:
359,219,99895,1,0,0:0:0:0:
363,246,100110,1,12,0:0:0:0:
220,156,100538,1,0,0:0:0:0:
220,156,100752,1,0,0:0:0:0:
220,156,100967,1,8,0:0:0:0:
220,156,101181,1,0,0:0:0:0:
239,128,101610,1,0,0:0:0:0:
403,241,101824,1,8,0:0:0:0:
245,135,102038,1,0,0:0:0:0:
220,153,102467,1,0,0:0:0:0:
430,212,102681,1,0,0:0:0:0:
327,205,102895,1,8,0:0:0:0:
327,205,103002,1,8,0:0:0:0:
327,205,103110,1,8,0:0:0:0:
365,220,103324,1,8,0:0:0:0:
333,200,103538,1,12,0:0:0:0:
44,177,103967,5,0,0:0:0:0:
36,180,104395,1,0,0:0:0:0:
103,199,104824,1,8,0:0:0:0:
103,199,105038,1,0,0:0:0:0:
103,199,105252,1,8,0:0:0:0:
103,199,105467,1,8,0:0:0:0:
144,135,105895,1,0,0:0:0:0:
144,135,106110,1,8,0:0:0:0:
144,135,106324,1,0,0:0:0:0:
170,91,106752,1,0,0:0:0:0:
170,91,106967,1,8,0:0:0:0:
149,61,107074,1,8,0:0:0:0:
170,91,107181,1,8,0:0:0:0:
179,81,107395,1,0,0:0:0:0:
199,111,107824,1,8,0:0:0:0:
199,111,108252,1,8,0:0:0:0:
199,111,108467,1,8,0:0:0:0:
199,111,108681,1,0,0:0:0:0:
199,111,108895,1,8,0:0:0:0:
139,123,109324,1,0,0:0:0:0:
139,123,109538,1,8,0:0:0:0:
139,123,109967,1,0,0:0:0:0:
133,120,110395,1,12,0:0:0:0:
108,191,110824,1,0,0:0:0:0:
108,191,111252,1,8,0:0:0:0:
143,175,111681,1,0,0:0:0:0:
143,175,111895,1,8,0:0:0:0:
143,175,112110,1,0,0:0:0:0:
143,175,112324,1,8,0:0:0:0:
122,128,112752,1,0,0:0:0:0:
122,128,112967,1,8,0:0:0:0:
122,128,113181,1,0,0:0:0:0:
186,134,113610,1,8,0:0:0:0:
186,134,113824,1,0,0:0:0:0:
196,131,113931,1,0,0:0:0:0:
186,134,114038,1,0,0:0:0:0:
186,134,114252,1,8,0:0:0:0:
93,178,114681,1,0,0:0:0:0:
93,178,115110,1,8,0:0:0:0:
93,178,115324,1,8,0:0:0:0:
163,91,115752,1,0,0:0:0:0:
133,105,115860,1,0,0:0:0:0:
138,107,115967,1,0,0:0:0:0:
144,94,116181,1,12,0:0:0:0:
205,117,116610,1,4,0:0:0:0:
205,117,117038,1,12,0:0:0:0:
178,97,117252,1,4,0:0:0:0:
297,214,117681,1,8,0:0:0:0:
237,156,117895,1,0,0:0:0:0:
315,196,118110,1,12,0:0:0:0:
197,158,118538,1,8,0:0:0:0:
202,157,118752,1,0,0:0:0:0:
469,219,118967,1,12,0:0:0:0:
304,134,119395,1,0,0:0:0:0:
263,187,119610,1,8,0:0:0:0:
385,225,119824,1,12,0:0:0:0:
282,180,120038,1,0,0:0:0:0:
244,174,120145,1,0,0:0:0:0:
244,174,120252,1,0,0:0:0:0:
244,160,120467,1,0,0:0:0:0:
392,214,120681,1,12,0:0:0:0:
225,184,121110,1,0,0:0:0:0:
287,192,121324,1,8,0:0:0:0:
344,240,121538,1,12,0:0:0:0:
277,255,121752,1,0,0:0:0:0:
256,149,121860,1,0,0:0:0:0:
261,137,121967,1,0,0:0:0:0:
372,144,122181,1,0,0:0:0:0:
384,231,122395,1,12,0:0:0:0:
318,243,122824,1,4,0:0:0:0:
340,244,123038,1,0,0:0:0:0:
386,239,123252,1,12,0:0:0:0:
313,153,123681,1,4,0:0:0:0:
313,153,123895,1,0,0:0:0:0:
401,225,124110,1,12,0:0:0:0:
269,197,124538,1,8,0:0:0:0:
269,197,124752,1,0,0:0:0:0:
409,228,124967,1,12,0:0:0:0:
381,195,125181,1,0,0:0:0:0:
353,201,125395,1,0,0:0:0:0:
353,201,125502,1,0,0:0:0:0:
275,187,125610,1,0,0:0:0:0:
447,249,125824,1,12,0:0:0:0:
330,130,126252,1,0,0:0:0:0:
368,200,126467,1,8,0:0:0:0:
388,242,126681,1,12,0:0:0:0:
302,150,126895,1,8,0:0:0:0:
290,136,127002,1,8,0:0:0:0:
289,139,127110,1,0,0:0:0:0:
250,110,127324,1,0,0:0:0:0:
251,113,127538,1,12,0:0:0:0:
334,204,127967,1,4,0:0:0:0:
425,241,128395,1,12,0:0:0:0:
450,194,128610,1,4,0:0:0:0:
447,205,129038,1,12,0:0:0:0:
270,187,129467,1,4,0:0:0:0:
157,104,129681,1,8,0:0:0:0:
350,247,130110,1,4,0:0:0:0:
376,205,130538,5,0,0:0:0:0:
376,205,130752,1,0,0:0:0:0:
376,205,130967,1,8,0:0:0:0:
376,205,131181,1,8,0:0:0:0:
148,146,131395,5,4,0:0:0:0:
265,214,131610,1,8,0:0:0:0:
270,216,131824,1,0,0:0:0:0:
270,216,132038,1,0,0:0:0:0:
270,216,132252,1,8,0:0:0:0:
270,216,132467,1,0,0:0:0:0:
246,137,132574,1,0,0:0:0:0:
270,216,132681,1,0,0:0:0:0:
270,216,132895,1,8,0:0:0:0:
71,147,133324,1,8,0:0:0:0:
71,147,133752,1,8,0:0:0:0:
71,147,133967,1,0,0:0:0:0:
105,136,134181,1,0,0:0:0:0:
81,189,134288,1,0,0:0:0:0:
105,136,134395,1,8,0:0:0:0:
144,168,134824,1,0,0:0:0:0:
144,168,135038,1,8,0:0:0:0:
144,168,135252,1,0,0:0:0:0:
144,168,135467,1,0,0:0:0:0:
144,168,135681,1,8,0:0:0:0:
144,168,135895,1,0,0:0:0:0:
148,27,136002,1,0,0:0:0:0:
144,168,136110,1,0,0:0:0:0:
144,168,136324,1,8,0:0:0:0:
199,160,136752,1,0,0:0:0:0:
199,160,136967,1,8,0:0:0:0:
223,113,137181,1,0,0:0:0:0:
223,113,137610,1,0,0:0:0:0:
223,113,137824,1,12,0:0:0:0:
146,170,138252,1,0,0:0:0:0:
265,214,138467,1,8,0:0:0:0:
270,216,138681,1,0,0:0:0:0:
270,216,138895,1,0,0:0:0:0:
270,216,139110,1,8,0:0:0:0:
270,216,139324,1,0,0:0:0:0:
246,137,139431,1,0,0:0:0:0:
270,216,139538,1,0,0:0:0:0:
270,216,139752,1,8,0:0:0:0:
71,147,140181,1,8,0:0:0:0:
71,147,140610,1,8,0:0:0:0:
71,147,140824,1,0,0:0:0:0:
105,136,141038,1,0,0:0:0:0:
81,189,141145,1,0,0:0:0:0:
105,136,141252,1,8,0:0:0:0:
82,137,141681,1,0,0:0:0:0:
82,137,141895,1,8,0:0:0:0:
84,137,142110,1,0,0:0:0:0:
88,137,142324,1,8,0:0:0:0:
157,130,142752,1,8,0:0:0:0:
157,130,142967,1,0,0:0:0:0:
157,130,143181,1,8,0:0:0:0:
214,96,143395,1,0,0:0:0:0:
214,96,143610,1,8,0:0:0:0:
214,96,143717,1,8,0:0:0:0:
214,96,143824,1,0,0:0:0:0:
214,96,144038,1,8,0:0:0:0:
214,96,144252,1,0,0:0:0:0:
113,159,144467,1,0,0:0:0:0:
137,106,144681,1,12,0:0:0:0:
125,120,145110,1,4,0:0:0:0:
265,214,145324,1,8,0:0:0:0:
270,216,145538,1,8,0:0:0:0:
270,216,145752,1,0,0:0:0:0:
270,216,145967,1,8,0:0:0:0:
270,216,146181,1,8,0:0:0:0:
246,137,146288,1,8,0:0:0:0:
270,216,146395,1,0,0:0:0:0:
270,216,146610,1,8,0:0:0:0:
71,147,147038,1,8,0:0:0:0:
71,147,147467,1,8,0:0:0:0:
71,147,147681,1,0,0:0:0:0:
81,189,147788,1,8,0:0:0:0:
105,136,147895,1,0,0:0:0:0:
105,136,148110,1,8,0:0:0:0:
125,120,148538,1,0,0:0:0:0:
265,214,148752,1,8,0:0:0:0:
270,216,148967,1,8,0:0:0:0:
270,216,149181,1,0,0:0:0:0:
270,216,149395,1,8,0:0:0:0:
270,216,149610,1,8,0:0:0:0:
246,137,149717,1,8,0:0:0:0:
270,216,149824,1,0,0:0:0:0:
270,216,150038,1,8,0:0:0:0:
71,147,150467,1,0,0:0:0:0:
81,189,150574,1,0,0:0:0:0:
176,90,150681,1,8,0:0:0:0:
71,147,150895,1,0,0:0:0:0:
105,136,151324,1,0,0:0:0:0:
105,136,151538,1,12,0:0:0:0:
125,120,151967,1,0,0:0:0:0:
265,214,152181,1,8,0:0:0:0:
270,216,152395,1,8,0:0:0:0:
270,216,152610,1,0,0:0:0:0:
270,216,152824,1,8,0:0:0:0:
270,216,153038,1,8,0:0:0:0:
246,137,153145,1,8,0:0:0:0:
270,216,153252,1,0,0:0:0:0:
270,216,153467,1,8,0:0:0:0:
71,147,153895,1,8,0:0:0:0:
171,124,154110,1,8,0:0:0:0:
71,147,154324,1,8,0:0:0:0:
71,147,154538,1,0,0:0:0:0:
81,189,154645,1,8,0:0:0:0:
105,136,154752,1,0,0:0:0:0:
105,136,154967,1,8,0:0:0:0:
198,82,155395,1,0,0:0:0:0:
198,82,155610,1,0,0:0:0:0:
198,82,155824,1,8,0:0:0:0:
186,66,156038,1,8,0:0:0:0:
194,77,156467,1,0,0:0:0:0:
157,107,156681,1,8,0:0:0:0:
157,107,156895,1,8,0:0:0:0:
105,167,157324,1,8,0:0:0:0:
105,167,157538,1,8,0:0:0:0:
105,167,157752,1,0,0:0:0:0:
105,167,157967,1,8,0:0:0:0:
232,155,158181,1,0,0:0:0:0:
232,155,158288,1,0,0:0:0:0:
232,155,158395,1,8,0:0:0:0:
232,155,158610,1,8,0:0:0:0:
249,273,158824,1,12,0:0:0:0:
316,181,159252,1,12,0:0:0:0:
305,260,159467,1,0,0:0:0:0:
316,181,159681,1,8,0:0:0:0:
388,227,159895,1,8,0:0:0:0:
356,137,160002,1,8,0:0:0:0:
356,137,160110,1,0,0:0:0:0:
284,248,160538,1,8,0:0:0:0:
256,178,160752,1,0,0:0:0:0:
304,118,160967,1,0,0:0:0:0:
392,231,161074,1,0,0:0:0:0:
310,118,161181,1,8,0:0:0:0:
339,232,161395,1,8,0:0:0:0:
287,173,161610,1,0,0:0:0:0:
197,145,161824,1,12,0:0:0:0:
298,162,162252,1,0,0:0:0:0:
373,207,162681,1,12,0:0:0:0:
244,77,163110,1,0,0:0:0:0:
310,221,163324,1,12,0:0:0:0:
277,54,163538,1,12,0:0:0:0:
376,112,163967,1,0,0:0:0:0:
376,112,164181,1,0,0:0:0:0:
345,209,164395,1,12,0:0:0:0:
370,231,164610,1,8,0:0:0:0:
389,215,164824,1,0,0:0:0:0:
334,279,164931,1,0,0:0:0:0:
233,113,165038,1,0,0:0:0:0:
303,210,165252,1,12,0:0:0:0:
385,218,165681,1,12,0:0:0:0:
314,249,166110,1,12,0:0:0:0:
349,157,166324,1,0,0:0:0:0:
406,185,166538,1,8,0:0:0:0:
375,209,166752,1,0,0:0:0:0:
252,101,166860,1,0,0:0:0:0:
426,162,166967,1,8,0:0:0:0:
214,142,167395,1,8,0:0:0:0:
201,178,167610,1,0,0:0:0:0:
427,180,167824,1,8,0:0:0:0:
312,187,167931,1,8,0:0:0:0:
201,178,168038,1,0,0:0:0:0:
204,163,168252,1,8,0:0:0:0:
385,229,168467,1,0,0:0:0:0:
375,205,168681,1,12,0:0:0:0:
282,235,169110,1,0,0:0:0:0:
281,253,169538,1,12,0:0:0:0:
240,108,169967,1,0,0:0:0:0:
237,102,170181,1,12,0:0:0:0:
316,294,170395,1,12,0:0:0:0:
119,195,170824,1,0,0:0:0:0:
379,199,171038,1,8,0:0:0:0:
345,215,171252,1,8,0:0:0:0:
203,197,171467,1,8,0:0:0:0:
203,197,171895,1,0,0:0:0:0:
346,134,172110,1,8,0:0:0:0:
207,148,172217,1,0,0:0:0:0:
363,280,172324,1,8,0:0:0:0:
129,238,172538,1,0,0:0:0:0:
133,239,172752,1,8,0:0:0:0:
133,239,172967,1,0,0:0:0:0:
133,239,173181,1,8,0:0:0:0:
66,146,173288,1,0,0:0:0:0:
148,235,173395,1,8,0:0:0:0:
77,153,173610,1,8,0:0:0:0:
77,150,173824,1,0,0:0:0:0:
77,150,174038,1,8,0:0:0:0:
77,150,174252,1,0,0:0:0:0:
99,164,174467,1,8,0:0:0:0:
99,164,174681,1,0,0:0:0:0:
99,164,174895,1,8,0:0:0:0:
99,164,175002,1,8,0:0:0:0:
99,164,175110,1,8,0:0:0:0:
99,164,175324,1,0,0:0:0:0:
99,164,175538,1,8,0:0:0:0:
99,164,175752,1,0,0:0:0:0:
176,157,176181,1,8,0:0:0:0:
176,157,176395,1,8,0:0:0:0:
176,157,176610,1,8,0:0:0:0:
176,157,176824,1,8,0:0:0:0:
176,157,176931,1,8,0:0:0:0:
176,157,177038,1,0,0:0:0:0:
39,127,177252,1,0,0:0:0:0:
39,127,177467,1,8,0:0:0:0:
98,45,177681,1,0,0:0:0:0:
216,85,177895,1,8,0:0:0:0:
216,85,178110,1,8,0:0:0:0:
216,85,178324,1,8,0:0:0:0:
216,85,178538,1,0,0:0:0:0:
12,111,178645,1,8,0:0:0:0:
12,111,178752,1,0,0:0:0:0:
129,90,178967,1,8,0:0:0:0:
129,238,179395,1,0,0:0:0:0:
133,239,179610,1,8,0:0:0:0:
133,239,179824,1,0,0:0:0:0:
133,239,180038,1,8,0:0:0:0:
66,146,180145,1,0,0:0:0:0:
148,235,180252,1,8,0:0:0:0:
77,153,180467,1,8,0:0:0:0:
77,150,180681,1,0,0:0:0:0:
137,137,180788,1,0,0:0:0:0:
77,150,180895,1,8,0:0:0:0:
77,150,181110,1,0,0:0:0:0:
99,164,181324,1,8,0:0:0:0:
99,164,181538,1,0,0:0:0:0:
99,164,181752,1,8,0:0:0:0:
99,164,181860,1,8,0:0:0:0:
99,164,181967,1,8,0:0:0:0:
99,164,182181,1,0,0:0:0:0:
140,130,182288,1,8,0:0:0:0:
99,164,182395,1,8,0:0:0:0:
99,164,182610,1,0,0:0:0:0:
176,157,183038,1,8,0:0:0:0:
176,157,183252,1,8,0:0:0:0:
176,157,183467,1,8,0:0:0:0:
176,157,183681,1,8,0:0:0:0:
176,157,183788,1,8,0:0:0:0:
176,157,183895,1,0,0:0:0:0:
39,127,184110,1,0,0:0:0:0:
39,127,184324,1,8,0:0:0:0:
98,45,184538,1,0,0:0:0:0:
142,208,184752,1,8,0:0:0:0:
142,208,184860,1,0,0:0:0:0:
142,208,184967,1,8,0:0:0:0:
142,208,185181,1,0,0:0:0:0:
152,126,185395,1,8,0:0:0:0:
152,126,185502,1,8,0:0:0:0:
152,126,185610,1,0,0:0:0:0:
152,126,185824,1,8,0:0:0:0:
152,126,185931,1,8,0:0:0:0:
152,126,186038,1,8,0:0:0:0:
152,126,186145,1,8,0:0:0:0:
383,226,186252,1,0,0:0:0:0:
203,181,186467,1,0,0:0:0:0:
224,185,186574,1,0,0:0:0:0:
399,204,186681,1,8,0:0:0:0:
152,81,187002,1,0,0:0:0:0:
402,192,187110,1,8,0:0:0:0:
341,155,187324,1,0,0:0:0:0:
364,228,187538,1,8,0:0:0:0:
332,163,187645,1,0,0:0:0:0:
406,138,187752,1,8,0:0:0:0:
302,215,188181,1,8,0:0:0:0:
269,263,188395,1,8,0:0:0:0:
366,264,188502,1,0,0:0:0:0:
410,193,188610,1,8,0:0:0:0:
384,235,188824,1,8,0:0:0:0:
212,93,189038,1,0,0:0:0:0:
384,235,189252,1,12,0:0:0:0:
258,151,189681,1,0,0:0:0:0:
219,56,189895,1,0,0:0:0:0:
218,13,190002,1,0,0:0:0:0:
352,229,190110,1,8,0:0:0:0:
282,74,190431,1,0,0:0:0:0:
276,228,190538,1,8,0:0:0:0:
280,195,190752,1,0,0:0:0:0:
280,195,190967,1,0,0:0:0:0:
280,195,191074,1,0,0:0:0:0:
365,246,191181,1,8,0:0:0:0:
251,255,191610,1,0,0:0:0:0:
358,252,191824,1,8,0:0:0:0:
240,98,191931,1,0,0:0:0:0:
319,235,192038,1,8,0:0:0:0:
376,222,192252,1,8,0:0:0:0:
325,237,192360,1,0,0:0:0:0:
376,222,192467,1,0,0:0:0:0:
385,173,192681,1,12,0:0:0:0:
277,69,193110,1,8,0:0:0:0:
153,180,193324,1,0,0:0:0:0:
216,169,193431,1,0,0:0:0:0:
255,70,193538,1,8,0:0:0:0:
267,120,193967,1,0,0:0:0:0:
277,124,194181,1,8,0:0:0:0:
352,233,194395,1,8,0:0:0:0:
335,241,194610,1,0,0:0:0:0:
394,226,194717,1,0,0:0:0:0:
398,234,194824,1,0,0:0:0:0:
394,226,195038,1,0,0:0:0:0:
249,231,195252,1,8,0:0:0:0:
281,202,195467,1,0,0:0:0:0:
415,166,195681,1,8,0:0:0:0:
415,173,195895,1,0,0:0:0:0:
211,210,196002,1,0,0:0:0:0:
331,209,196110,1,8,0:0:0:0:
222,164,196324,1,0,0:0:0:0:
254,235,196538,1,8,0:0:0:0:
254,235,196645,1,8,0:0:0:0:
245,235,196752,1,0,0:0:0:0:
245,235,196860,1,0,0:0:0:0:
254,235,196967,1,8,0:0:0:0:
254,235,197074,1,8,0:0:0:0:
245,235,197181,1,0,0:0:0:0:
245,235,197288,1,0,0:0:0:0:
294,305,197395,1,8,0:0:0:0:
278,323,197610,1,0,0:0:0:0:
422,202,197824,1,8,0:0:0:0:
218,175,197931,1,0,0:0:0:0:
288,177,198038,1,0,0:0:0:0:
427,123,198252,1,8,0:0:0:0:
427,123,198467,1,8,0:0:0:0:
484,179,198681,1,0,0:0:0:0:
184,88,198788,1,0,0:0:0:0:
179,137,198895,1,8,0:0:0:0:
283,164,199110,1,0,0:0:0:0:
249,186,199217,1,0,0:0:0:0:
283,164,199324,1,8,0:0:0:0:
276,140,199431,1,0,0:0:0:0:
427,215,199538,1,8,0:0:0:0:
247,206,199752,1,0,0:0:0:0:
256,192,199967,12,0,201252,0:0:0:0:
329,221,201681,5,8,0:0:0:0:
365,165,202110,1,8,0:0:0:0:
317,271,202538,1,0,0:0:0:0:
365,165,202967,1,0,0:0:0:0:
137,166,203395,5,8,0:0:0:0:
137,166,203824,1,8,0:0:0:0:
161,133,204252,1,0,0:0:0:0:
161,133,204681,1,8,0:0:0:0:
218,120,205110,1,0,0:0:0:0:
218,120,205324,1,0,0:0:0:0:
204,123,205752,1,8,0:0:0:0:
135,144,206181,1,0,0:0:0:0:
77,150,206824,1,8,0:0:0:0:
77,150,207038,1,8,0:0:0:0:
77,150,207252,1,0,0:0:0:0:
77,150,207467,1,8,0:0:0:0:
179,181,207895,1,0,0:0:0:0:
179,181,208110,1,8,0:0:0:0:
118,186,208538,1,0,0:0:0:0:
118,186,208752,1,8,0:0:0:0:
118,186,208967,1,8,0:0:0:0:
118,186,209181,1,0,0:0:0:0:
124,113,210252,1,8,0:0:0:0:
132,72,210681,1,8,0:0:0:0:
179,161,211110,1,0,0:0:0:0:
209,121,211538,1,0,0:0:0:0:
203,125,211967,1,8,0:0:0:0:
203,125,212181,1,0,0:0:0:0:
223,80,212610,1,8,0:0:0:0:
223,89,213038,1,0,0:0:0:0:
223,89,213252,1,8,0:0:0:0:
91,116,213681,1,4,0:0:0:0:
176,191,214110,1,8,0:0:0:0:
176,191,214324,1,0,0:0:0:0:
165,131,214752,1,8,0:0:0:0:
159,122,215181,1,8,0:0:0:0:
149,71,215824,1,12,0:0:0:0:
231,98,216252,1,12,0:0:0:0:
231,98,216467,1,12,0:0:0:0:
231,98,216681,1,4,0:0:0:0:
231,98,216895,1,12,0:0:0:0:
420,231,218824,1,4,0:0:0:0:
325,221,219038,1,8,0:0:0:0:
304,300,219145,1,0,0:0:0:0:
347,211,219252,1,8,0:0:0:0:
350,300,219467,1,0,0:0:0:0:
459,237,219681,1,0,0:0:0:0:
218,152,219788,1,0,0:0:0:0:
396,257,219895,1,8,0:0:0:0:
410,209,220110,1,0,0:0:0:0:
305,206,220324,1,8,0:0:0:0:
310,197,220752,1,8,0:0:0:0:
224,256,220860,1,8,0:0:0:0:
310,197,220967,1,0,0:0:0:0:
346,168,221181,1,8,0:0:0:0:
325,172,221395,1,0,0:0:0:0:
320,128,221610,1,0,0:0:0:0:
270,185,221717,1,0,0:0:0:0:
288,256,221824,1,8,0:0:0:0:
256,96,222252,1,0,0:0:0:0:
416,224,222467,1,8,0:0:0:0:
256,128,222574,1,0,0:0:0:0:
416,192,222681,1,8,0:0:0:0:
352,320,222895,1,0,0:0:0:0:
224,160,223110,1,8,0:0:0:0:
192,160,223217,1,8,0:0:0:0:
192,128,223324,1,8,0:0:0:0:
416,192,223538,1,8,0:0:0:0:
384,192,223752,1,0,0:0:0:0:
320,256,224181,1,0,0:0:0:0:
256,256,224395,1,8,0:0:0:0:
416,224,224610,1,0,0:0:0:0:
352,128,224717,1,0,0:0:0:0:
352,128,224824,1,0,0:0:0:0:
352,128,225038,1,0,0:0:0:0:
352,256,225252,1,12,0:0:0:0:
288,160,225681,1,0,0:0:0:0:
288,160,225895,1,8,0:0:0:0:
224,96,226002,1,8,0:0:0:0:
288,160,226110,1,0,0:0:0:0:
224,96,226324,1,0,0:0:0:0:
224,224,226538,1,8,0:0:0:0:
160,160,226752,1,0,0:0:0:0:
288,256,226860,1,0,0:0:0:0:
288,224,226967,1,0,0:0:0:0:
224,192,227181,1,8,0:0:0:0:
416,160,227610,1,8,0:0:0:0:
384,224,227717,1,8,0:0:0:0:
384,224,227824,1,0,0:0:0:0:
288,192,228038,1,8,0:0:0:0:
288,160,228252,1,8,0:0:0:0:
256,256,228360,1,0,0:0:0:0:
288,160,228467,1,8,0:0:0:0:
256,192,228681,1,0,0:0:0:0:
288,192,229110,1,0,0:0:0:0:
384,224,229324,1,8,0:0:0:0:
384,224,229538,1,8,0:0:0:0:
352,256,229645,1,0,0:0:0:0:
320,224,229752,1,8,0:0:0:0:
288,160,229967,1,0,0:0:0:0:
384,256,230181,1,8,0:0:0:0:
320,192,230395,1,0,0:0:0:0:
224,32,230502,1,0,0:0:0:0:
320,192,230610,1,8,0:0:0:0:
288,256,230824,1,0,0:0:0:0:
320,96,231038,1,8,0:0:0:0:
320,96,231252,1,0,0:0:0:0:
384,224,231360,1,0,0:0:0:0:
288,224,231467,1,8,0:0:0:0:
192,160,231574,1,0,0:0:0:0:
320,256,231681,1,8,0:0:0:0:
192,288,231895,1,0,0:0:0:0:
320,288,232110,1,12,0:0:0:0:
224,192,232324,1,0,0:0:0:0:
224,192,232431,1,0,0:0:0:0:
163,188,232538,5,0,0:0:0:0:
163,188,232752,1,8,0:0:0:0:
167,99,232860,1,0,0:0:0:0:
163,188,232967,1,8,0:0:0:0:
163,188,233181,1,0,0:0:0:0:
163,188,233395,1,8,0:0:0:0:
167,99,233502,1,0,0:0:0:0:
163,188,233610,1,8,0:0:0:0:
163,188,233824,1,0,0:0:0:0:
163,188,234038,1,8,0:0:0:0:
221,137,234467,1,8,0:0:0:0:
258,261,234574,1,8,0:0:0:0:
129,158,234681,1,0,0:0:0:0:
187,152,234895,1,0,0:0:0:0:
187,152,235110,1,8,0:0:0:0:
187,152,235324,1,0,0:0:0:0:
129,158,235431,1,0,0:0:0:0:
187,152,235538,1,8,0:0:0:0:
163,188,235967,5,0,0:0:0:0:
163,188,236181,1,8,0:0:0:0:
167,99,236288,1,0,0:0:0:0:
163,188,236395,1,8,0:0:0:0:
163,188,236610,1,0,0:0:0:0:
163,188,236824,1,0,0:0:0:0:
167,99,236931,1,8,0:0:0:0:
163,188,237038,1,0,0:0:0:0:
163,188,237252,1,8,0:0:0:0:
163,188,237467,1,0,0:0:0:0:
221,137,237895,1,0,0:0:0:0:
129,158,238110,1,8,0:0:0:0:
178,95,238217,1,8,0:0:0:0:
187,152,238324,1,0,0:0:0:0:
171,92,238538,1,0,0:0:0:0:
187,152,238752,1,0,0:0:0:0:
187,152,238967,1,12,0:0:0:0:
163,188,239395,5,0,0:0:0:0:
163,188,239610,1,8,0:0:0:0:
167,99,239717,1,8,0:0:0:0:
163,188,239824,1,0,0:0:0:0:
163,188,240038,1,0,0:0:0:0:
163,188,240252,1,8,0:0:0:0:
167,99,240360,1,8,0:0:0:0:
163,188,240467,1,0,0:0:0:0:
163,188,240681,1,0,0:0:0:0:
163,188,240895,1,8,0:0:0:0:
221,137,241324,1,8,0:0:0:0:
98,122,241431,1,0,0:0:0:0:
129,158,241538,1,8,0:0:0:0:
187,152,241752,1,0,0:0:0:0:
129,158,241860,1,0,0:0:0:0:
187,152,241967,1,8,0:0:0:0:
187,152,242181,1,0,0:0:0:0:
187,152,242395,1,8,0:0:0:0:
163,188,242824,5,0,0:0:0:0:
163,188,243038,1,8,0:0:0:0:
167,99,243145,1,0,0:0:0:0:
163,188,243252,1,8,0:0:0:0:
163,188,243467,1,8,0:0:0:0:
163,188,243895,1,8,0:0:0:0:
96,134,244002,1,8,0:0:0:0:
163,188,244110,1,0,0:0:0:0:
163,188,244324,1,8,0:0:0:0:
134,88,244538,1,0,0:0:0:0:
221,137,244752,1,0,0:0:0:0:
88,52,244860,1,0,0:0:0:0:
129,158,244967,1,8,0:0:0:0:
88,52,245074,1,8,0:0:0:0:
187,152,245181,1,0,0:0:0:0:
129,126,245395,1,8,0:0:0:0:
187,152,245610,1,0,0:0:0:0:
187,152,245824,1,12,0:0:0:0:
58,75,246038,1,8,0:0:0:0:
416,192,246252,1,0,0:0:0:0:
416,224,246360,1,0,0:0:0:0:
224,192,246467,1,8,0:0:0:0:
416,224,246681,1,8,0:0:0:0:
320,256,246788,1,0,0:0:0:0:
320,96,246895,1,8,0:0:0:0:
352,288,247110,1,4,0:0:0:0:
288,256,247324,1,12,0:0:0:0:
256,64,247538,1,4,0:0:0:0:
256,96,247967,1,8,0:0:0:0:
256,96,248181,1,0,0:0:0:0:
256,160,248288,1,0,0:0:0:0:
416,224,248395,1,8,0:0:0:0:
320,160,248610,1,0,0:0:0:0:
255,119,248717,1,0,0:0:0:0:
320,224,248824,1,8,0:0:0:0:
384,192,248931,1,8,0:0:0:0:
320,224,249038,1,0,0:0:0:0:
416,192,249252,1,12,0:0:0:0:
384,128,249681,1,0,0:0:0:0:
224,128,249895,1,0,0:0:0:0:
224,128,250002,1,0,0:0:0:0:
288,160,250110,1,8,0:0:0:0:
288,160,250324,1,0,0:0:0:0:
384,160,250538,1,12,0:0:0:0:
384,160,250752,1,12,0:0:0:0:
256,160,250967,1,4,0:0:0:0:
320,160,251395,1,8,0:0:0:0:
320,160,251502,1,0,0:0:0:0:
224,160,251610,1,8,0:0:0:0:
352,192,251824,1,0,0:0:0:0:
288,224,252038,1,8,0:0:0:0:
229,284,252145,1,0,0:0:0:0:
288,160,252252,1,0,0:0:0:0:
256,192,252360,1,0,0:0:0:0:
352,224,252467,1,8,0:0:0:0:
288,160,252681,1,12,0:0:0:0:
352,128,253110,1,0,0:0:0:0:
320,128,253217,1,0,0:0:0:0:
352,128,253324,1,0,0:0:0:0:
352,192,253538,1,8,0:0:0:0:
196,133,253645,1,0,0:0:0:0:
256,256,253752,1,8,0:0:0:0:
256,160,253967,1,4,0:0:0:0:
384,256,254181,1,12,0:0:0:0:
256,160,254395,1,4,0:0:0:0:
256,160,254824,1,0,0:0:0:0:
448,160,255038,1,0,0:0:0:0:
448,160,255145,1,0,0:0:0:0:
384,192,255252,1,8,0:0:0:0:
288,288,255467,1,8,0:0:0:0:
288,288,255574,1,0,0:0:0:0:
416,160,255681,1,8,0:0:0:0:
192,333,255788,1,8,0:0:0:0:
416,192,255895,1,0,0:0:0:0:
416,256,256110,1,12,0:0:0:0:
352,224,256538,1,0,0:0:0:0:
320,224,256752,1,0,0:0:0:0:
320,224,256860,1,0,0:0:0:0:
448,224,256967,1,8,0:0:0:0:
320,128,257181,1,0,0:0:0:0:
384,224,257395,1,12,0:0:0:0:
320,192,257610,1,12,0:0:0:0:
352,256,257824,1,4,0:0:0:0:
320,224,258252,1,0,0:0:0:0:
224,128,258360,1,0,0:0:0:0:
320,256,258467,1,8,0:0:0:0:
320,256,258681,1,8,0:0:0:0:
352,224,258895,1,0,0:0:0:0:
320,256,259002,1,8,0:0:0:0:
352,224,259110,1,8,0:0:0:0:
352,256,259431,1,0,0:0:0:0:
352,224,259752,1,0,0:0:0:0:
448,256,259860,1,8,0:0:0:0:
224,128,259967,1,8,0:0:0:0:
288,128,260288,1,0,0:0:0:0:
256,128,260610,1,0,0:0:0:0:
288,128,260717,1,8,0:0:0:0:
288,128,260824,1,0,0:0:0:0:
384,160,261145,1,0,0:0:0:0:
448,192,261467,1,0,0:0:0:0:
194,85,261681,5,4,0:0:0:0:
194,85,261895,1,8,0:0:0:0:
194,85,262110,1,8,0:0:0:0:
257,73,262217,1,8,0:0:0:0:
194,85,262324,1,0,0:0:0:0:
194,85,262538,1,8,0:0:0:0:
194,85,262752,1,0,0:0:0:0:
194,85,262967,1,0,0:0:0:0:
213,127,263074,1,0,0:0:0:0:
194,85,263181,1,8,0:0:0:0:
68,175,263610,1,8,0:0:0:0:
72,172,264038,1,0,0:0:0:0:
120,124,264252,1,8,0:0:0:0:
88,116,264360,1,8,0:0:0:0:
120,124,264467,1,0,0:0:0:0:
120,124,264681,1,12,0:0:0:0:
161,211,265110,1,0,0:0:0:0:
161,211,265324,1,8,0:0:0:0:
161,211,265538,1,8,0:0:0:0:
129,134,265645,1,8,0:0:0:0:
161,211,265752,1,0,0:0:0:0:
161,211,265967,1,8,0:0:0:0:
161,211,266181,1,0,0:0:0:0:
162,79,266288,1,8,0:0:0:0:
161,211,266395,1,0,0:0:0:0:
161,211,266610,1,0,0:0:0:0:
109,165,267038,1,0,0:0:0:0:
159,113,267467,1,8,0:0:0:0:
159,113,267574,1,8,0:0:0:0:
159,113,267681,1,8,0:0:0:0:
71,175,268002,1,8,0:0:0:0:
71,175,268324,1,0,0:0:0:0:
194,85,268538,1,0,0:0:0:0:
194,85,268752,1,8,0:0:0:0:
194,85,268967,1,8,0:0:0:0:
203,194,269074,1,8,0:0:0:0:
194,85,269181,1,0,0:0:0:0:
194,85,269395,1,8,0:0:0:0:
194,85,269610,1,0,0:0:0:0:
132,99,269717,1,8,0:0:0:0:
194,85,269824,1,0,0:0:0:0:
194,85,270038,1,8,0:0:0:0:
68,175,270467,1,8,0:0:0:0:
72,172,270895,1,0,0:0:0:0:
120,124,271110,1,8,0:0:0:0:
183,86,271217,1,8,0:0:0:0:
120,124,271324,1,0,0:0:0:0:
120,124,271538,1,12,0:0:0:0:
161,211,271967,1,0,0:0:0:0:
161,211,272181,1,0,0:0:0:0:
102,125,272288,1,0,0:0:0:0:
161,211,272395,1,8,0:0:0:0:
161,211,272610,1,0,0:0:0:0:
161,211,273038,1,0,0:0:0:0:
93,77,273145,1,0,0:0:0:0:
161,211,273252,1,8,0:0:0:0:
161,211,273467,1,0,0:0:0:0:
68,157,273681,1,8,0:0:0:0:
68,157,273895,1,0,0:0:0:0:
68,157,274002,1,0,0:0:0:0:
68,157,274110,1,0,0:0:0:0:
211,94,274324,1,8,0:0:0:0:
211,94,274431,1,8,0:0:0:0:
211,94,274538,1,8,0:0:0:0:
211,94,274752,1,8,0:0:0:0:
211,94,274967,1,4,0:0:0:0:
76,181,275181,1,0,0:0:0:0:
122,194,275288,1,0,0:0:0:0:
106,134,275395,1,8,0:0:0:0:
256,192,275610,12,0,279681,0:0:0:0:
