osu file format v14

[General]
AudioFilename: audioNevo's Extra.mp3
AudioLeadIn: 0
PreviewTime: 40048
Countdown: 0
SampleSet: None
StackLeniency: 0.4
Mode: 0
LetterboxInBreaks: 0
WidescreenStoryboard: 1

[Editor]
DistanceSpacing: 1
BeatDivisor: 4
GridSize: 32
TimelineZoom: 2

[Metadata]
Title:Speedup map pack
TitleUnicode:カナデアイ
Artist:Itowokashi
ArtistUnicode:イトヲカシ
Creator:TTL
Version:Kanadeai [Extra] x1.2 by Nevo
Source:双星の陰陽師
Tags:
BeatmapID:1845957
BeatmapSetID:882966

[Difficulty]
HPDrainRate:6
CircleSize:4
OverallDifficulty:9
ApproachRate:9.7
SliderMultiplier:1.7
SliderTickRate:1

[Events]
//Background and Video events
0,0,"BGSotarks.jpg",0,0
//Break Periods
//Storyboard Layer 0 (Background)
//Storyboard Layer 1 (Fail)
//Storyboard Layer 2 (Pass)
//Storyboard Layer 3 (Foreground)
//Storyboard Sound Samples

[TimingPoints]
986,260.4167,4,2,22,55,1,0
986,-133.3333,4,2,22,55,0,0
1702,-133.3333,4,2,22,5,0,0
1767,-133.3333,4,2,22,55,0,0
5153,-100,4,2,22,65,0,0
7236,-100,4,2,22,75,0,0
15569,-133.3333,4,2,22,65,0,0
23903,-100,4,2,22,75,0,0
32236,-133.3333,4,2,22,65,0,0
38486,-105.2632,4,2,22,75,0,0
38681,-105.2632,4,2,22,5,0,0
38746,-105.2632,4,2,22,75,0,0
40049,-181.8182,4,2,22,55,0,0
40244,-181.8182,4,2,22,5,0,0
40309,-181.8182,4,2,22,55,0,0
40504,-181.8182,4,2,22,5,0,0
40570,-80,4,2,22,85,0,1
47861,-80,4,2,22,85,0,0
48903,-80,4,2,22,85,0,1
54566,-80,4,2,22,5,0,1
54632,-80,4,2,22,85,0,1
54827,-80,4,2,22,5,0,1
54892,-80,4,2,22,85,0,1
55087,-80,4,2,22,5,0,1
55153,-80,4,2,22,85,0,1
56129,-80,4,2,22,5,0,1
56194,-80,4,2,22,85,0,0
57236,-80,4,2,22,85,0,1
61403,-80,4,2,22,85,0,0
63486,-100,4,2,22,75,0,0
81455,-100,4,2,22,70,0,0
81975,-100,4,2,22,65,0,0
82496,-100,4,2,22,60,0,0
83017,-100,4,2,22,55,0,0
83538,-100,4,2,22,50,0,0
84059,-100,4,2,22,45,0,0
84579,-100,4,2,22,40,0,0
85100,-100,4,2,22,35,0,0
85621,-100,4,2,22,30,0,0
86142,-100,4,2,22,25,0,0
86663,-100,4,2,22,20,0,0
87184,-100,4,2,22,15,0,0
87704,-100,4,2,22,10,0,0
87965,-100,4,2,22,5,0,0

[HitObjects]
74,321,986,6,0,L|161:312,1,63.75
186,234,1246,2,0,L|101:242,1,63.75
222,306,1507,2,0,P|254:278|261:207,1,95.625
265,227,1767,1,2,0:0:0:0:
223,160,1897,2,0,L|226:78,1,63.75
136,16,2158,1,2,0:0:0:0:
136,16,2288,2,0,L|140:143,1,127.5
408,234,2809,5,2,0:0:0:0:
470,182,2939,1,2,0:0:0:0:
328,222,3069,2,0,P|289:211|263:211,1,63.75
246,342,3329,2,0,P|260:314|282:291,1,63.75
389,369,3590,2,0,P|358:359|326:357,1,63.75
160,362,3850,5,2,0:0:0:0:
160,362,3980,2,0,P|128:360|97:350,1,63.75
47,272,4241,1,2,0:0:0:0:
47,272,4371,2,0,P|65:315|28:388,1,127.5
33,384,5153,6,0,L|27:298,1,85
162,226,5413,1,10,0:0:0:0:
12,170,5543,1,6,0:0:0:0:
275,131,5804,1,6,0:0:0:0:
13,20,6064,1,6,0:0:0:0:
13,20,7236,6,0,L|18:104,1,85
46,301,7496,1,10,0:0:0:0:
119,172,7626,1,2,0:0:0:0:
143,318,7757,1,2,0:0:0:0:
32,204,7887,1,2,0:0:0:0:
255,204,8017,1,10,0:0:0:0:
135,10,8147,6,0,B|108:52|108:52|120:185,1,170
274,80,8538,2,0,L|190:75,1,85
22,64,8799,1,2,0:0:0:0:
193,153,8929,1,2,0:0:0:0:
37,288,9059,2,0,L|31:203,1,85
190,75,9320,5,6,0:0:0:0:
126,212,9450,1,2,0:0:0:0:
135,10,9580,1,10,0:0:0:0:
259,218,9710,1,2,0:0:0:0:
263,17,9840,1,2,0:0:0:0:
106,119,9970,1,2,0:0:0:0:
352,126,10100,1,10,0:0:0:0:
192,269,10230,6,0,B|227:303|227:303|374:287,1,170
509,345,10621,2,0,L|414:339,1,85
355,195,10882,1,0,0:0:0:0:
431,246,11012,1,0,0:0:0:0:
342,374,11142,2,0,L|348:279,1,85
364,99,11403,5,6,0:0:0:0:
271,242,11533,1,2,0:0:0:0:
440,158,11663,1,10,0:0:0:0:
226,125,11793,1,2,0:0:0:0:
431,246,11924,1,2,0:0:0:0:
432,31,12054,1,2,0:0:0:0:
271,242,12184,1,10,0:0:0:0:
263,30,12314,6,0,P|311:68|291:195,1,170
141,132,12704,2,0,L|247:123,1,85
426,111,12965,1,2,0:0:0:0:
271,242,13095,1,2,0:0:0:0:
347,37,13225,2,0,L|241:28,1,85
47,16,13486,5,6,0:0:0:0:
225,124,13616,1,2,0:0:0:0:
6,149,13746,1,10,0:0:0:0:
182,239,13876,1,2,0:0:0:0:
186,30,14007,1,2,0:0:0:0:
58,278,14137,1,2,0:0:0:0:
76,92,14267,1,10,0:0:0:0:
140,327,14397,6,0,B|206:316|206:316|247:332|247:332|323:320,1,170
267,159,14788,2,0,P|253:208|267:267,1,85
420,316,15049,1,8,0:0:0:0:
483,137,15179,1,8,0:0:0:0:
345,206,15309,1,8,0:0:0:0:
512,282,15439,1,10,0:0:0:0:
373,95,15569,6,0,P|314:118|248:84,1,127.5
206,36,15959,1,2,0:0:0:0:
206,36,16090,2,0,P|218:93|169:149,1,127.5
105,196,16480,1,2,0:0:0:0:
105,196,16611,6,0,L|250:189,1,127.5
304,284,17001,1,2,0:0:0:0:
304,284,17132,2,0,L|159:277,1,127.5
345,209,17522,1,2,0:0:0:0:
345,209,17653,6,0,P|367:228|387:267,1,63.75
339,358,17913,1,2,0:0:0:0:
459,320,18043,2,0,L|465:230,1,63.75
512,192,18304,2,0,L|507:128,1,63.75
433,29,18564,6,0,L|423:177,1,127.5
284,93,18955,2,0,L|359:90,1,63.75
239,161,19215,1,0,0:0:0:0:
239,161,19345,1,0,0:0:0:0:
164,55,19475,2,0,L|100:52,1,63.75
0,164,19736,6,0,P|52:137|131:147,1,127.5
88,338,20126,1,2,0:0:0:0:
88,338,20257,2,0,B|61:303|61:303|74:202,1,127.5
71,220,20778,6,0,L|208:215,1,127.5
149,21,21168,1,2,0:0:0:0:
149,21,21299,2,0,B|122:56|122:56|135:157,1,127.5
181,302,21689,1,2,0:0:0:0:
181,302,21819,6,0,L|262:299,1,63.75
366,297,22079,1,2,0:0:0:0:
312,175,22209,2,0,L|309:256,1,63.75
368,360,22470,1,2,0:0:0:0:
368,360,22600,2,0,L|365:278,1,63.75
371,87,22861,5,0,0:0:0:0:
309,238,22991,1,8,0:0:0:0:
300,24,23121,1,8,0:0:0:0:
371,87,23251,1,0,0:0:0:0:
189,182,23382,1,10,0:0:0:0:
444,148,23512,1,0,0:0:0:0:
240,102,23642,1,10,0:0:0:0:
375,2,23772,1,0,0:0:0:0:
375,2,23837,1,0,0:0:0:0:
375,2,23903,6,0,L|370:103,1,85
365,269,24163,1,10,0:0:0:0:
451,179,24293,2,0,L|350:174,1,85
221,167,24554,1,2,0:0:0:0:
365,269,24684,1,8,0:0:0:0:
187,277,24814,6,0,L|288:272,1,85
460,270,25074,1,0,0:0:0:0:
361,184,25204,2,0,L|365:289,1,85
447,145,25465,1,2,0:0:0:0:
274,148,25595,1,0,0:0:0:0:
450,60,25725,2,0,L|446:165,1,85
191,103,25986,6,0,P|241:59|296:60,1,85
446,144,26246,1,10,0:0:0:0:
277,232,26376,2,0,L|273:127,1,85
438,238,26637,2,0,L|434:322,1,85
155,310,26897,6,0,B|225:303|225:303|252:319|252:319|323:311,1,170
96,386,27288,2,0,P|63:330|61:292,1,85
112,150,27549,1,2,0:0:0:0:
155,310,27679,1,0,0:0:0:0:
178,91,27809,2,0,P|128:62|75:70,1,85
182,214,28069,6,0,L|279:204,1,85
485,185,28329,1,10,0:0:0:0:
306,294,28459,1,0,0:0:0:0:
512,264,28590,1,2,0:0:0:0:
383,139,28720,1,0,0:0:0:0:
314,378,28850,2,0,L|304:281,1,85
276,100,29111,5,6,0:0:0:0:
398,234,29241,1,0,0:0:0:0:
391,54,29371,2,0,L|381:151,1,85
362,312,29632,1,2,0:0:0:0:
456,167,29762,1,0,0:0:0:0:
269,186,29892,1,10,0:0:0:0:
398,234,30022,1,0,0:0:0:0:
267,15,30153,6,0,L|277:112,1,85
439,64,30413,2,0,L|342:54,1,85
181,35,30674,1,2,0:0:0:0:
351,145,30804,1,2,0:0:0:0:
173,121,30934,1,8,0:0:0:0:
260,270,31064,6,0,L|270:173,1,85
94,226,31324,2,0,L|104:323,1,85
173,167,31584,1,2,0:0:0:0:
173,167,31649,1,8,0:0:0:0:
173,167,31715,1,8,0:0:0:0:
17,170,31845,1,10,0:0:0:0:
183,259,31975,1,4,0:0:0:0:
94,226,32105,1,6,0:0:0:0:
261,203,32236,5,6,0:0:0:0:
194,353,32366,1,0,0:0:0:0:
173,167,32496,5,0,0:0:0:0:
173,167,32757,1,2,0:0:0:0:
173,167,33017,1,0,0:0:0:0:
173,167,33278,5,2,0:0:0:0:
408,215,33408,1,2,0:0:0:0:
293,112,33538,1,2,0:0:0:0:
261,203,33668,1,2,0:0:0:0:
385,122,33799,5,2,0:0:0:0:
385,122,34059,1,0,0:0:0:0:
385,122,34320,5,2,0:0:0:0:
325,322,34450,1,0,0:0:0:0:
261,203,34580,5,0,0:0:0:0:
261,203,34840,1,2,0:0:0:0:
261,203,35100,1,0,0:0:0:0:
261,203,35361,5,2,0:0:0:0:
418,227,35491,1,2,0:0:0:0:
298,123,35621,1,2,0:0:0:0:
328,289,35751,1,0,0:0:0:0:
390,141,35882,5,2,0:0:0:0:
390,141,36142,1,0,0:0:0:0:
390,141,36403,5,6,0:0:0:0:
418,333,36533,1,0,0:0:0:0:
224,299,36663,5,0,0:0:0:0:
224,299,36924,1,2,0:0:0:0:
224,299,37184,1,0,0:0:0:0:
224,299,37445,5,2,0:0:0:0:
185,112,37575,1,2,0:0:0:0:
295,235,37705,1,2,0:0:0:0:
247,40,37835,1,2,0:0:0:0:
205,206,37965,6,0,L|110:202,1,63.75
44,198,38225,1,2,0:0:0:0:
185,112,38355,1,0,0:0:0:0:
50,318,38486,6,0,L|43:191,1,121.125
42,118,38746,1,8,0:0:0:0:
133,291,38876,1,8,0:0:0:0:
261,141,39007,1,8,0:0:0:0:
141,203,39137,1,8,0:0:0:0:
343,173,39267,1,8,0:0:0:0:
177,117,39397,1,8,0:0:0:0:
289,319,39528,5,10,0:0:0:0:
335,80,39658,1,10,0:0:0:0:
216,257,39788,1,10,0:0:0:0:
460,227,39918,1,14,0:0:0:0:
323,48,40049,6,0,L|316:132,1,70.125
330,149,40309,2,0,L|335:79,1,70.125
239,102,40570,6,0,L|228:222,1,106.25
157,362,40830,2,0,L|146:242,1,106.25
130,54,41090,1,2,0:0:0:0:
0,221,41220,1,0,0:0:0:0:
43,18,41350,1,10,0:0:0:0:
147,256,41480,1,0,0:0:0:0:
236,60,41611,6,0,L|119:53,1,106.25
243,257,41871,2,0,L|360:250,1,106.25
138,158,42132,1,2,0:0:0:0:
158,363,42262,1,0,0:0:0:0:
341,169,42392,2,0,L|235:163,1,106.25
394,250,42653,6,0,P|432:200|430:139,1,106.25
236,60,42913,1,8,0:0:0:0:
341,169,43043,1,0,0:0:0:0:
310,0,43174,1,2,0:0:0:0:
257,212,43304,1,0,0:0:0:0:
393,30,43434,6,0,B|425:81|425:81|402:248,1,212.5
386,364,43824,1,0,0:0:0:0:
228,117,43954,2,0,L|334:103,1,106.25
509,246,44215,2,0,L|403:231,1,106.25
229,375,44475,2,0,L|334:360,1,106.25
207,197,44736,6,0,B|126:187|126:187|79:206|79:206|-9:192,1,212.5
68,108,45126,1,0,0:0:0:0:
137,284,45257,1,2,0:0:0:0:
171,105,45387,1,0,0:0:0:0:
57,223,45517,6,0,P|43:314|156:384,1,212.5
262,133,45908,1,0,0:0:0:0:
137,284,46038,2,0,L|130:161,1,106.25
349,319,46299,2,0,L|356:196,1,106.25
44,357,46559,2,0,L|37:234,1,106.25
227,89,46819,6,0,L|220:212,1,106.25
149,32,47079,1,8,0:0:0:0:
316,148,47209,2,0,L|439:141,1,106.25
368,49,47470,1,0,0:0:0:0:
378,238,47600,2,0,L|384:344,1,106.25
140,256,47861,6,0,L|146:150,1,106.25
211,319,48121,1,8,0:0:0:0:
167,347,48186,1,8,0:0:0:0:
114,348,48251,1,8,0:0:0:0:
70,321,48316,1,8,0:0:0:0:
47,274,48382,6,0,L|54:142,1,106.25
112,33,48642,1,10,0:0:0:0:
151,68,48707,1,8,0:0:0:0:
201,85,48772,1,8,0:0:0:0:
254,85,48837,1,8,0:0:0:0:
301,64,48903,6,0,P|358:47|421:62,1,106.25
269,192,49163,2,0,L|150:187,1,106.25
305,278,49424,1,2,0:0:0:0:
352,145,49554,1,0,0:0:0:0:
213,274,49684,2,0,L|218:393,1,106.25
441,263,49944,6,0,L|446:144,1,106.25
305,278,50204,1,8,0:0:0:0:
435,359,50334,1,0,0:0:0:0:
350,192,50465,2,0,L|231:197,1,106.25
91,64,50725,2,0,L|197:68,1,106.25
213,274,50986,6,0,P|160:228|162:167,1,106.25
287,74,51246,1,8,0:0:0:0:
243,196,51376,1,0,0:0:0:0:
216,11,51507,1,2,0:0:0:0:
154,195,51637,1,0,0:0:0:0:
330,160,51767,6,0,B|417:152|417:152|460:175|460:175|543:167,1,212.5
481,78,52158,1,0,0:0:0:0:
396,248,52288,2,0,L|243:237,1,106.25
144,127,52549,2,0,L|297:116,1,106.25
396,11,52809,2,0,L|243:0,1,106.25
451,319,53069,6,0,B|484:271|484:271|466:102,1,212.5
214,205,53459,1,0,0:0:0:0:
290,260,53590,2,0,L|435:243,1,106.25
249,119,53850,1,10,0:0:0:0:
249,119,53915,1,0,0:0:0:0:
249,119,53980,6,0,B|166:112|166:112|119:134|119:134|33:122,1,212.5
0,277,54371,2,0,P|32:225|138:236,1,159.375
81,287,54632,2,0,P|142:241|214:268,1,159.375
157,318,54892,2,0,P|228:290|290:334,1,159.375
218,370,55153,6,0,L|242:220,1,106.25
259,117,55413,1,8,0:0:0:0:
81,287,55543,2,0,L|64:182,1,106.25
35,23,55804,1,0,0:0:0:0:
158,215,55934,2,0,B|198:247|198:247|314:232,1,159.375
382,222,56194,5,4,0:0:0:0:
225,162,56324,1,8,0:0:0:0:
249,329,56454,1,8,0:0:0:0:
304,124,56584,1,0,0:0:0:0:
304,124,56649,1,0,0:0:0:0:
304,124,56715,5,8,0:0:0:0:
349,301,56845,1,8,0:0:0:0:
229,72,56975,1,10,0:0:0:0:
278,236,57105,1,6,0:0:0:0:
274,4,57236,6,0,P|208:-7|156:28,1,106.25
183,160,57496,2,0,P|225:108|221:45,1,106.25
39,30,57757,5,10,0:0:0:0:
261,85,57887,1,0,0:0:0:0:
6,120,58017,5,10,0:0:0:0:
251,167,58147,1,2,0:0:0:0:
0,221,58278,5,12,0:0:0:0:
237,247,58408,1,2,0:0:0:0:
2,317,58538,5,10,0:0:0:0:
87,98,58668,1,0,0:0:0:0:
216,336,58799,1,8,0:0:0:0:
175,91,58929,1,0,0:0:0:0:
131,354,59059,5,10,0:0:0:0:
60,193,59189,1,2,0:0:0:0:
267,248,59319,5,14,0:0:0:0:
2,317,59449,1,0,0:0:0:0:
330,311,59579,5,10,0:0:0:0:
65,265,59709,1,0,0:0:0:0:
347,233,59840,5,10,0:0:0:0:
111,332,59970,1,0,0:0:0:0:
390,363,60100,5,10,0:0:0:0:
145,256,60230,1,2,0:0:0:0:
274,103,60361,5,12,0:0:0:0:
268,365,60491,1,2,0:0:0:0:
192,104,60621,1,10,0:0:0:0:
181,364,60751,1,0,0:0:0:0:
330,311,60882,5,8,0:0:0:0:
90,216,61012,1,0,0:0:0:0:
347,232,61142,1,8,0:0:0:0:
64,140,61272,1,0,0:0:0:0:
181,364,61403,5,14,0:0:0:0:
192,104,61533,1,8,0:0:0:0:
330,311,61663,1,10,0:0:0:0:
288,0,61793,5,6,0:0:0:0:
0,288,62054,1,6,0:0:0:0:
512,253,62314,1,6,0:0:0:0:
512,253,63486,6,0,L|505:140,1,85
392,35,63746,1,10,0:0:0:0:
417,148,63876,1,2,0:0:0:0:
491,19,64007,1,2,0:0:0:0:
337,108,64137,1,2,0:0:0:0:
505,146,64267,1,10,0:0:0:0:
361,225,64397,6,0,B|319:252|319:252|186:240,1,170
77,161,64788,2,0,L|182:171,1,85
19,238,65049,1,2,0:0:0:0:
17,87,65179,1,0,0:0:0:0:
110,253,65309,2,0,L|116:338,1,85
199,241,65570,5,6,0:0:0:0:
77,161,65700,1,2,0:0:0:0:
46,325,65830,1,10,0:0:0:0:
110,253,65960,1,2,0:0:0:0:
19,238,66090,1,2,0:0:0:0:
140,343,66220,1,2,0:0:0:0:
169,180,66350,1,10,0:0:0:0:
266,309,66480,6,0,B|301:343|301:343|448:327,1,170
512,252,66871,2,0,L|417:246,1,85
346,101,67132,1,2,0:0:0:0:
422,152,67262,1,0,0:0:0:0:
333,280,67392,2,0,L|339:185,1,85
349,5,67653,5,6,0:0:0:0:
256,148,67783,1,2,0:0:0:0:
425,64,67913,1,10,0:0:0:0:
257,30,68043,1,2,0:0:0:0:
422,152,68174,1,2,0:0:0:0:
422,152,68304,1,2,0:0:0:0:
