osu file format v14

[General]
AudioFilename: audio.mp3
AudioLeadIn: 0
PreviewTime: 47981
Countdown: 0
SampleSet: Soft
StackLeniency: 0.4
Mode: 0
LetterboxInBreaks: 0
WidescreenStoryboard: 1

[Editor]
DistanceSpacing: 1
BeatDivisor: 4
GridSize: 32
TimelineZoom: 2

[Metadata]
Title:Kanadeai
TitleUnicode:カナデアイ
Artist:Itowokashi
ArtistUnicode:イトヲカシ
Creator:Nikakis
Version:Nevo's Extra
Source:双星の陰陽師
Tags:Chuoutoppa Twin Star Exorcists Opening 4 Itou Kashitarou Ito Kashitaro Ryo Miyata 中央突破 伊東歌詞太郎 宮田“レフティ”リョウ Kyle_Y Shunao ShogunMoon Irohas Kalibe Sotarks Onlybiscuit Nevo Haruto Haruto_Aizawa
BeatmapID:1710712
BeatmapSetID:783769

[Difficulty]
HPDrainRate:6
CircleSize:4
OverallDifficulty:9
ApproachRate:9.2
SliderMultiplier:1.7
SliderTickRate:1

[Events]
//Background and Video events
0,0,"BGSotarks.jpg",0,0
//Break Periods
//Storyboard Layer 0 (Background)
//Storyboard Layer 1 (Fail)
//Storyboard Layer 2 (Pass)
//Storyboard Layer 3 (Foreground)
//Storyboard Sound Samples

[TimingPoints]
1184,312.5,4,2,22,55,1,0
1184,-133.333333333333,4,2,22,55,0,0
2043,-133.333333333333,4,2,22,5,0,0
2121,-133.333333333333,4,2,22,55,0,0
6184,-100,4,2,22,65,0,0
8684,-100,4,2,22,75,0,0
18684,-133.333333333333,4,2,22,65,0,0
28684,-100,4,2,22,75,0,0
38684,-133.333333333333,4,2,22,65,0,0
46184,-105.263157894737,4,2,22,75,0,0
46418,-105.263157894737,4,2,22,5,0,0
46496,-105.263157894737,4,2,22,75,0,0
48059,-181.818181818181,4,2,22,55,0,0
48293,-181.818181818181,4,2,22,5,0,0
48371,-181.818181818181,4,2,22,55,0,0
48605,-181.818181818181,4,2,22,5,0,0
48684,-80,4,2,22,85,0,1
57434,-80,4,2,22,85,0,0
58684,-80,4,2,22,85,0,1
65480,-80,4,2,22,5,0,1
65559,-80,4,2,22,85,0,1
65793,-80,4,2,22,5,0,1
65871,-80,4,2,22,85,0,1
66105,-80,4,2,22,5,0,1
66184,-80,4,2,22,85,0,1
67355,-80,4,2,22,5,0,1
67434,-80,4,2,22,85,0,0
68684,-80,4,2,22,85,0,1
73684,-80,4,2,22,85,0,0
76184,-100,4,2,22,75,0,0
97746,-100,4,2,22,70,0,0
98371,-100,4,2,22,65,0,0
98996,-100,4,2,22,60,0,0
99621,-100,4,2,22,55,0,0
100246,-100,4,2,22,50,0,0
100871,-100,4,2,22,45,0,0
101496,-100,4,2,22,40,0,0
102121,-100,4,2,22,35,0,0
102746,-100,4,2,22,30,0,0
103371,-100,4,2,22,25,0,0
103996,-100,4,2,22,20,0,0
104621,-100,4,2,22,15,0,0
105246,-100,4,2,22,10,0,0
105559,-100,4,2,22,5,0,0

[Colours]
Combo1 : 255,202,203
Combo2 : 255,253,174
Combo3 : 255,202,245
Combo4 : 217,196,255

[HitObjects]
74,321,1184,6,0,L|161:312,1,63.7500024318696,2|0,0:0|0:0,0:0:0:0:
186,234,1496,2,0,L|101:242,1,63.7500024318696,2|0,0:0|0:0,0:0:0:0:
222,306,1809,2,0,P|254:278|261:207,1,95.6250036478044,2|0,0:0|0:0,0:0:0:0:
265,227,2121,1,2,0:0:0:0:
223,160,2277,2,0,L|226:78,1,63.7500024318696,2|0,0:0|0:0,0:0:0:0:
136,16,2590,1,2,0:0:0:0:
136,16,2746,2,0,L|140:143,1,127.500004863739,2|0,0:0|0:0,0:0:0:0:
408,234,3371,5,2,0:0:0:0:
470,182,3527,1,2,0:0:0:0:
328,222,3684,2,0,P|289:211|263:211,1,63.7500024318696,2|0,0:0|0:0,0:0:0:0:
246,342,3996,2,0,P|260:314|282:291,1,63.7500024318696,2|0,0:0|0:0,0:0:0:0:
389,369,4309,2,0,P|358:359|326:357,1,63.7500024318696,2|0,0:0|0:0,0:0:0:0:
160,362,4621,5,2,0:0:0:0:
160,362,4777,2,0,P|128:360|97:350,1,63.7500024318696,2|0,0:0|0:0,0:0:0:0:
47,272,5090,1,2,0:0:0:0:
47,272,5246,2,0,P|65:315|28:388,1,127.500004863739,2|0,0:0|0:0,0:0:0:0:
33,384,6184,6,0,L|27:298,1,85,6|0,1:0|1:0,0:0:0:0:
162,226,6496,1,10,0:0:0:0:
12,170,6652,1,6,1:0:0:0:
275,131,6965,1,6,1:0:0:0:
13,20,7277,1,6,1:0:0:0:
13,20,8684,6,0,L|18:104,1,85,6|2,1:0|0:0,0:0:0:0:
46,301,8996,1,10,0:0:0:0:
119,172,9152,1,2,0:0:0:0:
143,318,9309,1,2,1:0:0:0:
32,204,9465,1,2,1:0:0:0:
255,204,9621,1,10,0:0:0:0:
135,10,9777,6,0,B|108:52|108:52|120:185,1,170,6|2,1:0|1:0,0:0:0:0:
274,80,10246,2,0,L|190:75,1,85,10|2,0:0|0:0,0:0:0:0:
22,64,10559,1,2,1:0:0:0:
193,153,10715,1,2,1:0:0:0:
37,288,10871,2,0,L|31:203,1,85,10|2,0:0|0:0,0:0:0:0:
190,75,11184,5,6,1:0:0:0:
126,212,11340,1,2,0:0:0:0:
135,10,11496,1,10,0:0:0:0:
259,218,11652,1,2,1:0:0:0:
263,17,11809,1,2,0:0:0:0:
106,119,11965,1,2,1:0:0:0:
352,126,12121,1,10,0:0:0:0:
192,269,12277,6,0,B|227:303|227:303|374:287,1,170,6|0,1:0|1:0,0:0:0:0:
509,345,12746,2,0,L|414:339,1,85,8|0,0:0|0:0,0:0:0:0:
355,195,13059,1,0,1:0:0:0:
431,246,13215,1,0,1:0:0:0:
342,374,13371,2,0,L|348:279,1,85,8|0,0:0|0:0,0:0:0:0:
364,99,13684,5,6,1:0:0:0:
271,242,13840,1,2,0:0:0:0:
440,158,13996,1,10,0:0:0:0:
226,125,14152,1,2,0:0:0:0:
431,246,14309,1,2,1:0:0:0:
432,31,14465,1,2,1:0:0:0:
271,242,14621,1,10,0:0:0:0:
263,30,14777,6,0,P|311:68|291:195,1,170,6|2,1:0|1:0,0:0:0:0:
141,132,15246,2,0,L|247:123,1,85,10|2,0:0|0:0,0:0:0:0:
426,111,15559,1,2,1:0:0:0:
271,242,15715,1,2,1:0:0:0:
347,37,15871,2,0,L|241:28,1,85,10|2,0:0|0:0,0:0:0:0:
47,16,16184,5,6,1:0:0:0:
225,124,16340,1,2,0:0:0:0:
6,149,16496,1,10,0:0:0:0:
182,239,16652,1,2,1:0:0:0:
186,30,16809,1,2,0:0:0:0:
58,278,16965,1,2,1:0:0:0:
76,92,17121,1,10,0:0:0:0:
140,327,17277,6,0,B|206:316|206:316|247:332|247:332|323:320,1,170,2|0,1:0|1:0,0:0:0:0:
267,159,17746,2,0,P|253:208|267:267,1,85,12|0,0:0|0:0,0:0:0:0:
420,316,18059,1,8,0:0:0:0:
483,137,18215,1,8,0:0:0:0:
345,206,18371,1,8,0:0:0:0:
512,282,18527,1,10,0:0:0:0:
373,95,18684,6,0,P|314:118|248:84,1,127.500004863739,6|0,0:0|0:0,0:0:0:0:
206,36,19152,1,2,0:0:0:0:
206,36,19309,2,0,P|218:93|169:149,1,127.500004863739,2|0,0:0|0:0,0:0:0:0:
105,196,19777,1,2,0:0:0:0:
105,196,19934,6,0,L|250:189,1,127.500004863739,2|0,0:0|0:0,0:0:0:0:
304,284,20402,1,2,0:0:0:0:
304,284,20559,2,0,L|159:277,1,127.500004863739,2|0,0:0|0:0,0:0:0:0:
345,209,21027,1,2,0:0:0:0:
345,209,21184,6,0,P|367:228|387:267,1,63.7500024318696,2|0,0:0|0:0,0:0:0:0:
339,358,21496,1,2,0:0:0:0:
459,320,21652,2,0,L|465:230,1,63.7500024318696,2|0,0:0|0:0,0:0:0:0:
512,192,21965,2,0,L|507:128,1,63.7500024318696,2|0,0:0|0:0,0:0:0:0:
433,29,22277,6,0,L|423:177,1,127.500004863739,2|0,0:0|0:0,0:0:0:0:
284,93,22746,2,0,L|359:90,1,63.7500024318696,2|0,0:0|0:0,0:0:0:0:
239,161,23059,1,0,0:0:0:0:
239,161,23215,1,0,0:0:0:0:
164,55,23371,2,0,L|100:52,1,63.7500024318696,2|0,0:0|0:0,0:0:0:0:
0,164,23684,6,0,P|52:137|131:147,1,127.500004863739,2|0,0:0|0:0,0:0:0:0:
88,338,24152,1,2,0:0:0:0:
88,338,24309,2,0,B|61:303|61:303|74:202,1,127.500004863739,2|0,0:0|0:0,0:0:0:0:
71,220,24934,6,0,L|208:215,1,127.500004863739,2|0,0:0|0:0,0:0:0:0:
149,21,25402,1,2,0:0:0:0:
149,21,25559,2,0,B|122:56|122:56|135:157,1,127.500004863739,2|0,0:0|0:0,0:0:0:0:
181,302,26027,1,2,0:0:0:0:
181,302,26184,6,0,L|262:299,1,63.7500024318696,2|0,0:0|0:0,0:0:0:0:
366,297,26496,1,2,0:0:0:0:
312,175,26652,2,0,L|309:256,1,63.7500024318696,2|0,0:0|0:0,0:0:0:0:
368,360,26965,1,2,0:0:0:0:
368,360,27121,2,0,L|365:278,1,63.7500024318696,0|2,0:0|0:0,0:0:0:0:
371,87,27434,5,0,1:0:0:0:
309,238,27590,1,8,0:0:0:0:
300,24,27746,1,8,0:0:0:0:
371,87,27902,1,0,1:0:0:0:
189,182,28059,1,10,0:0:0:0:
444,148,28215,1,0,1:0:0:0:
240,102,28371,1,10,0:0:0:0:
375,2,28527,1,0,1:0:0:0:
375,2,28605,1,0,1:0:0:0:
375,2,28684,6,0,L|370:103,1,85,6|0,1:0|0:0,0:0:0:0:
365,269,28996,1,10,0:0:0:0:
451,179,29152,2,0,L|350:174,1,85,2|0,0:0|1:0,0:0:0:0:
221,167,29465,1,2,1:0:0:0:
365,269,29621,1,8,0:0:0:0:
187,277,29777,6,0,L|288:272,1,85,6|0,1:0|0:0,0:0:0:0:
460,270,30090,1,0,1:0:0:0:
361,184,30246,2,0,L|365:289,1,85,8|0,0:0|0:0,0:0:0:0:
447,145,30559,1,2,1:0:0:0:
274,148,30715,1,0,1:0:0:0:
450,60,30871,2,0,L|446:165,1,85,10|0,0:0|0:0,0:0:0:0:
191,103,31184,6,0,P|241:59|296:60,1,85,6|0,1:0|0:0,0:0:0:0:
446,144,31496,1,10,0:0:0:0:
277,232,31652,2,0,L|273:127,1,85,2|0,0:0|1:0,0:0:0:0:
438,238,31965,2,0,L|434:322,1,85,2|8,1:0|0:0,0:0:0:0:
155,310,32277,6,0,B|225:303|225:303|252:319|252:319|323:311,1,170,6|0,1:0|1:0,0:0:0:0:
96,386,32746,2,0,P|63:330|61:292,1,85,8|0,0:0|0:0,0:0:0:0:
112,150,33059,1,2,1:0:0:0:
155,310,33215,1,0,1:0:0:0:
178,91,33371,2,0,P|128:62|75:70,1,85,10|0,0:0|0:0,0:0:0:0:
182,214,33684,6,0,L|279:204,1,85,6|0,1:0|0:0,0:0:0:0:
485,185,33996,1,10,0:0:0:0:
306,294,34152,1,0,0:0:0:0:
512,264,34309,1,2,1:0:0:0:
383,139,34465,1,0,1:0:0:0:
314,378,34621,2,0,L|304:281,1,85,10|0,0:0|0:0,0:0:0:0:
276,100,34934,5,6,1:0:0:0:
398,234,35090,1,0,0:0:0:0:
391,54,35246,2,0,L|381:151,1,85,10|0,0:0|0:0,0:0:0:0:
362,312,35559,1,2,1:0:0:0:
456,167,35715,1,0,1:0:0:0:
269,186,35871,1,10,0:0:0:0:
398,234,36027,1,0,0:0:0:0:
267,15,36184,6,0,L|277:112,1,85,6|0,1:2|0:0,0:0:0:0:
439,64,36496,2,0,L|342:54,1,85,10|0,0:0|0:0,0:0:0:0:
181,35,36809,1,2,1:0:0:0:
351,145,36965,1,2,1:0:0:0:
173,121,37121,1,8,0:0:0:0:
260,270,37277,6,0,L|270:173,1,85,6|0,1:2|0:0,0:0:0:0:
94,226,37590,2,0,L|104:323,1,85,2|8,1:0|0:0,0:0:0:0:
173,167,37902,1,2,1:0:0:0:
173,167,37980,1,8,0:0:0:0:
173,167,38059,1,8,0:0:0:0:
17,170,38215,1,10,3:0:0:0:
183,259,38371,1,4,3:0:0:0:
94,226,38527,1,6,3:0:0:0:
261,203,38684,5,6,1:0:0:0:
194,353,38840,1,0,1:0:0:0:
173,167,38996,5,0,3:0:0:0:
173,167,39309,1,2,3:0:0:0:
173,167,39621,1,0,3:0:0:0:
173,167,39934,5,2,1:0:0:0:
408,215,40090,1,2,1:0:0:0:
293,112,40246,1,2,3:0:0:0:
261,203,40402,1,2,0:0:0:0:
385,122,40559,5,2,3:0:0:0:
385,122,40871,1,0,3:0:0:0:
385,122,41184,5,2,1:0:0:0:
325,322,41340,1,0,1:0:0:0:
261,203,41496,5,0,3:0:0:0:
261,203,41809,1,2,3:0:0:0:
261,203,42121,1,0,3:0:0:0:
261,203,42434,5,2,1:0:0:0:
418,227,42590,1,2,1:0:0:0:
298,123,42746,1,2,3:0:0:0:
328,289,42902,1,0,0:0:0:0:
390,141,43059,5,2,3:0:0:0:
390,141,43371,1,0,3:0:0:0:
390,141,43684,5,6,1:0:0:0:
418,333,43840,1,0,1:0:0:0:
224,299,43996,5,0,3:0:0:0:
224,299,44309,1,2,3:0:0:0:
224,299,44621,1,0,3:0:0:0:
224,299,44934,5,2,1:0:0:0:
185,112,45090,1,2,1:0:0:0:
295,235,45246,1,2,3:0:0:0:
247,40,45402,1,2,0:0:0:0:
205,206,45559,6,0,L|110:202,1,63.7500024318696,2|0,3:0|0:0,0:0:0:0:
44,198,45871,1,2,3:0:0:0:
185,112,46027,1,0,1:0:0:0:
50,318,46184,6,0,L|43:191,1,121.124996765614,6|0,1:0|0:0,0:0:0:0:
42,118,46496,1,8,0:0:0:0:
133,291,46652,1,8,0:0:0:0:
261,141,46809,1,8,0:0:0:0:
141,203,46965,1,8,0:0:0:0:
343,173,47121,1,8,0:0:0:0:
177,117,47277,1,8,0:0:0:0:
289,319,47434,5,10,0:0:0:0:
335,80,47590,1,10,0:0:0:0:
216,257,47746,1,10,0:0:0:0:
460,227,47902,1,14,0:0:0:0:
323,48,48059,6,0,L|316:132,1,70.1250021400452,2|0,0:0|0:0,0:0:0:0:
330,149,48371,2,0,L|335:79,1,70.1250021400452,2|0,0:0|0:0,0:0:0:0:
239,102,48684,6,0,L|228:222,1,106.25,6|0,1:0|0:0,0:0:0:0:
157,362,48996,2,0,L|146:242,1,106.25,8|0,0:0|0:0,0:0:0:0:
130,54,49309,1,2,1:0:0:0:
0,221,49465,1,0,1:0:0:0:
43,18,49621,1,10,0:0:0:0:
147,256,49777,1,0,0:0:0:0:
236,60,49934,6,0,L|119:53,1,106.25,2|0,1:0|0:0,0:0:0:0:
243,257,50246,2,0,L|360:250,1,106.25,8|0,0:0|0:0,0:0:0:0:
138,158,50559,1,2,1:0:0:0:
158,363,50715,1,0,1:0:0:0:
341,169,50871,2,0,L|235:163,1,106.25,10|0,0:0|0:0,0:0:0:0:
394,250,51184,6,0,P|432:200|430:139,1,106.25,2|0,1:0|0:0,0:0:0:0:
236,60,51496,1,8,0:0:0:0:
341,169,51652,1,0,0:0:0:0:
310,0,51809,1,2,1:0:0:0:
257,212,51965,1,0,1:0:0:0:
393,30,52121,6,0,B|425:81|425:81|402:248,1,212.5,10|0,0:0|1:0,0:0:0:0:
386,364,52590,1,0,0:0:0:0:
228,117,52746,2,0,L|334:103,1,106.25,10|0,0:0|0:0,0:0:0:0:
509,246,53059,2,0,L|403:231,1,106.25,2|0,1:0|1:0,0:0:0:0:
229,375,53371,2,0,L|334:360,1,106.25,10|0,0:0|0:0,0:0:0:0:
207,197,53684,6,0,B|126:187|126:187|79:206|79:206|-9:192,1,212.5,6|8,1:0|0:0,0:0:0:0:
68,108,54152,1,0,0:0:0:0:
137,284,54309,1,2,1:0:0:0:
171,105,54465,1,0,1:0:0:0:
57,223,54621,6,0,P|43:314|156:384,1,212.5,10|0,0:0|1:0,0:0:0:0:
262,133,55090,1,0,1:0:0:0:
137,284,55246,2,0,L|130:161,1,106.25,10|0,0:0|0:0,0:0:0:0:
349,319,55559,2,0,L|356:196,1,106.25,2|0,1:0|1:0,0:0:0:0:
44,357,55871,2,0,L|37:234,1,106.25,10|0,0:0|0:0,0:0:0:0:
227,89,56184,6,0,L|220:212,1,106.25,6|0,1:0|0:0,0:0:0:0:
149,32,56496,1,8,0:0:0:0:
316,148,56652,2,0,L|439:141,1,106.25,2|0,0:0|1:0,0:0:0:0:
368,49,56965,1,0,1:0:0:0:
378,238,57121,2,0,L|384:344,1,106.25,10|0,0:0|0:0,0:0:0:0:
140,256,57434,6,0,L|146:150,1,106.25,6|0,1:0|0:0,0:0:0:0:
211,319,57746,1,8,0:0:0:0:
167,347,57824,1,8,0:0:0:0:
114,348,57902,1,8,0:0:0:0:
70,321,57980,1,8,0:0:0:0:
47,274,58059,6,0,L|54:142,1,106.25,6|0,1:0|0:0,0:0:0:0:
112,33,58371,1,10,3:0:0:0:
151,68,58449,1,8,3:0:0:0:
201,85,58527,1,8,3:0:0:0:
254,85,58605,1,8,3:0:0:0:
301,64,58684,6,0,P|358:47|421:62,1,106.25,6|0,1:0|0:0,0:0:0:0:
269,192,58996,2,0,L|150:187,1,106.25,8|0,0:0|0:0,0:0:0:0:
305,278,59309,1,2,1:0:0:0:
352,145,59465,1,0,1:0:0:0:
213,274,59621,2,0,L|218:393,1,106.25,10|0,0:0|0:0,0:0:0:0:
441,263,59934,6,0,L|446:144,1,106.25,2|0,1:0|0:0,0:0:0:0:
305,278,60246,1,8,0:0:0:0:
435,359,60402,1,0,0:0:0:0:
350,192,60559,2,0,L|231:197,1,106.25,2|0,1:0|1:0,0:0:0:0:
91,64,60871,2,0,L|197:68,1,106.25,10|0,0:0|0:0,0:0:0:0:
213,274,61184,6,0,P|160:228|162:167,1,106.25,2|0,1:0|0:0,0:0:0:0:
287,74,61496,1,8,0:0:0:0:
243,196,61652,1,0,0:0:0:0:
216,11,61809,1,2,1:0:0:0:
154,195,61965,1,0,1:0:0:0:
330,160,62121,6,0,B|417:152|417:152|460:175|460:175|543:167,1,212.5,10|0,0:0|1:0,0:0:0:0:
481,78,62590,1,0,0:0:0:0:
396,248,62746,2,0,L|243:237,1,106.25,10|0,0:0|0:0,0:0:0:0:
144,127,63059,2,0,L|297:116,1,106.25,2|0,1:0|1:0,0:0:0:0:
396,11,63371,2,0,L|243:0,1,106.25,10|0,0:0|0:0,0:0:0:0:
451,319,63684,6,0,B|484:271|484:271|466:102,1,212.5,6|8,1:0|0:0,0:0:0:0:
214,205,64152,1,0,0:0:0:0:
290,260,64309,2,0,L|435:243,1,106.25,2|0,1:0|1:0,0:0:0:0:
249,119,64621,1,10,0:0:0:0:
249,119,64699,1,0,0:0:0:0:
249,119,64777,6,0,B|166:112|166:112|119:134|119:134|33:122,1,212.5,4|0,1:0|1:0,0:0:0:0:
0,277,65246,2,0,P|32:225|138:236,1,159.375,10|0,0:0|0:0,0:0:0:0:
81,287,65559,2,0,P|142:241|214:268,1,159.375,2|0,1:0|0:0,0:0:0:0:
157,318,65871,2,0,P|228:290|290:334,1,159.375,10|0,0:0|0:0,0:0:0:0:
218,370,66184,6,0,L|242:220,1,106.25,6|0,1:0|0:0,0:0:0:0:
259,117,66496,1,8,0:0:0:0:
81,287,66652,2,0,L|64:182,1,106.25,2|0,0:0|1:0,0:0:0:0:
35,23,66965,1,0,1:0:0:0:
158,215,67121,2,0,B|198:247|198:247|314:232,1,159.375,10|0,0:0|0:0,0:0:0:0:
382,222,67434,5,4,1:0:0:0:
225,162,67590,1,8,0:0:0:0:
249,329,67746,1,8,0:0:0:0:
304,124,67902,1,0,1:0:0:0:
304,124,67980,1,0,1:0:0:0:
304,124,68059,5,8,0:0:0:0:
349,301,68215,1,8,3:0:0:0:
229,72,68371,1,10,3:0:0:0:
278,236,68527,1,6,3:0:0:0:
274,4,68684,6,0,P|208:-7|156:28,1,106.25,14|0,0:0|0:0,0:0:0:0:
183,160,68996,2,0,P|225:108|221:45,1,106.25,10|0,0:0|1:0,0:0:0:0:
39,30,69309,5,10,0:0:0:0:
261,85,69465,1,0,1:0:0:0:
6,120,69621,5,10,0:0:0:0:
251,167,69777,1,2,1:0:0:0:
0,221,69934,5,12,0:0:0:0:
237,247,70090,1,2,0:0:0:0:
2,317,70246,5,10,0:0:0:0:
87,98,70402,1,0,1:0:0:0:
216,336,70559,1,8,0:0:0:0:
175,91,70715,1,0,1:0:0:0:
131,354,70871,5,10,0:0:0:0:
60,193,71027,1,2,1:0:0:0:
267,248,71184,5,14,0:0:0:0:
2,317,71340,1,0,0:0:0:0:
330,311,71496,5,10,0:0:0:0:
65,265,71652,1,0,1:0:0:0:
347,233,71809,5,10,0:0:0:0:
111,332,71965,1,0,1:0:0:0:
390,363,72121,5,10,0:0:0:0:
145,256,72277,1,2,1:0:0:0:
274,103,72434,5,12,0:0:0:0:
268,365,72590,1,2,0:0:0:0:
192,104,72746,1,10,0:0:0:0:
181,364,72902,1,0,1:0:0:0:
330,311,73059,5,8,0:0:0:0:
90,216,73215,1,0,1:0:0:0:
347,232,73371,1,8,0:0:0:0:
64,140,73527,1,0,1:0:0:0:
181,364,73684,5,14,0:0:0:0:
192,104,73840,1,8,0:0:0:0:
330,311,73996,1,10,0:0:0:0:
288,0,74152,5,6,1:0:0:0:
0,288,74465,1,6,1:0:0:0:
512,253,74777,1,6,1:0:0:0:
512,253,76184,6,0,L|505:140,1,85,6|2,1:0|0:0,0:0:0:0:
392,35,76496,1,10,0:0:0:0:
417,148,76652,1,2,0:0:0:0:
491,19,76809,1,2,1:0:0:0:
337,108,76965,1,2,1:0:0:0:
505,146,77121,1,10,0:0:0:0:
361,225,77277,6,0,B|319:252|319:252|186:240,1,170,6|2,1:0|1:0,0:0:0:0:
77,161,77746,2,0,L|182:171,1,85,10|2,0:0|0:0,0:0:0:0:
19,238,78059,1,2,1:0:0:0:
17,87,78215,1,0,1:0:0:0:
110,253,78371,2,0,L|116:338,1,85,10|0,0:0|0:0,0:0:0:0:
199,241,78684,5,6,1:0:0:0:
77,161,78840,1,2,0:0:0:0:
46,325,78996,1,10,0:0:0:0:
110,253,79152,1,2,1:0:0:0:
19,238,79309,1,2,0:0:0:0:
140,343,79465,1,2,1:0:0:0:
169,180,79621,1,10,0:0:0:0:
266,309,79777,6,0,B|301:343|301:343|448:327,1,170,6|0,1:0|1:0,0:0:0:0:
512,252,80246,2,0,L|417:246,1,85,8|0,0:0|0:0,0:0:0:0:
346,101,80559,1,2,1:0:0:0:
422,152,80715,1,0,1:0:0:0:
333,280,80871,2,0,L|339:185,1,85,10|0,0:0|0:0,0:0:0:0:
349,5,81184,5,6,1:0:0:0:
256,148,81340,1,2,0:0:0:0:
425,64,81496,1,10,0:0:0:0:
257,30,81652,1,2,0:0:0:0:
422,152,81809,1,2,1:0:0:0:
422,152,81965,1,2,1:0:0:0:
225,130,82121,1,10,0:0:0:0:
257,30,82277,6,0,P|309:69|302:195,1,170,6|2,1:0|1:0,0:0:0:0:
140,137,82746,2,0,L|246:128,1,85,10|2,0:0|0:0,0:0:0:0:
423,110,83059,1,2,1:0:0:0:
268,243,83215,1,2,1:0:0:0:
341,37,83371,2,0,L|235:28,1,85,10|2,0:0|0:0,0:0:0:0:
44,17,83684,5,6,1:0:0:0:
222,125,83840,1,0,0:0:0:0:
3,150,83996,1,10,0:0:0:0:
179,240,84152,1,2,1:0:0:0:
183,31,84309,1,0,0:0:0:0:
55,279,84465,1,2,1:0:0:0:
73,93,84621,1,8,0:0:0:0:
137,328,84777,6,0,B|203:317|203:317|244:333|244:333|320:321,1,170,6|0,1:0|1:0,0:0:0:0:
264,160,85246,2,0,P|250:209|264:268,1,85,10|0,0:0|0:0,0:0:0:0:
385,384,85559,1,8,0:0:0:0:
382,341,85637,1,8,0:0:0:0:
380,299,85715,1,8,0:0:0:0:
377,256,85793,1,8,0:0:0:0:
375,214,85871,2,0,L|436:230,3,42.5,8|8|4|4,3:0|3:0|3:0|3:0,0:0:0:0:
511,133,86184,6,0,L|415:144,1,85,6|2,1:0|0:0,0:0:0:0:
241,57,86496,1,10,0:0:0:0:
354,82,86652,1,2,0:0:0:0:
225,156,86809,1,2,1:0:0:0:
314,2,86965,1,2,1:0:0:0:
352,170,87121,1,10,0:0:0:0:
154,93,87277,6,0,B|127:135|127:135|139:268,1,170,6|2,1:0|1:0,0:0:0:0:
218,377,87746,2,0,L|208:272,1,85,10|2,0:0|0:0,0:0:0:0:
49,228,88059,1,2,1:0:0:0:
138,343,88215,1,2,1:0:0:0:
251,215,88371,2,0,L|166:209,1,85,10|2,0:0|0:0,0:0:0:0:
306,289,88684,5,6,1:0:0:0:
312,143,88840,1,2,0:0:0:0:
209,292,88996,1,10,0:0:0:0:
217,127,89152,1,2,1:0:0:0:
372,218,89309,1,2,0:0:0:0:
166,209,89465,1,2,1:0:0:0:
258,372,89621,1,10,0:0:0:0:
312,143,89777,6,0,B|276:176|276:176|284:323,1,170,6|0,1:0|1:0,0:0:0:0:
456,228,90246,2,0,L|361:215,1,85,8|0,0:0|0:0,0:0:0:0:
166,209,90559,1,0,1:0:0:0:
283,297,90715,1,0,1:0:0:0:
160,123,90871,2,0,L|166:218,1,85,8|0,0:0|0:0,0:0:0:0:
180,382,91184,5,6,1:0:0:0:
248,219,91340,1,2,0:0:0:0:
171,296,91496,1,10,0:0:0:0:
366,338,91652,1,2,0:0:0:0:
165,207,91809,1,2,1:0:0:0:
342,237,91965,1,2,1:0:0:0:
171,296,92121,1,10,0:0:0:0:
263,167,92277,6,0,P|217:120|93:142,1,170,6|2,1:0|1:0,0:0:0:0:
45,266,92746,2,0,L|35:162,1,85,10|2,0:0|0:0,0:0:0:0:
17,29,93059,1,2,1:0:0:0:
165,207,93215,1,2,1:0:0:0:
187,15,93371,2,0,L|177:118,1,85,10|2,0:0|0:0,0:0:0:0:
154,329,93684,5,6,1:0:0:0:
89,150,93840,1,2,0:0:0:0:
249,170,93996,1,10,0:0:0:0:
45,266,94152,1,2,1:0:0:0:
178,99,94309,1,2,0:0:0:0:
242,305,94465,1,2,1:0:0:0:
165,207,94621,1,10,0:0:0:0:
15,354,94777,6,0,B|81:343|81:343|122:359|122:359|198:347,1,170,2|0,1:0|1:0,0:0:0:0:
333,227,95246,2,0,L|216:219,1,85,12|0,0:0|0:0,0:0:0:0:
81,202,95559,1,0,1:0:0:0:
242,305,95715,1,0,1:0:0:0:
152,142,95871,1,12,0:0:0:0:
81,295,96027,1,0,0:0:0:0:
86,81,96184,5,8,0:0:0:0:
180,349,96340,1,8,0:0:0:0:
236,220,96496,6,0,L|242:305,1,85,2|2,0:0|0:0,0:0:0:0:
317,382,96809,2,0,L|323:284,1,85,2|2,0:0|0:0,0:0:0:0:
325,216,97121,5,2,0:0:0:0:
81,295,97277,1,6,1:0:0:0:
256,192,97355,12,0,105559,0:0:0:0:
