osu file format v14

[General]
AudioFilename: audio.mp3
AudioLeadIn: 0
PreviewTime: 47981
Countdown: 0
SampleSet: Soft
StackLeniency: 0.4
Mode: 0
LetterboxInBreaks: 0
WidescreenStoryboard: 0

[Editor]
DistanceSpacing: 1.1
BeatDivisor: 4
GridSize: 32
TimelineZoom: 1.7

[Metadata]
Title:Kanadeai
TitleUnicode:カナデアイ
Artist:Itowokashi
ArtistUnicode:イトヲカシ
Creator:Nikakis
Version:Haruto's Expert
Source:双星の陰陽師
Tags:Chuoutoppa Twin Star Exorcists Opening 4 Itou Kashitarou Ito Kashitaro Ryo Miyata 中央突破 伊東歌詞太郎 宮田“レフティ”リョウ Kyle_Y Shunao ShogunMoon Irohas Kalibe Sotarks Onlybiscuit Nevo Haruto Haruto_Aizawa
BeatmapID:1754247
BeatmapSetID:783769

[Difficulty]
HPDrainRate:6
CircleSize:3.6
OverallDifficulty:8.5
ApproachRate:9.2
SliderMultiplier:1.78
SliderTickRate:1

[Events]
//Background and Video events
0,0,"uwu.jpg",0,0
//Break Periods
//Storyboard Layer 0 (Background)
//Storyboard Layer 1 (Fail)
//Storyboard Layer 2 (Pass)
//Storyboard Layer 3 (Foreground)
//Storyboard Sound Samples

[TimingPoints]
1184,312.5,4,2,22,55,1,0
1184,-185.185185185185,4,2,22,55,0,0
6184,-96.1538461538461,4,2,22,65,0,0
6652,-87.719298245614,4,2,22,65,0,0
6887,-100,4,2,22,5,0,0
6965,-80.6451612903226,4,2,22,65,0,0
7199,-100,4,2,22,5,0,0
7277,-69.4444444444444,4,2,22,65,0,0
7355,-69.4444444444444,4,2,22,15,0,0
7590,-100,4,2,22,5,0,0
7746,-100,4,2,22,65,0,0
8684,-100,4,2,22,75,0,0
18684,-147.058823529412,4,2,22,65,0,0
27434,-100,4,2,22,65,0,0
28684,-100,4,2,22,75,0,0
38684,-147.058823529412,4,2,22,65,0,0
46184,-100,4,2,22,75,0,0
47902,-100,4,2,22,75,0,0
48059,-100,4,2,22,55,0,0
48684,-84.7457627118644,4,2,22,85,0,1
48918,-84.7457627118644,4,2,22,15,0,1
48996,-100,4,2,22,85,0,1
52668,-100,4,2,22,15,0,1
52746,-100,4,2,22,85,0,1
57434,-100,4,2,22,85,0,0
58684,-84.7457627118644,4,2,22,85,0,1
58918,-84.7457627118644,4,2,22,15,0,1
58996,-100,4,2,22,85,0,1
67434,-100,4,2,22,85,0,0
68684,-100,4,2,22,85,0,1
73684,-100,4,2,22,85,0,0
76184,-100,4,2,22,75,0,0
95246,-100,4,2,22,75,0,0
96496,-147.058823529412,4,2,22,75,0,0
96965,-100,4,2,22,75,0,0
97746,-100,4,2,22,70,0,0
98371,-100,4,2,22,65,0,0
98996,-100,4,2,22,60,0,0
99621,-100,4,2,22,55,0,0
100246,-100,4,2,22,50,0,0
100871,-100,4,2,22,45,0,0
101496,-100,4,2,22,40,0,0
102121,-100,4,2,22,35,0,0
102746,-100,4,2,22,30,0,0
103371,-100,4,2,22,25,0,0
103996,-100,4,2,22,20,0,0
104621,-100,4,2,22,15,0,0
105246,-100,4,2,22,10,0,0
105559,-100,4,2,22,5,0,0

[Colours]
Combo1 : 176,98,255
Combo2 : 128,128,255

[HitObjects]
129,131,871,5,2,0:0:0:0:
149,208,1027,1,2,0:0:0:0:
52,193,1184,6,0,B|151:208|129:133|236:148,1,192.240004693359,2|2,0:0|0:0,0:0:0:0:
248,162,2121,1,2,0:0:0:0:
339,117,2277,2,0,P|331:155|322:215,1,96.1200023466797,2|2,0:0|0:0,0:0:0:0:
231,256,2746,2,0,P|240:208|247:161,1,96.1200023466797,2|0,0:0|0:0,0:0:0:0:
232,147,3371,5,2,0:0:0:0:
169,195,3527,1,2,0:0:0:0:
157,100,3684,6,0,P|196:186|187:280,1,192.240004693359,2|2,0:0|0:0,0:0:0:0:
173,296,4621,1,2,0:0:0:0:
286,222,4777,2,0,P|276:174|269:127,1,96.1200023466797,2|2,0:0|0:0,0:0:0:0:
82,153,5246,2,0,P|91:200|98:247,1,96.1200023466797,2|0,0:0|0:0,0:0:0:0:
402,329,6184,6,0,B|394:277|383:227|383:227|423:201|466:235,1,185.119998870117,6|10,1:0|0:0,0:0:0:0:
355,125,6652,6,0,P|341:173|362:218,1,101.459998761475,6|0,1:0|0:0,0:0:0:0:
260,358,6965,6,0,P|246:309|273:253,1,110.359995621704,6|0,1:0|0:0,0:0:0:0:
488,68,7277,6,0,P|456:61|425:55,1,64.0800015644532,6|0,1:0|0:0,0:0:0:0:
113,122,8684,5,6,1:0:0:0:
86,213,8840,2,0,P|75:259|66:304,1,89,2|10,0:0|0:0,0:0:0:0:
52,50,9152,5,2,0:0:0:0:
113,122,9309,2,0,P|167:130|205:116,1,89,2|2,1:0|1:0,0:0:0:0:
357,27,9621,5,10,0:0:0:0:
259,6,9777,2,0,P|270:52|294:186,1,178,6|2,1:0|1:0,0:0:0:0:
245,335,10246,5,10,0:0:0:0:
19,192,10402,1,2,0:0:0:0:
150,315,10559,6,0,L|45:296,1,89,2|2,1:0|1:0,0:0:0:0:
114,211,10871,2,0,L|201:226,1,89,10|2,0:0|0:0,0:0:0:0:
447,309,11184,6,0,P|481:263|453:152,1,178,6|10,1:0|0:0,0:0:0:0:
388,85,11652,1,2,1:0:0:0:
388,85,11809,2,0,P|363:132|370:185,1,89,2|2,0:0|1:0,0:0:0:0:
447,309,12121,1,10,0:0:0:0:
363,260,12277,6,0,B|276:261|297:191|204:198,1,178,6|0,1:0|1:0,0:0:0:0:
190,379,12746,2,0,P|215:332|208:279,1,89,8|0,0:0|0:0,0:0:0:0:
124,272,13059,2,0,P|99:319|106:372,1,89,0|0,1:0|1:0,0:0:0:0:
109,175,13371,1,8,0:0:0:0:
401,56,13684,5,6,1:0:0:0:
307,35,13840,2,0,P|261:24|216:15,1,89,2|10,0:0|0:0,0:0:0:0:
411,226,14152,5,2,0:0:0:0:
376,137,14309,2,0,P|378:93|401:56,1,89,2|2,1:0|1:0,0:0:0:0:
482,286,14621,5,10,0:0:0:0:
411,226,14777,2,0,B|323:210|335:285|246:272,1,178,6|2,1:0|1:0,0:0:0:0:
76,95,15246,5,10,0:0:0:0:
129,335,15402,1,2,0:0:0:0:
57,186,15559,6,0,L|42:274,1,89,2|2,1:0|1:0,0:0:0:0:
149,243,15871,2,0,L|164:155,1,89,10|2,0:0|0:0,0:0:0:0:
55,8,16184,5,6,1:0:0:0:
164,155,16340,1,2,0:0:0:0:
259,22,16496,1,10,0:0:0:0:
358,110,16652,1,2,1:0:0:0:
434,45,16809,2,0,P|456:82|458:126,1,89,2|2,0:0|1:0,0:0:0:0:
379,288,17121,1,10,0:0:0:0:
479,225,17277,6,0,P|433:214|299:190,1,178,2|0,1:0|1:0,0:0:0:0:
78,96,17746,5,12,0:0:0:0:
136,284,17902,1,0,0:0:0:0:
136,284,17980,1,0,0:0:0:0:
136,284,18059,1,8,0:0:0:0:
168,163,18215,1,8,0:0:0:0:
227,234,18371,1,8,0:0:0:0:
276,171,18527,1,10,0:0:0:0:
304,190,18684,6,0,P|314:226|290:311,1,121.04000073877,6|2,0:0|0:0,0:0:0:0:
243,366,19152,1,0,0:0:0:0:
415,257,19309,5,0,0:0:0:0:
378,326,19465,2,0,P|363:353|344:376,1,60.5200003693848,2|0,0:0|0:0,0:0:0:0:
243,366,19777,1,2,0:0:0:0:
181,242,19934,6,0,P|189:270|193:300,1,60.5200003693848
2,160,20246,2,0,P|39:194|113:208,1,121.04000073877,2|0,0:0|0:0,0:0:0:0:
172,162,20715,1,0,0:0:0:0:
172,162,20871,2,0,P|162:120|154:80,1,60.5200003693848,2|0,0:0|0:0,0:0:0:0:
221,26,21184,6,0,P|236:88|248:150,1,121.04000073877,0|2,0:0|0:0,0:0:0:0:
106,208,21652,2,0,P|90:145|78:83,1,121.04000073877,0|2,0:0|0:0,0:0:0:0:
201,240,22121,1,0,0:0:0:0:
247,144,22277,1,2,0:0:0:0:
316,182,22434,6,0,P|331:208|339:237,1,60.5200003693848,0|0,0:0|0:0,0:0:0:0:
314,104,22746,2,0,P|343:97|435:119,1,121.04000073877,2|0,0:0|0:0,0:0:0:0:
496,163,23215,1,0,0:0:0:0:
245,68,23371,2,0,P|248:37|257:9,1,60.5200003693848,2|0,0:0|0:0,0:0:0:0:
251,148,23684,5,0,0:0:0:0:
251,148,23840,1,0,0:0:0:0:
59,125,23996,6,0,P|118:131|175:112,1,121.04000073877,2|0,0:0|0:0,0:0:0:0:
138,37,24465,2,0,P|107:37|78:44,1,60.5200003693848,2|0,0:0|0:0,0:0:0:0:
105,212,24777,2,0,P|135:211|164:204,1,60.5200003693848,2|0,0:0|0:0,0:0:0:0:
251,148,25090,5,0,0:0:0:0:
255,254,25246,2,0,P|243:313|229:372,1,121.04000073877,2|0,0:0|0:0,0:0:0:0:
315,196,25715,5,0,0:0:0:0:
332,274,25871,2,0,P|323:315|313:356,1,60.5200003693848,2|2,0:0|0:0,0:0:0:0:
483,279,26184,6,0,P|431:268|385:200,1,121.04000073877,0|2,0:0|0:0,0:0:0:0:
372,143,26652,2,0,P|370:112|379:84,1,60.5200003693848
414,13,26965,1,2,0:0:0:0:
315,196,27121,2,0,P|273:187|232:177,1,60.5200003693848,0|2,0:0|0:0,0:0:0:0:
33,131,27434,5,0,1:0:0:0:
194,71,27590,1,8,0:0:0:0:
96,291,27746,1,8,0:0:0:0:
149,172,27902,1,0,1:0:0:0:
251,277,28059,6,0,P|274:306|265:365,1,89,10|0,0:0|1:0,0:0:0:0:
378,260,28371,2,0,P|401:231|392:172,1,89,10|0,0:0|1:0,0:0:0:0:
391,167,28605,1,0,1:0:0:0:
391,167,28684,6,0,P|303:148|214:131,1,178,6|10,1:0|0:0,0:0:0:0:
21,78,29152,1,2,0:0:0:0:
192,9,29309,1,0,1:0:0:0:
77,141,29465,2,0,P|36:112|19:65,1,89,2|8,1:0|0:0,0:0:0:0:
280,83,29777,6,0,P|298:167|242:233,1,178,6|0,1:0|1:0,0:0:0:0:
89,271,30246,2,0,P|45:280|1:289,1,89,8|0,0:0|0:0,0:0:0:0:
141,192,30559,1,2,1:0:0:0:
250,346,30715,1,0,1:0:0:0:
363,237,30871,2,0,P|389:286|381:328,1,89,10|0,0:0|0:0,0:0:0:0:
375,333,31105,1,0,0:0:0:0:
375,333,31184,6,0,P|394:245|411:156,1,178,6|10,1:0|0:0,0:0:0:0:
512,0,31652,1,2,0:0:0:0:
505,184,31809,1,0,1:0:0:0:
356,79,31965,2,0,P|414:63|472:82,1,89,2|8,1:0|0:0,0:0:0:0:
375,333,32277,6,0,P|330:297|310:177,1,178,6|0,1:0|1:0,0:0:0:0:
441,67,32746,1,8,0:0:0:0:
423,230,32902,1,0,0:0:0:0:
423,230,32980,1,0,0:0:0:0:
423,230,33059,1,2,1:0:0:0:
261,96,33215,1,0,1:0:0:0:
162,299,33371,1,10,0:0:0:0:
228,234,33527,1,0,0:0:0:0:
228,234,33605,1,0,0:0:0:0:
228,234,33684,6,0,P|175:208|121:222,1,89,6|0,1:0|0:0,0:0:0:0:
100,357,33996,2,0,P|149:324|163:270,1,89,10|0,0:0|0:0,0:0:0:0:
57,184,34309,2,0,P|60:242|100:282,1,89,2|0,1:0|1:0,0:0:0:0:
250,326,34621,1,10,0:0:0:0:
353,244,34777,1,0,0:0:0:0:
361,232,34855,1,0,0:0:0:0:
365,216,34934,6,0,P|356:172|347:128,1,89,6|0,1:0|0:0,0:0:0:0:
170,21,35246,2,0,P|161:65|152:109,1,89,10|0,0:0|0:0,0:0:0:0:
233,191,35559,6,0,P|260:139|252:18,1,178,2|10,1:0|0:0,0:0:0:0:
152,108,36027,1,0,0:0:0:0:
353,244,36184,2,0,P|405:218|430:185,1,89,6|0,1:0|0:0,0:0:0:0:
254,23,36496,6,0,P|220:104|232:191,1,178,8|2,0:0|1:0,0:0:0:0:
299,359,36965,1,2,1:0:0:0:
66,255,37121,1,8,0:0:0:0:
231,287,37277,6,0,P|187:296|143:305,1,89,6|0,1:2|0:0,0:0:0:0:
144,209,37590,2,0,P|188:200|232:191,1,89,2|8,1:0|0:0,0:0:0:0:
299,359,37902,1,2,1:0:0:0:
314,344,37980,1,8,0:0:0:0:
325,326,38059,1,8,0:0:0:0:
144,208,38215,1,10,3:0:0:0:
15,324,38371,1,4,3:0:0:0:
66,255,38527,1,6,3:0:0:0:
53,170,38684,6,0,P|44:126|36:98,1,60.5200003693848,6|0,1:0|1:0,0:0:0:0:
14,20,38996,1,0,3:0:0:0:
14,20,39309,1,2,3:0:0:0:
14,20,39621,1,0,3:0:0:0:
231,191,39934,6,0,P|272:177|297:144,1,60.5200003693848,2|2,1:0|1:0,0:0:0:0:
347,94,40246,1,2,3:0:0:0:
347,94,40559,1,2,3:0:0:0:
347,94,40871,1,0,3:0:0:0:
165,56,41184,6,0,P|157:85|151:115,1,60.5200003693848,2|0,1:0|1:0,0:0:0:0:
144,208,41496,1,0,3:0:0:0:
144,208,41809,1,2,3:0:0:0:
144,208,42121,1,0,3:0:0:0:
392,245,42434,6,0,P|386:215|378:186,1,60.5200003693848,2|2,1:0|1:0,0:0:0:0:
347,94,42746,1,2,3:0:0:0:
347,94,43059,1,2,3:0:0:0:
284,165,43215,1,0,0:0:0:0:
267,150,43293,1,0,3:0:0:0:
256,134,43371,1,0,3:0:0:0:
354,4,43527,1,2,3:0:0:0:
495,140,43684,6,0,P|471:121|441:114,1,60.5200003693848,6|0,1:0|1:0,0:0:0:0:
284,165,43996,1,0,0:0:0:0:
284,165,44309,1,2,3:0:0:0:
284,165,44621,1,0,3:0:0:0:
10,166,44934,6,0,P|39:158|69:152,1,60.5200003693848,2|2,1:0|1:0,0:0:0:0:
236,248,45246,1,2,3:0:0:0:
236,248,45559,1,2,3:0:0:0:
236,248,45871,1,2,3:0:0:0:
165,56,46027,1,0,1:0:0:0:
144,208,46184,5,6,1:0:0:0:
347,94,46496,5,8,0:0:0:0:
284,165,46652,1,8,0:0:0:0:
354,4,46809,1,8,0:0:0:0:
441,114,46965,1,8,0:0:0:0:
253,67,47121,1,8,0:0:0:0:
448,24,47277,1,8,0:0:0:0:
381,233,47434,5,10,0:0:0:0:
165,56,47590,1,10,0:0:0:0:
120,332,47746,1,10,0:0:0:0:
284,165,47902,1,14,0:0:0:0:
284,165,48684,6,0,P|258:258|239:354,1,157.529994471451,6|0,1:0|0:0,0:0:0:0:
243,336,48996,2,0,P|298:333|328:309,1,89,8|0,0:0|0:0,0:0:0:0:
181,171,49309,1,2,1:0:0:0:
120,332,49465,1,0,1:0:0:0:
60,259,49621,2,0,P|50:215|37:172,1,89,10|0,0:0|0:0,0:0:0:0:
31,153,49855,1,0,0:0:0:0:
23,134,49934,6,0,P|79:125|122:17,1,178,2|8,1:0|0:0,0:0:0:0:
35,41,50402,1,0,0:0:0:0:
181,171,50559,2,0,P|214:132|219:79,1,89,2|0,1:0|1:0,0:0:0:0:
60,259,50871,1,10,0:0:0:0:
243,336,51027,1,0,0:0:0:0:
243,336,51105,1,0,0:0:0:0:
243,336,51184,6,0,P|336:310|423:293,1,178,2|8,1:0|0:0,0:0:0:0:
506,264,51652,1,0,0:0:0:0:
353,222,51809,2,0,P|309:230|266:241,1,89,2|0,1:0|1:0,0:0:0:0:
12,141,52121,2,0,P|55:152|98:159,1,89,10|0,0:0|0:0,0:0:0:0:
243,336,52434,6,0,P|194:308|170:229,1,133.5,0|0,1:0|0:0,0:0:0:0:
172,221,52746,2,0,P|182:177|191:134,1,89,10|0,0:0|0:0,0:0:0:0:
34,100,53059,2,0,P|66:130|99:160,1,89,2|0,1:0|1:0,0:0:0:0:
207,40,53371,2,0,P|164:52|122:66,1,89,10|0,0:0|0:0,0:0:0:0:
266,241,53684,6,0,B|354:257|342:182|431:195,1,178,6|8,1:0|0:0,0:0:0:0:
411,287,54152,1,0,0:0:0:0:
501,129,54309,1,2,1:0:0:0:
341,190,54465,1,0,1:0:0:0:
512,240,54621,1,10,0:0:0:0:
399,104,54777,6,0,P|311:86|226:62,1,178,4|0,1:0|1:0,0:0:0:0:
0,185,55246,2,0,P|42:173|86:164,1,89,10|0,0:0|0:0,0:0:0:0:
131,88,55559,6,0,P|173:146|173:188,1,89,2|0,1:0|1:0,0:0:0:0:
264,185,55871,2,0,P|221:242|181:255,1,89,10|0,0:0|0:0,0:0:0:0:
62,298,56184,6,0,B|150:282|138:357|227:344,1,178,6|8,1:0|0:0,0:0:0:0:
369,214,56652,1,2,0:0:0:0:
207,249,56809,1,0,1:0:0:0:
319,371,56965,1,0,1:0:0:0:
337,121,57121,1,10,0:0:0:0:
452,234,57277,1,0,0:0:0:0:
472,238,57355,1,0,0:0:0:0:
492,235,57434,6,0,P|510:194|509:150,1,89,6|0,1:0|0:0,0:0:0:0:
312,40,57746,5,8,0:0:0:0:
276,58,57824,1,8,0:0:0:0:
240,38,57902,1,8,0:0:0:0:
205,58,57980,1,8,0:0:0:0:
167,41,58059,6,0,P|149:81|150:125,1,89,6|0,1:0|0:0,0:0:0:0:
295,281,58371,1,10,3:0:0:0:
337,121,58527,1,8,3:0:0:0:
55,136,58684,6,0,P|70:177|177:218,1,157.529994471451,6|0,1:0|0:0,0:0:0:0:
191,218,58996,2,0,P|179:260|170:304,1,89,8|0,0:0|0:0,0:0:0:0:
150,125,59309,1,2,1:0:0:0:
295,281,59465,1,0,1:0:0:0:
29,359,59621,2,0,P|29:314|47:274,1,89,10|0,0:0|0:0,0:0:0:0:
150,125,59934,6,0,P|235:100|322:83,1,178,2|8,1:0|0:0,0:0:0:0:
169,21,60402,1,0,0:0:0:0:
300,181,60559,2,0,P|343:172|386:161,1,89,2|0,1:0|1:0,0:0:0:0:
255,1,60871,2,0,P|211:9|168:20,1,89,10|0,0:0|0:0,0:0:0:0:
47,275,61184,6,0,B|153:253|153:253|190:255|207:290,1,178,2|8,1:0|0:0,0:0:0:0:
213,384,61652,1,0,0:0:0:0:
45,182,61809,6,0,P|88:173|131:162,1,89,2|0,1:0|1:0,0:0:0:0:
378,351,62121,2,0,P|334:340|291:331,1,89,10|0,0:0|0:0,0:0:0:0:
19,265,62434,6,0,P|93:254|193:227,1,178,0|10,1:0|0:0,0:0:0:0:
391,159,62902,1,0,0:0:0:0:
227,44,63059,2,0,P|187:25|142:24,1,89,2|0,1:0|1:0,0:0:0:0:
108,246,63371,2,0,P|152:246|192:227,1,89,10|0,0:0|0:0,0:0:0:0:
391,159,63684,6,0,P|303:141|215:124,1,178,6|8,1:0|0:0,0:0:0:0:
10,77,64152,1,0,0:0:0:0:
144,201,64309,2,0,P|126:162|129:118,1,89,2|0,1:0|1:0,0:0:0:0:
370,35,64621,1,10,0:0:0:0:
276,47,64777,6,0,P|363:63|450:81,1,178,4|0,1:0|1:0,0:0:0:0:
395,175,65246,2,0,P|351:166|307:157,1,89,10|0,0:0|0:0,0:0:0:0:
75,259,65559,1,2,1:0:0:0:
219,142,65715,1,0,1:0:0:0:
298,311,65871,2,0,P|289:362|249:389,1,89,10|0,0:0|0:0,0:0:0:0:
120,159,66184,6,0,P|172:228|258:236,1,178,6|8,1:0|0:0,0:0:0:0:
236,54,66652,1,2,0:0:0:0:
236,54,66809,2,0,P|227:98|219:142,1,89,0|0,1:0|1:0,0:0:0:0:
261,384,67121,2,0,P|269:340|278:296,2,59.3333333333333,10|0|0,0:0|0:0|0:0,0:0:0:0:
342,265,67434,6,0,P|389:256|448:283,1,89,4|8,1:0|0:0,0:0:0:0:
510,321,67746,1,8,0:0:0:0:
405,120,67902,1,0,1:0:0:0:
407,140,67980,1,0,1:0:0:0:
403,159,68059,1,8,0:0:0:0:
272,325,68215,1,8,3:0:0:0:
120,159,68371,1,10,3:0:0:0:
266,211,68527,1,6,3:0:0:0:
60,366,68684,5,14,0:0:0:0:
120,159,68840,1,0,0:0:0:0:
125,299,68996,5,10,0:0:0:0:
55,226,69152,1,0,1:0:0:0:
236,54,69309,5,10,0:0:0:0:
342,265,69465,1,0,1:0:0:0:
312,108,69621,5,10,0:0:0:0:
266,211,69777,1,2,1:0:0:0:
112,41,69934,6,0,P|68:33|24:24,1,89,12|2,0:0|0:0,0:0:0:0:
101,252,70246,2,0,P|144:244|188:235,1,89,10|0,0:0|1:0,0:0:0:0:
334,73,70559,2,0,P|290:65|246:56,1,89,8|0,0:0|1:0,0:0:0:0:
430,196,70871,1,10,0:0:0:0:
376,0,71027,1,2,1:0:0:0:
164,158,71184,5,14,0:0:0:0:
439,101,71340,1,0,0:0:0:0:
165,67,71496,5,10,0:0:0:0:
339,112,71652,1,0,1:0:0:0:
72,95,71809,5,10,0:0:0:0:
345,22,71965,1,0,1:0:0:0:
244,290,72121,6,0,P|231:241|248:185,1,89,10|2,0:0|1:0,0:0:0:0:
312,108,72434,5,12,0:0:0:0:
396,314,72590,1,2,0:0:0:0:
390,189,72746,5,10,0:0:0:0:
321,239,72902,1,0,1:0:0:0:
478,221,73059,5,8,0:0:0:0:
238,204,73215,1,0,1:0:0:0:
420,10,73371,2,0,P|411:53|403:97,1,89,8|0,0:0|1:0,0:0:0:0:
244,290,73684,6,0,P|186:275|159:244,1,89,14|8,0:0|0:0,0:0:0:0:
165,38,73996,1,10,0:0:0:0:
238,204,74152,6,0,P|230:160|221:116,1,89,6|0,1:0|0:0,0:0:0:0:
47,262,74465,2,0,P|54:305|63:349,1,89,6|0,1:0|0:0,0:0:0:0:
311,363,74777,5,6,1:0:0:0:
320,332,76184,5,6,1:0:0:0:
252,105,76340,2,0,P|220:166|227:213,1,89,2|10,0:0|0:0,0:0:0:0:
230,289,76652,5,2,0:0:0:0:
398,206,76809,2,0,P|355:213|311:222,1,89,2|2,1:0|1:0,0:0:0:0:
145,245,77121,5,10,0:0:0:0:
39,172,77277,2,0,P|12:254|53:331,1,178,6|2,1:0|1:0,0:0:0:0:
135,4,77746,5,10,0:0:0:0:
243,137,77902,1,2,0:0:0:0:
61,76,78059,6,0,P|103:88|146:99,1,89,2|0,1:0|1:0,0:0:0:0:
230,36,78371,2,0,P|272:23|315:12,1,89,10|0,0:0|0:0,0:0:0:0:
422,251,78684,6,0,P|354:198|268:208,1,178,6|10,1:0|0:0,0:0:0:0:
399,365,79152,1,2,1:0:0:0:
301,380,79309,2,0,P|311:336|324:294,1,89,2|2,0:0|1:0,0:0:0:0:
404,117,79621,1,10,0:0:0:0:
268,208,79777,6,0,B|177:217|195:148|103:162,1,178,6|0,1:0|1:0,0:0:0:0:
147,357,80246,2,0,P|184:333|207:295,1,89,8|0,0:0|0:0,0:0:0:0:
23,238,80559,2,0,P|24:282|46:320,1,89,2|0,1:0|1:0,0:0:0:0:
119,256,80871,1,10,0:0:0:0:
324,51,81184,5,6,1:0:0:0:
227,31,81340,2,0,P|239:73|250:116,1,89,2|10,0:0|0:0,0:0:0:0:
453,192,81652,5,2,0:0:0:0:
359,210,81809,2,0,P|369:166|382:124,1,89,2|2,1:0|1:0,0:0:0:0:
427,37,82121,1,10,0:0:0:0:
423,297,82277,6,0,P|350:247|265:262,1,178,6|2,1:0|1:0,0:0:0:0:
189,317,82746,5,10,0:0:0:0:
272,363,82902,1,2,0:0:0:0:
234,150,83059,6,0,P|201:180|183:220,1,89,2|2,1:0|1:0,0:0:0:0:
85,189,83371,2,0,P|83:233|99:274,1,89,10|2,0:0|0:0,0:0:0:0:
266,262,83684,6,0,P|308:249|351:238,1,89,6|0,1:0|0:0,0:0:0:0:
446,204,83996,5,10,0:0:0:0:
321,153,84152,1,2,1:0:0:0:
474,93,84309,1,0,0:0:0:0:
286,33,84465,1,2,1:0:0:0:
427,298,84621,1,8,0:0:0:0:
321,153,84777,6,0,P|278:164|146:204,1,178,6|0,1:0|1:0,0:0:0:0:
278,324,85246,2,0,P|304:330|383:354,1,89,10|0,0:0|0:0,0:0:0:0:
96,349,85559,1,8,0:0:0:0:
82,321,85637,1,8,0:0:0:0:
76,290,85715,1,8,0:0:0:0:
80,259,85793,1,8,0:0:0:0:
92,231,85871,6,0,P|48:219|10:208,1,44.5,8|8,3:0|3:0,0:0:0:0:
92,0,86027,2,0,P|97:21|103:43,1,44.5,4|4,3:0|3:0,0:0:0:0:
135,136,86184,6,0,P|184:102|197:64,1,89,6|2,1:0|0:0,0:0:0:0:
38,113,86496,1,10,0:0:0:0:
175,338,86652,5,2,0:0:0:0:
235,259,86809,2,0,P|245:200|227:164,1,89,2|2,1:0|1:0,0:0:0:0:
135,136,87121,1,10,0:0:0:0:
235,259,87277,6,0,P|319:232|405:209,1,178,6|2,1:0|1:0,0:0:0:0:
304,335,87746,2,0,P|363:316|423:300,1,89,10|2,0:0|0:0,0:0:0:0:
483,275,88059,1,2,1:0:0:0:
408,18,88215,1,2,1:0:0:0:
326,163,88371,2,0,P|368:186|411:186,1,89,10|2,0:0|0:0,0:0:0:0:
408,18,88684,6,0,P|323:44|237:67,1,178,6|10,1:0|0:0,0:0:0:0:
58,142,89152,1,2,1:0:0:0:
168,0,89309,1,2,0:0:0:0:
264,163,89465,2,0,P|219:165|179:148,1,89,2|10,1:0|0:0,0:0:0:0:
87,338,89777,6,0,B|59:243|59:243|98:213|143:242,1,178,6|0,1:0|1:0,0:0:0:0:
207,300,90246,2,0,P|220:342|233:384,1,89,8|0,0:0|0:0,0:0:0:0:
289,245,90559,1,0,1:0:0:0:
87,338,90715,1,0,1:0:0:0:
179,148,90871,2,0,P|221:135|263:121,1,89,8|0,0:0|0:0,0:0:0:0:
464,310,91184,5,6,1:0:0:0:
373,271,91340,2,0,P|330:257|288:244,1,89,2|10,0:0|0:0,0:0:0:0:
493,127,91652,5,2,0:0:0:0:
407,183,91809,2,0,P|391:136|401:89,1,89,2|2,1:0|1:0,0:0:0:0:
436,9,92121,1,10,0:0:0:0:
373,271,92277,6,0,B|282:262|300:331|208:317,1,178,6|2,1:0|1:0,0:0:0:0:
37,245,92746,5,10,0:0:0:0:
107,326,92902,2,0,P|119:283|133:241,1,89,2|2,0:0|1:0,0:0:0:0:
208,56,93215,5,2,1:0:0:0:
133,121,93371,2,0,P|168:148|219:154,1,89,10|2,0:0|0:0,0:0:0:0:
436,9,93684,5,6,1:0:0:0:
294,98,93840,1,2,0:0:0:0:
410,161,93996,1,10,0:0:0:0:
323,211,94152,1,2,1:0:0:0:
379,269,94309,1,2,0:0:0:0:
481,93,94465,5,2,1:0:0:0:
227,170,94621,1,10,0:0:0:0:
439,351,94777,6,0,P|392:313|271:315,1,178,2|0,1:0|1:0,0:0:0:0:
86,384,95246,2,0,P|74:341|60:299,1,89,12|0,0:0|0:0,0:0:0:0:
145,227,95559,2,0,P|157:270|171:312,1,89,0|0,1:0|1:0,0:0:0:0:
13,51,95871,1,12,0:0:0:0:
49,191,96027,1,0,0:0:0:0:
49,191,96105,1,0,0:0:0:0:
49,191,96184,5,8,0:0:0:0:
304,101,96340,1,8,0:0:0:0:
219,29,96496,6,0,P|203:54|195:83,1,60.5200003693848,2|2,0:0|0:0,0:0:0:0:
228,175,96809,2,0,P|246:198|271:216,1,60.5200003693848,2|2,0:0|0:0,0:0:0:0:
304,101,97121,5,2,0:0:0:0:
213,312,97277,1,6,1:0:0:0:
256,192,97355,12,0,105559,0:0:0:0:
