osu file format v14

[General]
AudioFilename: audio.mp3
AudioLeadIn: 0
PreviewTime: 48111
Countdown: 0
SampleSet: Normal
StackLeniency: 0.3
Mode: 0
LetterboxInBreaks: 0
WidescreenStoryboard: 0

[Editor]
DistanceSpacing: 1
BeatDivisor: 2
GridSize: 4
TimelineZoom: 1.7

[Metadata]
Title:Kanadeai
TitleUnicode:カナデアイ
Artist:Itowokashi
ArtistUnicode:イトヲカシ
Creator:Lefia
Version:Normal
Source:双星の陰陽師
Tags:Sousei no onmyouji twin star exorcist opening 4 ito kashitaro KittyAdventure gokugohan12468 byby
BeatmapID:1209690
BeatmapSetID:569992

[Difficulty]
HPDrainRate:4
CircleSize:3
OverallDifficulty:4
ApproachRate:5
SliderMultiplier:1.2
SliderTickRate:1

[Events]
//Background and Video events
Video,0,"video.avi"
0,0,"BG.jpg",0,0
//Break Periods
//Storyboard Layer 0 (Background)
//Storyboard Layer 1 (Fail)
//Storyboard Layer 2 (Pass)
//Storyboard Layer 3 (Foreground)
//Storyboard Sound Samples

[TimingPoints]
1315,312.5,4,2,1,40,1,0
6315,-100,4,1,1,60,0,0
18815,-100,4,2,1,55,0,0
27565,-100,4,1,1,60,0,0
38815,-100,4,2,1,55,0,0
46315,-100,4,1,1,60,0,0
46627,-100,4,1,1,65,0,0
47096,-100,4,1,1,70,0,0
47565,-100,4,1,1,75,0,0
48815,-100,4,1,1,70,0,1
58736,-100,4,1,1,70,0,0
58815,-100,4,1,1,70,0,1
68815,-100,4,1,1,70,0,0
76315,-100,4,1,1,60,0,0
88190,-100,4,2,1,50,0,0
88502,-100,4,2,1,40,0,0
88815,-100,4,2,1,30,0,0
89127,-100,4,2,1,15,0,0
89440,-100,4,2,1,5,0,0

[Colours]
Combo1 : 0,255,128
Combo2 : 110,110,110
Combo3 : 192,192,192
Combo4 : 255,43,43

[HitObjects]
0,48,1002,6,0,L|60:32,1,60
116,36,1315,6,0,P|129:94|93:165,1,120,2|0,0:0|0:0,0:0:0:0:
8,216,1940,2,0,P|60:272|136:252,1,120,2|0,0:0|0:0,0:0:0:0:
152,244,2408,2,0,P|228:228|272:260,1,120,2|0,0:0|0:0,0:0:0:0:
292,300,2877,2,0,L|308:164,1,120,2|0,0:0|0:0,0:0:0:0:
356,72,3502,2,0,L|288:64,1,60,2|0,0:0|0:0,0:0:0:0:
248,92,3815,38,0,P|188:104|124:80,1,120,2|0,0:0|0:0,0:0:0:0:
20,44,4440,2,0,L|40:176,1,120,2|0,0:0|0:0,0:0:0:0:
48,220,4908,2,0,P|88:264|168:220,1,120,2|0,0:0|0:0,0:0:0:0:
192,220,5377,2,0,P|252:204|324:248,1,120,2|0,0:0|0:0,0:0:0:0:
396,312,6002,1,0,0:0:0:0:
468,216,6315,6,0,L|460:92,1,120,4|8,0:0|0:0,0:0:0:0:
436,40,6783,1,0,0:0:0:0:
316,32,7096,1,0,0:0:0:0:
288,148,7408,1,2,2:0:0:0:
144,256,7877,2,0,B|104:256|104:256|64:240|64:240|8:240,2,120,0|0|0,2:0|2:0|2:0,2:0:0:0:
252,312,8815,38,0,P|308:328|372:304,1,120,4|8,0:0|0:0,0:0:0:0:
364,188,9440,2,0,P|308:172|244:196,1,120,0|8,0:0|0:0,0:0:0:0:
200,220,9908,2,0,B|140:236|140:236|80:224,1,120,2|0,2:0|0:0,0:0:0:0:
28,204,10377,1,8,0:0:0:0:
88,100,10690,2,0,P|144:84|204:100,1,120,0|8,0:0|0:0,0:0:0:0:
200,220,11315,6,0,B|260:236|260:236|328:220,1,120,4|8,0:0|0:0,0:0:0:0:
372,204,11783,1,0,0:0:0:0:
372,204,11940,2,0,P|388:144|360:80,1,120,0|8,0:0|0:0,0:0:0:0:
316,60,12408,2,0,B|259:46|259:46|199:62,1,120,2|0,2:0|0:0,0:0:0:0:
144,88,12877,2,0,B|104:112|60:88|60:88|36:132,1,120,8|0,0:0|0:0,0:0:0:0:
64,236,13502,1,8,0:0:0:0:
136,332,13815,6,0,P|192:352|252:324,1,120,4|8,0:0|0:0,0:0:0:0:
312,232,14440,2,0,P|366:210|421:230,1,120,0|8,0:0|0:0,0:0:0:0:
464,272,14908,2,0,L|464:132,1,120,2|0,2:0|0:0,0:0:0:0:
464,92,15377,1,8,0:0:0:0:
356,44,15690,2,0,B|296:28|296:28|232:48,1,120,0|8,0:0|0:0,0:0:0:0:
152,128,16315,6,0,P|132:184|164:248,1,120,4|8,0:0|0:0,0:0:0:0:
188,288,16783,1,0,0:0:0:0:
188,288,16940,2,0,L|324:288,1,120,0|8,0:0|0:0,0:0:0:0:
368,280,17408,2,0,B|380:216|380:216|364:156,1,120,2|0,2:0|0:0,0:0:0:0:
336,112,17877,1,8,0:0:0:0:
228,56,18190,2,0,P|196:48|160:60,1,60,8|8,0:0|0:0,0:0:0:0:
128,96,18502,2,0,P|96:104|60:92,1,60,8|8,0:0|0:0,0:0:0:0:
16,72,18815,38,0,L|24:200,1,120,4|0,0:0|0:0,0:0:0:0:
20,312,19440,2,0,P|72:328|144:292,1,120,2|0,0:0|0:0,0:0:0:0:
180,272,19908,1,0,0:0:0:0:
180,272,20065,2,0,P|236:256|292:288,1,120,2|0,0:0|0:0,0:0:0:0:
380,360,20690,2,0,L|404:216,1,120,2|0,0:0|0:0,0:0:0:0:
420,184,21158,1,0,0:0:0:0:
420,184,21315,6,0,P|384:136|308:140,1,120,2|0,0:0|0:0,0:0:0:0:
272,148,21783,2,0,B|212:160|212:160|136:144,1,120,2|2,0:0|0:0,0:0:0:0:
42,102,22408,2,0,L|76:224,1,120,2|0,0:0|0:0,0:0:0:0:
106,268,22877,2,0,P|174:288|246:256,1,120,2|0,0:0|0:0,0:0:0:0:
272,244,23346,1,0,0:0:0:0:
272,244,23502,2,0,P|304:240|344:252,1,60,2|0,0:0|0:0,0:0:0:0:
376,284,23815,38,0,L|376:152,1,120,2|0,0:0|0:0,0:0:0:0:
304,68,24440,2,0,P|240:52|164:88,1,120,2|0,0:0|0:0,0:0:0:0:
152,112,24908,1,0,0:0:0:0:
152,112,25065,2,0,B|136:168|136:168|164:248,1,120,2|0,0:0|0:0,0:0:0:0:
256,292,25690,2,0,L|384:292,1,120,2|0,0:0|0:0,0:0:0:0:
436,292,26158,1,0,0:0:0:0:
436,292,26315,6,0,P|456:236|424:164,1,120,2|0,0:0|0:0,0:0:0:0:
396,140,26783,2,0,B|340:120|340:120|280:144,1,120,2|2,0:0|0:0,0:0:0:0:
164,160,27408,1,0,0:0:0:0:
164,160,27565,38,0,P|160:204|176:248,1,60,0|8,0:0|0:0,0:0:0:0:
216,252,27877,2,0,P|220:296|204:340,1,60,0|8,0:0|0:0,0:0:0:0:
188,364,28190,2,0,L|348:364,1,120,8|8,0:0|0:0,0:0:0:0:
428,364,28815,6,0,P|444:308|424:248,1,120,4|8,0:0|0:0,0:0:0:0:
388,204,29283,2,0,P|332:180|268:192,1,120
224,220,29752,1,8,0:0:0:0:
224,220,29908,2,0,B|168:240|168:240|88:216,1,120,2|0,2:0|0:0,0:0:0:0:
60,192,30377,1,8,0:0:0:0:
4,84,30690,2,0,P|60:68|124:88,1,120,0|8,0:0|0:0,0:0:0:0:
228,128,31315,38,0,B|288:148|288:148|348:124,1,120,4|8,0:0|0:0,0:0:0:0:
392,96,31783,2,0,L|392:228,1,120
344,252,32252,1,8,0:0:0:0:
344,252,32408,2,0,B|292:273|292:273|232:253,1,120,2|0,2:0|0:0,0:0:0:0:
176,224,32877,1,8,0:0:0:0:
56,212,33190,2,0,P|36:152|68:88,1,120,0|8,0:0|0:0,0:0:0:0:
148,28,33815,6,0,P|208:16|276:36,1,120,4|8,0:0|0:0,0:0:0:0:
372,80,34440,1,0,0:0:0:0:
280,156,34752,2,0,L|276:232,1,60,8|0,0:0|2:0,0:0:0:0:
276,276,35065,2,0,P|331:297|386:277,1,120,2|8,2:0|0:0,0:0:0:0:
476,196,35690,1,0,0:0:0:0:
368,144,36002,2,0,P|364:104|372:72,1,60,8|0,0:0|2:0,0:0:0:0:
404,36,36315,38,0,L|276:36,1,120,4|8,0:0|0:0,0:0:0:0:
164,56,36940,2,0,P|136:104|164:172,1,120,0|8,0:0|0:0,0:0:0:0:
192,208,37408,2,0,P|248:226|299:197,1,120,2|0,2:0|0:0,0:0:0:0:
344,160,37877,1,8,0:0:0:0:
444,224,38190,2,0,L|449:164,2,60,8|0|0,0:0|0:0|0:0,0:0:0:0:
400,264,38658,1,0,0:0:0:0:
400,264,38815,21,4,0:0:0:0:
236,336,39283,2,0,L|228:276,1,60,0|8,0:0|0:0,0:0:0:0:
260,104,39908,1,0,0:0:0:0:
260,104,40065,2,0,P|196:92|148:116,2,120,2|8|8,0:0|0:0|0:0,0:0:0:0:
373,242,41158,1,0,0:0:0:0:
373,242,41315,5,2,0:0:0:0:
212,320,41783,2,0,L|200:236,1,60,0|8,0:0|0:0,0:0:0:0:
244,84,42408,1,0,0:0:0:0:
244,84,42565,2,0,P|140:80|108:128,2,120,2|8|8,0:0|0:0|0:0,0:0:0:0:
404,168,43658,1,0,0:0:0:0:
404,168,43815,5,2,0:0:0:0:
356,348,44283,2,0,L|305:317,1,60,0|8,0:0|0:0,0:0:0:0:
196,176,44908,1,0,0:0:0:0:
196,176,45065,2,0,P|140:208|124:264,2,120,2|8|8,0:0|0:0|0:0,0:0:0:0:
316,168,46002,1,8,0:0:0:0:
411,95,46315,6,0,P|435:183|336:287,1,240,12|8,0:0|0:0,0:0:0:0:
229,324,47252,2,0,L|224:249,1,60,8|8,0:0|0:0,0:0:0:0:
176,240,47565,1,8,0:0:0:0:
176,240,47721,2,0,L|172:152,2,60,8|8|8,0:0|0:0|0:0,0:0:0:0:
124,268,48190,2,0,P|60:256|32:208,1,120,0|0,2:0|2:0,0:0:0:0:
104,116,48815,38,0,P|160:84|228:104,1,120,4|8,0:0|0:0,0:0:0:0:
312,160,49440,2,0,B|336:192|328:228,1,60
384,244,49752,2,0,B|379:283|348:303,1,60,8|0,0:0|2:0,0:0:0:0:
308,332,50065,2,0,P|248:348|184:332,1,120,2|8,2:0|0:0,0:0:0:0:
96,264,50690,2,0,L|80:192,1,60
136,176,51002,2,0,L|140:102,1,60,8|0,0:0|2:0,0:0:0:0:
148,56,51315,6,0,P|208:40|264:60,1,120,2|8,2:0|0:0,0:0:0:0:
352,136,51940,2,0,L|360:196,1,60
404,236,52252,2,0,P|348:228|292:260,1,120,8|2,0:0|2:0,0:0:0:0:
240,364,52877,1,8,0:0:0:0:
152,284,53190,2,0,P|136:256|132:208,1,60
72,212,53502,2,0,P|73:179|93:136,1,60,8|0,0:0|2:0,0:0:0:0:
120,108,53815,38,0,P|176:92|240:112,1,120,4|8,0:0|0:0,0:0:0:0:
296,212,54440,2,0,L|312:276,1,60
324,328,54752,2,0,P|392:344|440:316,1,120,8|0,0:0|0:0,0:0:0:0:
488,216,55377,1,8,0:0:0:0:
416,120,55690,2,0,P|364:92|296:112,1,120,0|8,0:0|0:0,0:0:0:0:
272,220,56315,6,0,P|215:232|163:204,1,120,4|8,0:0|0:0,0:0:0:0:
124,156,56783,2,0,B|116:92|116:92|144:36,1,120
196,20,57252,2,0,L|276:48,1,60,8|0,0:0|2:0,0:0:0:0:
292,84,57565,2,0,L|420:136,1,120,2|8,2:0|0:0,0:0:0:0:
460,236,58190,1,0,0:0:0:0:
336,232,58502,1,8,0:0:0:0:
396,336,58815,6,0,P|340:356|276:332,1,120,4|8,0:0|0:0,0:0:0:0:
208,248,59440,2,0,L|192:172,1,60
256,176,59752,2,0,L|267:99,1,60,8|0,0:0|2:0,0:0:0:0:
292,64,60065,2,0,P|352:44|408:68,1,120,2|8,2:0|0:0,0:0:0:0:
480,156,60690,2,0,P|493:182|494:212,1,60
440,240,61002,2,0,P|438:269|424:295,1,60,8|0,0:0|2:0,0:0:0:0:
372,328,61315,6,0,P|316:344|248:320,1,120,2|8,2:0|0:0,0:0:0:0:
144,296,61940,2,0,P|112:288|72:300,1,60
44,332,62252,2,0,L|40:196,1,120,8|2,0:0|2:0,0:0:0:0:
108,112,62877,1,8,0:0:0:0:
228,120,63190,2,0,P|240:132|248:188,1,60
308,196,63503,2,0,P|310:212|280:260,1,60,8|0,0:0|2:0,0:0:0:0:
252,296,63815,38,0,L|408:296,1,120,4|8,0:0|0:0,0:0:0:0:
456,212,64440,2,0,L|452:144,1,60
444,92,64752,2,0,P|388:68|320:100,1,120,8|0,0:0|0:0,0:0:0:0:
312,204,65377,1,8,0:0:0:0:
192,192,65690,2,0,B|176:248|176:248|200:320,1,120,0|8,0:0|0:0,0:0:0:0:
304,352,66315,6,0,P|359:372|413:348,1,120,4|8,0:0|0:0,0:0:0:0:
448,300,66783,2,0,L|476:176,1,120
416,176,67252,2,0,L|417:101,1,60,8|0,0:0|2:0,0:0:0:0:
356,116,67565,2,0,L|338:43,2,60,2|0|8,2:0|0:0|0:0,0:0:0:0:
328,232,68190,1,8,0:0:0:0:
212,204,68502,2,0,P|160:200|140:212,1,60,0|0,0:0|2:0,0:0:0:0:
116,252,68815,38,0,L|104:120,2,120,12|8|8,0:0|0:0|0:0,0:0:0:0:
200,336,69752,1,8,0:0:0:0:
200,336,69908,2,0,B|292:344|292:344|344:320,1,120
367,298,70377,2,0,P|387:234|363:174,1,120,8|8,0:0|0:0,0:0:0:0:
276,116,71002,2,0,P|247:111|218:119,1,60,8|0,0:0|0:0,0:0:0:0:
184,168,71315,6,0,L|184:28,2,120,12|8|8,0:0|0:0|0:0,0:0:0:0:
184,288,72252,1,8,0:0:0:0:
184,288,72408,2,0,P|244:312|296:292,1,120
344,260,72877,2,0,B|360:196|360:196|344:128,1,120,8|8,0:0|0:0,0:0:0:0:
240,108,73502,1,8,0:0:0:0:
244,228,73815,6,0,L|212:356,1,120,4|8,0:0|0:0,0:0:0:0:
164,376,74283,1,0,0:0:0:0:
60,316,74596,1,0,0:0:0:0:
112,208,74908,1,2,2:0:0:0:
280,148,75377,2,0,B|280:108|280:108|264:68|264:68|264:12,2,120,0|0|0,2:0|2:0|2:0,2:0:0:0:
336,252,76315,6,0,P|280:272|224:248,1,120,4|8,0:0|0:0,0:0:0:0:
170,146,76940,2,0,P|226:126|282:150,1,120,0|8,0:0|0:0,0:0:0:0:
336,164,77408,2,0,B|396:180|396:180|456:168,1,120,2|0,2:0|0:0,0:0:0:0:
508,144,77877,1,8,0:0:0:0:
456,252,78190,2,0,P|472:309|456:366,1,120,0|8,0:0|0:0,0:0:0:0:
352,308,78815,38,0,B|292:324|292:324|224:308,1,120,4|8,0:0|0:0,0:0:0:0:
184,280,79283,1,0,0:0:0:0:
184,280,79440,2,0,P|128:261|72:277,1,120,0|8,0:0|0:0,0:0:0:0:
24,316,79908,2,0,B|28:168,1,120,2|0,2:0|0:0,0:0:0:0:
24,136,80377,2,0,B|84:172|148:132,1,120,8|0,0:0|0:0,0:0:0:0:
224,56,81002,1,8,0:0:0:0:
324,124,81315,6,0,P|344:180|316:240,1,120,4|8,0:0|0:0,0:0:0:0:
232,316,81940,2,0,P|178:294|123:314,1,120,0|8,0:0|0:0,0:0:0:0:
76,352,82408,2,0,L|76:212,1,120,2|0,2:0|0:0,0:0:0:0:
76,172,82877,1,8,0:0:0:0:
160,88,83190,2,0,B|220:72|220:72|284:92,1,120,0|8,0:0|0:0,0:0:0:0:
388,136,83815,38,0,P|408:192|376:256,1,120,4|8,0:0|0:0,0:0:0:0:
348,292,84283,1,0,0:0:0:0:
348,292,84440,2,0,L|212:292,1,120,0|8,0:0|0:0,0:0:0:0:
168,288,84908,2,0,B|156:224|156:224|172:164,1,120,2|0,2:0|0:0,0:0:0:0:
200,116,85377,1,8,0:0:0:0:
304,52,85690,2,0,P|368:52|420:84,1,120,0|8,0:0|0:0,0:0:0:0:
416,200,86315,6,0,L|404:272,1,60,8|8,0:0|0:0,0:0:0:0:
356,292,86627,2,0,P|424:292|468:344,2,120,2|0|0,2:0|2:0|2:0,2:0:0:0:
300,316,87408,37,12,0:0:0:0:
256,192,87565,12,0,89440,2:0:0:0:
