osu file format v14

[General]
AudioFilename: audio.mp3
AudioLeadIn: 0
PreviewTime: 48111
Countdown: 0
SampleSet: Normal
StackLeniency: 0.3
Mode: 0
LetterboxInBreaks: 0
WidescreenStoryboard: 0

[Editor]
DistanceSpacing: 1.6
BeatDivisor: 4
GridSize: 4
TimelineZoom: 3.199999

[Metadata]
Title:Kanadeai
TitleUnicode:カナデアイ
Artist:Itowokashi
ArtistUnicode:イトヲカシ
Creator:Lefia
Version:Light Insane
Source:双星の陰陽師
Tags:Sousei no onmyouji twin star exorcist opening 4 ito kashitaro KittyAdventure gokugohan12468 byby
BeatmapID:1259337
BeatmapSetID:569992

[Difficulty]
HPDrainRate:6
CircleSize:3.5
OverallDifficulty:7
ApproachRate:8.5
SliderMultiplier:1.5
SliderTickRate:1

[Events]
//Background and Video events
Video,0,"video.avi"
0,0,"BG-3.jpg",0,0
//Break Periods
//Storyboard Layer 0 (Background)
//Storyboard Layer 1 (Fail)
//Storyboard Layer 2 (Pass)
//Storyboard Layer 3 (Foreground)
//Storyboard Sound Samples

[TimingPoints]
1315,312.5,4,2,1,40,1,0
1315,-133.333333333333,4,2,1,40,0,0
6315,-100,4,1,1,60,0,0
7565,-133.333333333333,4,2,1,40,0,0
8815,-100,4,1,1,60,0,0
18815,-133.333333333333,4,2,1,55,0,0
27565,-100,4,1,1,60,0,0
38815,-133.333333333333,4,2,1,55,0,0
46315,-100,4,1,1,60,0,0
46627,-100,4,1,1,65,0,0
47096,-100,4,1,1,70,0,0
47565,-100,4,1,1,75,0,0
48815,-100,4,1,1,70,0,1
58736,-100,4,1,1,70,0,0
58815,-100,4,1,1,70,0,1
68815,-100,4,1,1,70,0,0
75065,-133.333333333333,4,1,1,70,0,0
76315,-100,4,1,1,60,0,0
88190,-100,4,2,1,50,0,0
88502,-100,4,2,1,40,0,0
88815,-100,4,2,1,30,0,0
89127,-100,4,2,1,15,0,0
89440,-100,4,2,1,5,0,0

[Colours]
Combo1 : 0,255,128
Combo2 : 110,110,110
Combo3 : 192,192,192
Combo4 : 255,43,43

[HitObjects]
267,106,1002,6,0,B|307:114|307:114|351:102,1,75
404,48,1315,6,0,P|424:96|410:155,1,112.500004291535,2|0,0:0|0:0,0:0:0:0:
420,324,1940,2,0,P|364:326|318:296,1,112.500004291535,2|0,0:0|0:0,0:0:0:0:
256,236,2408,38,0,P|202:221|149:237,1,112.500004291535,2|0,0:0|0:0,0:0:0:0:
88,296,2877,2,0,P|64:244|88:180,1,112.500004291535,2|0,0:0|0:0,0:0:0:0:
180,60,3502,1,2,0:0:0:0:
96,56,3658,1,0,0:0:0:0:
136,132,3815,6,0,P|192:144|244:116,1,112.500004291535,2|0,0:0|0:0,0:0:0:0:
388,36,4440,2,0,L|388:156,1,112.500004291535,2|0,0:0|0:0,0:0:0:0:
440,216,4908,38,0,P|384:236|336:216,1,112.500004291535,2|0,0:0|0:0,0:0:0:0:
304,140,5377,2,0,P|252:120|184:144,1,112.500004291535,2|0,0:0|0:0,0:0:0:0:
84,256,6002,2,0,L|12:264,1,56.2500021457673,2|0,0:0|0:0,0:0:0:0:
72,172,6315,6,0,P|152:192|168:272,1,150,4|8,0:0|0:0,0:0:0:0:
160,360,6783,2,0,L|234:353,1,75,8|0,0:0|2:0,0:0:0:0:
356,268,7096,2,0,L|281:274,1,75,8|0,0:0|2:0,0:0:0:0:
172,249,7408,1,2,1:2:0:0:
172,249,7877,38,0,L|156:184,1,56.2500021457673,2|0,0:0|0:0,0:0:0:0:
244,208,8190,2,0,L|239:141,1,56.2500021457673,2|0,0:0|0:0,0:0:0:0:
320,172,8502,2,0,L|327:105,1,56.2500021457673,2|0,0:0|0:0,0:0:0:0:
328,24,8815,6,0,L|404:20,1,75,4|0,0:0|2:0,0:0:0:0:
508,100,9127,2,0,L|424:96,1,75,8|0,0:0|2:0,0:0:0:0:
325,116,9440,1,0,0:0:0:0:
392,184,9596,1,0,0:0:0:0:
433,96,9752,1,8,0:0:0:0:
264,56,9908,38,0,P|237:133|284:193,1,150,4|0,0:0|0:0,0:0:0:0:
354,148,10377,2,0,P|368:184|348:232,1,75,8|0,0:0|2:0,0:0:0:0:
222,256,10690,1,0,0:0:0:0:
271,185,10846,1,0,0:0:0:0:
258,336,11002,2,0,P|222:343|186:335,1,75,8|0,0:0|2:0,0:0:0:0:
120,272,11315,6,0,B|120:228|120:228|128:172|128:172|128:112,1,150,4|8,0:0|0:0,0:0:0:0:
208,68,11783,1,0,0:0:0:0:
208,68,11940,1,0,0:0:0:0:
244,160,12096,1,0,0:0:0:0:
244,160,12252,1,8,0:0:0:0:
208,68,12408,38,0,P|290:69|340:132,1,150,4|0,0:0|0:0,0:0:0:0:
352,216,12877,2,0,L|340:308,1,75,8|0,0:0|2:0,0:0:0:0:
192,224,13190,1,0,0:0:0:0:
268,172,13346,1,0,0:0:0:0:
228,300,13502,2,0,P|184:308|140:280,1,75,8|0,0:0|2:0,0:0:0:0:
112,208,13815,22,0,L|192:160,1,75,4|0,0:0|0:0,0:0:0:0:
214,86,14127,1,8,0:0:0:0:
214,86,14283,2,0,L|304:48,1,75
344,138,14596,1,0,0:0:0:0:
344,138,14752,1,8,0:0:0:0:
232,216,14908,6,0,P|192:156|240:68,1,150,4|0,0:0|0:0,0:0:0:0:
344,138,15377,2,0,L|269:145,1,75,8|0,0:0|2:0,0:0:0:0:
280,288,15690,1,0,0:0:0:0:
232,216,15846,1,0,0:0:0:0:
236,356,16002,2,0,P|270:369|306:363,1,75,8|0,0:0|2:0,0:0:0:0:
325,280,16315,38,0,B|397:276|397:276|445:288|457:344,1,150,4|8,0:0|0:0,0:0:0:0:
306,363,16783,1,0,0:0:0:0:
306,363,16940,1,0,0:0:0:0:
240,292,17096,1,0,0:0:0:0:
240,292,17252,1,8,0:0:0:0:
172,364,17408,6,0,P|140:296|164:224,1,150,4|0,0:0|0:0,0:0:0:0:
244,168,17877,2,0,L|336:164,1,75,8|0,0:0|2:0,0:0:0:0:
440,156,18190,1,8,0:0:0:0:
384,264,18346,1,8,0:0:0:0:
504,248,18502,1,8,0:0:0:0:
452,356,18658,1,8,0:0:0:0:
328,364,18815,38,0,L|189:359,1,112.500004291535,4|0,0:0|0:0,0:0:0:0:
148,308,19283,1,0,0:0:0:0:
76,356,19440,2,0,B|64:300|64:300|88:232,1,112.500004291535,2|0,0:0|0:0,0:0:0:0:
164,224,19908,1,0,0:0:0:0:
148,308,20065,6,0,P|204:328|244:300,1,112.500004291535,2|0,0:0|0:0,0:0:0:0:
288,228,20533,1,0,0:0:0:0:
372,220,20690,2,0,P|412:248|424:320,1,112.500004291535,2|0,0:0|0:0,0:0:0:0:
376,376,21158,1,0,0:0:0:0:
296,348,21315,38,0,L|220:356,1,56.2500021457673,2|0,0:0|0:0,0:0:0:0:
180,296,21627,1,0,0:0:0:0:
180,296,21783,2,0,P|172:252|176:224,1,56.2500021457673,2|0,0:0|0:0,0:0:0:0:
87,240,22096,2,0,P|94:195|107:170,1,56.2500021457673,2|0,0:0|0:0,0:0:0:0:
20,156,22408,6,0,P|42:117|63:98,1,56.2500021457673,2|0,0:0|0:0,0:0:0:0:
128,80,22721,1,0,0:0:0:0:
204,112,22877,2,0,B|232:108|232:108|280:116,1,56.2500021457673,2|0,0:0|0:0,0:0:0:0:
184,200,23190,1,0,0:0:0:0:
184,200,23346,1,0,0:0:0:0:
128,136,23502,2,0,L|128:72,1,56.2500021457673,2|0,0:0|0:0,0:0:0:0:
184,200,23815,38,0,P|120:220|64:192,1,112.500004291535,2|0,0:0|0:0,0:0:0:0:
46,127,24283,1,0,0:0:0:0:
128,136,24440,1,2,0:0:0:0:
79,205,24596,2,0,L|79:264,1,56.2500021457673
131,327,24908,1,0,0:0:0:0:
201,279,25065,6,0,P|254:263|306:280,1,112.500004291535,2|0,0:0|0:0,0:0:0:0:
365,219,25533,1,0,0:0:0:0:
305,160,25690,2,0,L|169:160,1,112.500004291535,2|0,0:0|0:0,0:0:0:0:
132,224,26158,1,0,0:0:0:0:
112,132,26315,38,0,P|131:101|168:79,1,56.2500021457673,2|0,0:0|0:0,0:0:0:0:
236,88,26627,1,0,0:0:0:0:
236,88,26783,2,0,P|272:88|304:96,1,56.2500021457673,2|0,0:0|0:0,0:0:0:0:
256,168,27096,2,0,P|291:174|321:187,1,56.2500021457673,2|0,0:0|0:0,0:0:0:0:
264,252,27408,6,0,P|297:264|325:282,1,56.2500021457673,2|0,0:0|0:0,0:0:0:0:
400,320,27721,1,8,0:0:0:0:
393,222,27877,1,8,0:0:0:0:
480,268,28033,1,8,0:0:0:0:
499,172,28190,2,0,P|472:124|408:112,1,112.5,8|0,0:0|2:0,0:0:0:0:
400,116,28502,2,0,P|352:148|288:128,1,112.5,8|0,0:0|2:0,0:0:0:0:
280,132,28815,38,0,P|240:132|192:156,1,75,4|0,0:0|2:0,0:0:0:0:
112,128,29127,1,8,0:0:0:0:
112,128,29283,2,0,P|112:168|140:212,1,75,0|0,0:0|2:0,0:0:0:0:
180,284,29596,1,0,0:0:0:0:
260,228,29752,1,8,0:0:0:0:
280,132,29908,6,0,B|296:88|296:88|188:156,1,150,4|0,0:0|0:0,0:0:0:0:
127,198,30377,2,0,P|110:164|112:127,1,75,8|0,0:0|2:0,0:0:0:0:
262,93,30690,2,0,P|239:124|207:142,1,75
104,32,31002,2,0,P|141:35|172:54,1,75,8|0,0:0|2:0,0:0:0:0:
111,128,31315,38,0,L|23:120,1,75,4|0,0:0|2:0,0:0:0:0:
144,223,31627,1,8,0:0:0:0:
144,223,31783,2,0,L|218:229,1,75,0|0,0:0|2:0,0:0:0:0:
232,327,32096,1,0,0:0:0:0:
136,351,32252,1,8,0:0:0:0:
80,271,32408,6,0,P|68:191|132:143,1,150,4|0,0:0|0:0,0:0:0:0:
207,142,32877,2,0,L|281:148,1,75,8|0,0:0|2:0,0:0:0:0:
437,184,33190,1,0,0:0:0:0:
345,212,33346,1,0,0:0:0:0:
373,120,33502,2,0,P|405:96|461:96,1,75,8|0,0:0|2:0,0:0:0:0:
345,212,33815,38,0,P|313:236|257:236,1,75,4|0,0:0|2:0,0:0:0:0:
209,308,34127,2,0,P|185:276|185:220,1,75,8|0,0:0|2:0,0:0:0:0:
181,144,34440,1,0,0:0:0:0:
277,148,34596,1,0,0:0:0:0:
357,92,34752,2,0,P|377:148|357:204,1,112.5,8|0,0:0|2:0,0:0:0:0:
345,212,35065,6,0,P|313:236|257:236,1,75,4|0,0:0|2:0,0:0:0:0:
179,242,35377,2,0,B|129:232|129:232|89:200|109:116,1,150,8|0,0:0|0:0,0:0:0:0:
165,64,35846,1,0,0:0:0:0:
185,160,36002,2,0,L|277:180,1,75,8|0,0:0|2:0,0:0:0:0:
392,248,36315,38,0,L|420:160,1,75,4|0,0:0|2:0,0:0:0:0:
343,110,36627,2,0,L|315:22,1,75,8|0,0:0|2:0,0:0:0:0:
165,64,36940,1,0,0:0:0:0:
185,160,37096,1,0,0:0:0:0:
258,96,37252,1,8,0:0:0:0:
76,40,37408,6,0,L|104:188,1,150,4|0,0:0|0:0,0:0:0:0:
188,164,37877,1,8,0:0:0:0:
68,280,38033,1,0,0:0:0:0:
68,280,38111,1,0,0:0:0:0:
68,280,38190,2,0,P|112:272|148:288,1,75,8|0,0:0|0:0,0:0:0:0:
228,340,38502,1,0,0:0:0:0:
296,260,38658,1,0,0:0:0:0:
377,324,38815,6,0,P|401:264|385:208,1,112.500004291535,4|8,0:0|0:0,0:0:0:0:
321,172,39283,1,0,0:0:0:0:
237,192,39440,2,0,B|205:216|205:216|109:216,1,112.500004291535,8|8,0:0|0:0,0:0:0:0:
44,212,39908,1,0,0:0:0:0:
137,136,40065,6,0,L|145:60,1,56.2500021457673,2|0,0:0|0:0,0:0:0:0:
221,112,40377,2,0,L|254:43,1,56.2500021457673,8|0,0:0|0:0,0:0:0:0:
308,118,40690,2,0,L|362:64,1,56.2500021457673,8|0,0:0|0:0,0:0:0:0:
408,20,41002,1,8,0:0:0:0:
492,52,41158,1,0,0:0:0:0:
413,140,41315,38,0,B|357:196|357:196|317:212,1,112.500004291535,2|8,0:0|0:0,0:0:0:0:
245,184,41783,1,0,0:0:0:0:
193,116,41940,2,0,P|141:104|85:136,1,112.500004291535,8|8,0:0|0:0,0:0:0:0:
32,192,42408,1,0,0:0:0:0:
149,192,42565,6,0,L|161:252,1,56.2500021457673,2|0,0:0|0:0,0:0:0:0:
237,216,42877,2,0,L|264:270,1,56.2500021457673,8|0,0:0|0:0,0:0:0:0:
326,208,43190,2,0,L|366:253,1,56.2500021457673,8|0,0:0|0:0,0:0:0:0:
379,252,43424,1,0,0:0:0:0:
395,252,43502,1,8,0:0:0:0:
478,244,43658,1,0,0:0:0:0:
381,144,43815,6,0,P|301:128|265:156,1,112.500004291535,2|8,0:0|0:0,0:0:0:0:
237,216,44283,1,0,0:0:0:0:
172,272,44440,2,0,B|116:261|116:261|68:220,1,112.500004291535,8|8,0:0|0:0,0:0:0:0:
32,148,44908,1,0,0:0:0:0:
113,60,45065,6,0,L|185:36,1,56.2500021457673,2|0,0:0|0:0,0:0:0:0:
177,124,45377,2,0,L|252:119,1,56.2500021457673,8|0,0:0|0:0,0:0:0:0:
222,202,45690,2,0,L|296:217,1,56.2500021457673,8|0,0:0|0:0,0:0:0:0:
337,272,46002,1,0,0:0:0:0:
421,272,46158,1,0,1:0:0:0:
505,220,46315,38,0,P|513:180|493:128,1,75,12|0,0:0|0:0,0:0:0:0:
413,184,46627,2,0,P|406:143|370:101,1,75,8|8,0:0|0:0,0:0:0:0:
314,181,46940,2,0,P|294:145|245:118,1,75,8|8,0:0|0:0,0:0:0:0:
219,212,47252,2,0,P|188:185|133:176,1,75,8|8,0:0|0:0,0:0:0:0:
61,196,47565,5,8,0:0:0:0:
44,308,47721,1,8,0:0:0:0:
145,260,47877,1,8,0:0:0:0:
132,372,48033,1,8,0:0:0:0:
229,316,48190,37,0,2:0:0:0:
229,316,48502,1,0,2:0:0:0:
229,316,48815,6,0,L|309:296,1,75,4|0,0:0|2:0,0:0:0:0:
441,260,49127,2,0,L|368:241,1,75,8|0,0:0|2:0,0:0:0:0:
184,188,49440,1,0,0:0:0:0:
184,88,49596,1,0,0:0:0:0:
276,140,49752,2,0,P|288:172|284:224,1,75,8|0,0:0|2:0,0:0:0:0:
229,316,50065,38,0,L|156:334,1,75,2|0,2:0|2:0,0:0:0:0:
48,280,50377,2,0,L|120:261,1,75,8|0,0:0|2:0,0:0:0:0:
292,232,50690,1,0,0:0:0:0:
229,316,50846,1,0,0:0:0:0:
188,220,51002,2,0,P|208:168|244:144,1,75,8|0,0:0|2:0,0:0:0:0:
348,140,51315,6,0,P|388:140|440:156,1,75,2|0,2:0|2:0,0:0:0:0:
496,244,51627,2,0,P|456:244|404:228,1,75,8|0,0:0|2:0,0:0:0:0:
280,228,51940,1,0,0:0:0:0:
244,128,52096,1,0,0:0:0:0:
308,48,52252,2,0,B|348:36|348:36|412:44,1,75,8|0,0:0|2:0,0:0:0:0:
464,100,52565,38,0,B|464:156|464:156|424:224,1,112.5,2|0,2:0|2:0,0:0:0:0:
400,240,52877,2,0,P|368:256|304:252,1,75,8|0,0:0|2:0,0:0:0:0:
224,272,53190,2,0,P|226:236|261:182,1,75
284,104,53502,2,0,P|313:123|342:181,1,75,8|0,0:0|2:0,0:0:0:0:
329,258,53815,6,0,L|301:358,1,75,4|0,0:0|2:0,0:0:0:0:
224,272,54127,2,0,L|163:356,1,75,8|0,0:0|2:0,0:0:0:0:
36,244,54440,1,0,0:0:0:0:
136,244,54596,1,0,0:0:0:0:
84,332,54752,1,8,0:0:0:0:
88,160,54908,38,0,P|156:120|220:144,1,150,4|0,0:0|0:0,0:0:0:0:
264,244,55377,2,0,B|276:280|276:280|260:336,1,75,8|0,0:0|2:0,0:0:0:0:
368,280,55690,2,0,L|466:260,1,75
380,192,56002,2,0,L|484:172,1,75,8|0,0:0|2:0,0:0:0:0:
444,352,56315,6,0,P|376:384|296:352,1,150,4|8,0:0|0:0,0:0:0:0:
228,296,56783,1,0,0:0:0:0:
228,296,56940,2,0,L|233:221,1,75
120,228,57252,2,0,L|114:153,1,75,8|0,0:0|2:0,0:0:0:0:
68,60,57565,38,0,P|108:48|160:68,1,75,4|0,0:0|0:0,0:0:0:0:
232,112,57877,1,8,0:0:0:0:
245,123,57955,1,0,0:0:0:0:
258,135,58033,1,0,0:0:0:0:
272,147,58111,1,0,0:0:0:0:
284,160,58190,6,0,L|304:260,1,75,4|0,0:0|2:0,0:0:0:0:
412,236,58502,38,0,L|426:162,1,75,8|0,0:0|2:0,0:0:0:0:
306,75,58815,38,0,P|260:75|225:98,1,75,4|0,0:0|2:0,0:0:0:0:
388,96,59127,2,0,P|387:50|364:15,1,75,8|0,0:0|2:0,0:0:0:0:
284,160,59440,1,0,0:0:0:0:
376,212,59596,1,0,0:0:0:0:
460,152,59752,2,0,P|480:96|472:56,1,75,8|0,0:0|2:0,0:0:0:0:
373,25,60065,38,0,L|277:29,1,75,2|0,2:0|2:0,0:0:0:0:
160,91,60377,2,0,L|234:87,1,75,8|0,0:0|2:0,0:0:0:0:
120,16,60690,1,0,0:0:0:0:
52,96,60846,1,0,0:0:0:0:
124,172,61002,2,0,L|204:168,1,75,8|0,0:0|2:0,0:0:0:0:
324,120,61315,6,0,P|336:156|340:220,1,75,2|0,2:0|2:0,0:0:0:0:
444,176,61627,2,0,P|432:212|428:276,1,75,8|0,0:0|2:0,0:0:0:0:
332,296,61940,1,0,0:0:0:0:
248,232,62096,1,0,0:0:0:0:
152,272,62252,2,0,B|140:232|140:232|152:184,1,75,8|0,0:0|2:0,0:0:0:0:
228,132,62565,38,0,P|297:117|342:138,1,112.5,2|0,2:0|2:0,0:0:0:0:
362,178,62877,2,0,P|380:207|381:272,1,75,8|0,0:0|2:0,0:0:0:0:
408,350,63190,2,0,P|371:349|314:320,1,75
235,304,63502,2,0,P|251:272|305:239,1,75,8|0,0:0|2:0,0:0:0:0:
387,247,63815,6,0,L|484:240,1,75,4|0,0:0|2:0,0:0:0:0:
392,164,64127,2,0,L|463:140,1,75,8|0,0:0|2:0,0:0:0:0:
328,28,64440,1,0,0:0:0:0:
316,116,64596,1,0,0:0:0:0:
400,80,64752,1,8,0:0:0:0:
228,100,64908,38,0,P|248:180|324:204,1,150,4|0,0:0|0:0,0:0:0:0:
444,252,65377,2,0,P|404:260|365:294,1,75,8|0,0:0|2:0,0:0:0:0:
256,300,65690,2,0,P|225:279|188:271,1,75
116,188,66002,2,0,L|104:276,1,75,8|0,0:0|2:0,0:0:0:0:
20,284,66315,6,0,P|64:340|144:340,1,150,4|8,0:0|0:0,0:0:0:0:
216,283,66783,1,0,0:0:0:0:
216,283,66940,2,0,L|216:208,1,75
318,238,67252,2,0,L|308:164,1,75,8|0,0:0|2:0,0:0:0:0:
360,72,67565,38,0,P|320:56|268:76,2,75,2|8|8,2:0|0:0|0:0,0:0:0:0:
424,156,68033,1,0,0:0:0:0:
428,164,68111,1,0,0:0:0:0:
432,172,68190,2,0,L|444:256,1,75,8|0,0:0|2:0,0:0:0:0:
320,320,68502,1,0,0:0:0:0:
236,372,68658,1,0,0:0:0:0:
152,308,68815,6,0,P|145:272|164:210,1,75,12|0,0:0|2:0,0:0:0:0:
167,129,69127,2,0,P|200:139|243:187,1,75,8|0,0:0|2:0,0:0:0:0:
313,232,69440,2,0,P|287:255|223:267,1,75,8|0,0:0|2:0,0:0:0:0:
152,236,69752,1,8,0:0:0:0:
167,129,69908,38,0,B|196:100|196:100|252:80,1,75,0|8,0:0|0:0,0:0:0:0:
325,72,70221,1,0,2:0:0:0:
431,127,70377,2,0,P|431:173|408:208,1,75,8|0,0:0|2:0,0:0:0:0:
406,49,70689,2,0,P|452:50|487:73,1,75,8|0,0:0|2:0,0:0:0:0:
348,152,71002,1,8,0:0:0:0:
260,104,71158,1,0,1:0:0:0:
164,152,71315,22,0,P|157:187|176:249,1,75,12|0,0:0|2:0,0:0:0:0:
179,331,71627,2,0,P|212:320|255:272,1,75,8|0,0:0|2:0,0:0:0:0:
325,228,71940,2,0,P|299:204|235:192,1,75,8|0,0:0|2:0,0:0:0:0:
164,224,72252,1,8,0:0:0:0:
80,160,72408,6,0,P|86:123|105:91,1,75,0|8,0:0|0:0,0:0:0:0:
208,124,72721,1,0,2:0:0:0:
308,88,72877,2,0,P|316:120|296:185,1,75,8|0,0:0|2:0,0:0:0:0:
293,267,73189,2,0,P|260:256|217:208,1,75,8|0,0:0|2:0,0:0:0:0:
147,164,73502,2,0,P|173:140|237:128,1,75,8|0,0:0|2:0,0:0:0:0:
308,88,73815,6,0,L|288:-8,2,75,12|0|8,0:0|0:0|0:0,0:0:0:0:
292,248,74283,2,0,L|218:255,1,75,8|0,0:0|2:0,0:0:0:0:
156,164,74596,2,0,L|231:158,1,75,8|0,0:0|2:0,0:0:0:0:
399,185,74908,1,10,1:2:0:0:
399,185,75377,6,0,L|415:123,1,56.2500021457673,2|0,2:0|2:0,0:0:0:0:
331,143,75690,2,0,L|335:79,1,56.2500021457673,2|0,2:0|2:0,0:0:0:0:
255,115,76002,2,0,L|248:51,1,56.2500021457673,2|0,2:0|2:0,0:0:0:0:
140,40,76315,6,0,L|64:44,1,75,4|0,0:0|2:0,0:0:0:0:
181,112,76627,2,0,L|265:116,1,75,8|0,0:0|2:0,0:0:0:0:
180,216,76940,1,0,0:0:0:0:
88,164,77096,1,0,0:0:0:0:
181,112,77252,1,8,0:0:0:0:
272,228,77408,6,0,P|248:284|168:312,1,150,4|0,0:0|0:0,0:0:0:0:
0,284,77877,2,0,P|-8:248|12:203,1,75,8|0,0:0|2:0,0:0:0:0:
180,216,78190,1,0,0:0:0:0:
92,256,78346,1,0,0:0:0:0:
144,132,78502,2,0,P|185:121|237:141,1,75,8|0,0:0|2:0,0:0:0:0:
280,196,78815,38,0,B|292:240|260:276|260:276|292:312|280:360,1,150,4|8,0:0|0:0,0:0:0:0:
160,300,79283,1,0,0:0:0:0:
160,300,79440,1,0,0:0:0:0:
190,212,79596,1,0,0:0:0:0:
190,212,79752,1,8,0:0:0:0:
160,300,79908,6,0,P|104:244|108:168,1,150,4|0,0:0|0:0,0:0:0:0:
160,88,80377,2,0,L|248:68,1,75,8|0,0:0|2:0,0:0:0:0:
208,176,80690,1,0,0:0:0:0:
104,177,80846,1,0,0:0:0:0:
52,88,81002,2,0,P|60:44|96:16,1,75,8|0,0:0|2:0,0:0:0:0:
160,88,81315,38,0,L|248:68,1,75,4|0,0:0|0:0,0:0:0:0:
290,152,81627,1,8,0:0:0:0:
290,152,81783,2,0,L|364:136,1,75
420,216,82096,1,0,0:0:0:0:
420,216,82252,1,8,0:0:0:0:
248,224,82408,6,0,P|208:164|256:76,1,150,4|0,0:0|0:0,0:0:0:0:
364,136,82877,2,0,L|276:156,1,75,8|0,0:0|2:0,0:0:0:0:
272,28,83190,1,0,0:0:0:0:
376,36,83346,1,0,0:0:0:0:
452,108,83502,2,0,P|456:156|444:184,1,75,8|0,0:0|2:0,0:0:0:0:
356,212,83815,38,0,B|428:208|428:208|476:220|488:276,1,150,4|8,0:0|0:0,0:0:0:0:
328,312,84283,1,0,0:0:0:0:
328,312,84440,1,0,0:0:0:0:
256,244,84596,1,0,0:0:0:0:
256,244,84752,1,0,0:0:0:0:
184,308,84908,6,0,P|152:240|188:172,1,150,4|0,0:0|0:0,0:0:0:0:
272,136,85377,2,0,L|364:132,1,75,8|0,0:0|2:0,0:0:0:0:
412,216,85690,1,8,0:0:0:0:
416,232,85768,1,0,0:0:0:0:
420,248,85846,1,0,0:0:0:0:
424,264,85924,1,0,0:0:0:0:
428,280,86002,1,8,0:0:0:0:
432,296,86080,1,0,0:0:0:0:
436,312,86158,1,0,0:0:0:0:
328,300,86315,37,8,0:0:0:0:
218,349,86471,1,8,0:0:0:0:
134,264,86627,2,0,P|130:224|154:168,1,75,2|0,2:0|2:0,2:0:0:0:
200,87,86940,2,0,P|209:50|205:13,2,75,0|0|0,2:0|2:0|2:0,2:0:0:0:
256,192,87408,5,12,0:0:0:0:
256,192,87565,12,0,89440,0:0:0:0:
