osu file format v14

[General]
AudioFilename: audio.mp3
AudioLeadIn: 0
PreviewTime: 48111
Countdown: 0
SampleSet: Normal
StackLeniency: 0.3
Mode: 0
LetterboxInBreaks: 0
WidescreenStoryboard: 0

[Editor]
DistanceSpacing: 1.3
BeatDivisor: 2
GridSize: 4
TimelineZoom: 3.199999

[Metadata]
Title:Kanadeai
TitleUnicode:カナデアイ
Artist:Itowokashi
ArtistUnicode:イトヲカシ
Creator:Lefia
Version:Hard
Source:双星の陰陽師
Tags:Sousei no onmyouji twin star exorcist opening 4 ito kashitaro KittyAdventure gokugohan12468 byby
BeatmapID:1209704
BeatmapSetID:569992

[Difficulty]
HPDrainRate:5
CircleSize:3.5
OverallDifficulty:6.5
ApproachRate:8
SliderMultiplier:1.4
SliderTickRate:1

[Events]
//Background and Video events
Video,0,"video.avi"
0,0,"BG.jpg",0,0
//Break Periods
//Storyboard Layer 0 (Background)
//Storyboard Layer 1 (Fail)
//Storyboard Layer 2 (Pass)
//Storyboard Layer 3 (Foreground)
//Storyboard Sound Samples

[TimingPoints]
1315,312.5,4,2,1,40,1,0
1315,-133.333333333333,4,2,1,40,0,0
6315,-100,4,1,1,60,0,0
7565,-133.333333333333,4,2,1,40,0,0
8815,-100,4,1,1,60,0,0
18815,-133.333333333333,4,2,1,55,0,0
27565,-100,4,1,1,60,0,0
38815,-133.333333333333,4,2,1,55,0,0
46315,-100,4,1,1,60,0,0
46627,-100,4,1,1,65,0,0
47096,-100,4,1,1,70,0,0
47565,-100,4,1,1,75,0,0
48815,-100,4,1,1,70,0,1
58736,-100,4,1,1,70,0,0
58815,-100,4,1,1,70,0,1
68815,-100,4,1,1,70,0,0
75065,-133.333333333333,4,1,1,70,0,0
76315,-100,4,1,1,60,0,0
88190,-100,4,2,1,50,0,0
88502,-100,4,2,1,40,0,0
88815,-100,4,2,1,30,0,0
89127,-100,4,2,1,15,0,0
89440,-100,4,2,1,5,0,0

[Colours]
Combo1 : 0,255,128
Combo2 : 110,110,110
Combo3 : 192,192,192
Combo4 : 255,43,43

[HitObjects]
136,56,1002,6,0,L|128:136,1,70
156,200,1315,6,0,P|105:205|65:174,2,105.000004005432,2|0|2,0:0|0:0|0:0,0:0:0:0:
308,160,2252,1,0,0:0:0:0:
308,160,2408,2,0,B|328:204|328:204|320:264,1,105.000004005432,2|0,0:0|0:0,0:0:0:0:
292,336,2877,2,0,P|340:308|396:320,1,105.000004005432,2|0,0:0|0:0,0:0:0:0:
440,168,3502,2,0,L|436:92,1,52.5000020027161,2|0,0:0|0:0,0:0:0:0:
380,60,3815,38,0,P|428:32|484:52,2,105.000004005432,2|0|2,0:0|0:0|0:0,0:0:0:0:
296,192,4752,1,0,0:0:0:0:
296,192,4908,2,0,P|248:208|180:180,1,105.000004005432,2|0,0:0|0:0,0:0:0:0:
132,148,5377,2,0,B|152:196|152:196|132:264,1,105.000004005432,2|0,0:0|0:0,0:0:0:0:
284,300,6002,2,0,P|316:292|340:300,1,52.5000020027161
388,360,6315,6,0,L|380:216,1,140,4|8,0:0|0:0,0:0:0:0:
464,184,6783,2,0,L|480:104,1,70,8|0,0:0|2:0,0:0:0:0:
404,60,7096,2,0,L|390:128,1,70,8|0,0:0|2:0,0:0:0:0:
301,151,7408,2,0,L|317:71,1,70,2|0,0:2|2:0,0:0:0:0:
256,220,7877,38,0,P|220:176|228:112,2,105.000004005432,2|2|2,0:0|0:0|0:0,0:0:0:0:
316,324,8815,6,0,B|352:332|352:332|396:320,1,70,0|0,0:0|2:0,0:0:0:0:
460,272,9127,2,0,L|460:188,1,70,8|0,0:0|2:0,0:0:0:0:
388,148,9440,2,0,B|352:140|352:140|308:152,1,70
240,188,9752,1,8,0:0:0:0:
172,128,9908,38,0,P|148:192|184:260,1,140,4|0,0:0|0:0,0:0:0:0:
264,280,10377,2,0,L|352:256,1,70,8|0,0:0|2:0,0:0:0:0:
420,244,10690,1,0,0:0:0:0:
420,244,10846,1,0,0:0:0:0:
360,176,11002,2,0,L|268:200,1,70,8|0,0:0|2:0,0:0:0:0:
226,163,11315,6,0,P|270:207|246:299,1,140,4|8,0:0|0:0,0:0:0:0:
188,332,11783,2,0,L|92:316,1,70
112,228,12096,2,0,L|180:240,1,70,0|8,0:0|0:0,0:0:0:0:
263,279,12408,38,0,B|332:292|332:292|415:263,1,140,4|0,0:0|0:0,0:0:0:0:
448,184,12877,2,0,P|448:128|424:96,1,70,8|0,0:0|2:0,0:0:0:0:
368,60,13190,1,0,0:0:0:0:
368,60,13346,1,0,0:0:0:0:
304,124,13502,2,0,P|264:132|216:112,1,70,8|0,0:0|2:0,0:0:0:0:
156,84,13815,22,0,L|144:16,2,70,4|0|8,0:0|0:0|0:0,0:0:0:0:
80,132,14283,2,0,L|50:69,2,70
160,176,14752,1,8,0:0:0:0:
100,244,14908,6,0,P|168:268|236:228,1,140,4|0,0:0|0:0,0:0:0:0:
304,192,15377,2,0,P|340:184|392:200,1,70,8|0,0:0|2:0,0:0:0:0:
432,260,15690,1,0,0:0:0:0:
432,260,15846,1,0,0:0:0:0:
488,188,16002,2,0,L|496:108,1,70,8|0,0:0|2:0,0:0:0:0:
456,40,16315,38,0,B|408:40|408:40|368:56|368:56|308:56,1,140,4|8,0:0|0:0,0:0:0:0:
244,108,16783,2,0,P|237:139|251:190,1,70
326,213,17096,2,0,P|332:181|318:130,1,70,0|8,0:0|0:0,0:0:0:0:
319,56,17408,6,0,L|176:56,1,140,4|0,0:0|0:0,0:0:0:0:
88,56,17877,2,0,P|96:100|72:144,1,70,8|0,0:0|2:0,0:0:0:0:
52,208,18190,2,0,P|85:199|119:208,1,70,8|8,0:0|0:0,0:0:0:0:
196,256,18502,2,0,P|229:264|263:256,1,70,8|8,0:0|0:0,0:0:0:0:
328,192,18815,38,0,P|344:144|324:88,1,105.000004005432,4|0,0:0|0:0,0:0:0:0:
256,40,19283,1,0,0:0:0:0:
256,40,19440,2,0,B|204:24|204:24|136:36,1,105.000004005432,2|0,0:0|0:0,0:0:0:0:
84,88,19908,1,0,0:0:0:0:
148,148,20065,6,0,P|160:188|140:252,1,105.000004005432,2|0,0:0|0:0,0:0:0:0:
108,324,20533,1,0,0:0:0:0:
108,324,20690,2,0,B|128:304|128:304|224:304,1,105.000004005432,2|0,0:0|0:0,0:0:0:0:
280,352,21158,1,0,0:0:0:0:
348,296,21315,38,0,L|356:224,1,52.5000020027161,2|0,0:0|0:0,0:0:0:0:
312,164,21627,1,0,0:0:0:0:
312,164,21783,2,0,P|360:152|420:184,2,105.000004005432,2|2|2,0:0|0:0|0:0,0:0:0:0:
248,224,22565,6,0,L|240:300,2,52.5000020027161,0|0|2,0:0|0:0|0:0,0:0:0:0:
153,72,23190,2,0,L|158:19,2,52.5000020027161,0|0|2,0:0|0:0|0:0,0:0:0:0:
112,152,23658,1,0,0:0:0:0:
112,152,23815,38,0,L|100:268,1,105.000004005432,2|0,0:0|0:0,0:0:0:0:
68,332,24283,1,0,0:0:0:0:
68,332,24440,2,0,P|112:304|176:324,1,105.000004005432,2|0,0:0|0:0,0:0:0:0:
232,360,24908,1,0,0:0:0:0:
304,312,25065,6,0,B|356:296|356:296|420:320,1,105.000004005432,2|0,0:0|0:0,0:0:0:0:
480,348,25533,1,0,0:0:0:0:
480,348,25690,2,0,B|460:328|460:328|460:232,1,105.000004005432,2|0,0:0|0:0,0:0:0:0:
484,172,26158,1,0,0:0:0:0:
428,108,26315,38,0,L|356:120,1,52.5000020027161,2|0,0:0|0:0,0:0:0:0:
304,164,26627,1,0,0:0:0:0:
304,164,26783,2,0,P|288:124|320:56,2,105.000004005432,2|2|2,0:0|0:0|0:0,0:0:0:0:
372,228,27565,5,0,0:0:0:0:
308,292,27721,1,8,0:0:0:0:
244,228,27877,2,0,P|200:220|156:244,1,70,8|0,0:0|0:0,0:0:0:0:
92,264,28190,2,0,P|101:231|92:197,1,70,8|0,0:0|2:0,0:0:0:0:
44,120,28502,2,0,P|36:87|44:53,1,70,8|0,0:0|2:0,0:0:0:0:
128,84,28815,38,0,P|196:64|276:92,1,140,4|8,0:0|0:0,0:0:0:0:
236,168,29283,2,0,P|180:148|160:212,1,140
208,288,29752,1,8,0:0:0:0:
284,240,29908,6,0,B|348:224|348:224|428:248,1,140,4|0,0:0|0:0,0:0:0:0:
504,280,30377,2,0,P|508:228|492:184,1,70,8|0,0:0|2:0,0:0:0:0:
504,120,30690,2,0,P|472:108|420:132,1,70
348,140,31002,2,0,P|316:152|264:128,1,70,8|0,0:0|2:0,0:0:0:0:
200,104,31315,38,0,P|140:84|56:120,1,140,4|8,0:0|0:0,0:0:0:0:
96,196,31783,2,0,P|132:163|155:238,1,140
144,312,32252,1,8,0:0:0:0:
60,280,32408,6,0,P|16:236|24:144,1,140,4|0,0:0|0:0,0:0:0:0:
64,84,32877,2,0,B|140:80,1,70,8|0,0:0|2:0,0:0:0:0:
220,48,33190,2,0,P|227:81|216:114,1,70
191,198,33502,2,0,P|179:230|187:264,1,70,8|0,0:0|2:0,0:0:0:0:
248,336,33815,38,0,B|280:344|280:344|316:336,1,70,4|0,0:0|2:0,0:0:0:0:
400,304,34127,2,0,B|432:295|432:295|468:303,1,70,8|0,0:0|2:0,0:0:0:0:
500,216,34440,1,0,0:0:0:0:
500,216,34596,1,0,0:0:0:0:
424,164,34752,2,0,B|421:131|421:131|434:96,1,70,8|0,0:0|2:0,0:0:0:0:
348,72,35065,6,0,P|312:80|280:72,1,70,4|0,0:0|2:0,0:0:0:0:
192,52,35377,2,0,P|158:44|124:52,1,70,8|0,0:0|2:0,0:0:0:0:
76,128,35690,1,0,0:0:0:0:
76,128,35846,1,0,0:0:0:0:
132,200,36002,2,0,L|140:292,1,70,8|0,0:0|2:0,0:0:0:0:
204,336,36315,38,0,P|164:360|68:332,2,140,4|8|0,0:0|0:0|0:0,0:0:0:0:
268,268,37096,1,0,0:0:0:0:
268,268,37252,1,8,0:0:0:0:
216,192,37408,6,0,B|196:120|196:120|212:48,1,140,2|0,0:2|0:0,0:0:0:0:
292,20,37877,2,0,P|339:10|365:21,1,70,8|0,0:0|0:0,0:0:0:0:
415,89,38190,2,0,P|424:136|413:162,1,70,8|0,0:0|0:0,0:0:0:0:
364,232,38502,1,0,0:0:0:0:
364,232,38658,1,0,0:0:0:0:
420,304,38815,6,0,P|376:324|312:304,1,105.000004005432,4|8,0:0|0:0,0:0:0:0:
248,264,39283,1,0,0:0:0:0:
176,316,39440,2,0,P|160:264|176:212,1,105.000004005432,8|0,0:0|0:0,0:0:0:0:
252,176,39908,1,0,0:0:0:0:
328,224,40065,6,0,L|400:220,2,52.5000020027161,2|0|8,0:0|0:0|0:0,0:0:0:0:
248,264,40533,1,0,0:0:0:0:
173,216,40690,2,0,P|160:164|181:104,1,105.000004005432,8|0,0:0|0:0,0:0:0:0:
244,60,41158,1,0,0:0:0:0:
312,120,41315,38,0,P|368:120|432:132,1,105.000004005432,2|8,0:0|0:0,0:0:0:0:
464,204,41783,1,0,0:0:0:0:
404,268,41940,2,0,P|348:268|284:256,1,105.000004005432,8|8,0:0|0:0,0:0:0:0:
248,188,42408,1,0,0:0:0:0:
224,100,42565,6,0,L|228:28,2,52.5000020027161,2|0|8,0:0|0:0|0:0,0:0:0:0:
248,188,43033,1,0,0:0:0:0:
200,264,43190,2,0,P|152:280|100:260,1,105.000004005432,8|8,0:0|0:0,0:0:0:0:
44,196,43658,1,0,0:0:0:0:
84,116,43815,6,0,B|112:88|112:88|175:69,1,105.000004005432,2|8,0:0|0:0,0:0:0:0:
260,98,44283,1,0,0:0:0:0:
219,179,44440,2,0,B|190:206|190:206|127:225,1,105.000004005432,8|8,0:0|0:0,0:0:0:0:
44,196,44908,1,0,0:0:0:0:
84,116,45065,6,0,L|88:40,2,52.5000020027161,2|0|8,0:0|0:0|0:0,0:0:0:0:
44,196,45533,1,0,0:0:0:0:
60,284,45690,2,0,P|100:308|176:304,1,105.000004005432,8|8,0:0|0:0,0:0:0:0:
236,268,46158,1,0,1:0:0:0:
192,188,46315,38,0,P|192:144|212:112,1,70,12|0,0:0|2:0,0:0:0:0:
254,43,46627,2,0,P|222:29|188:32,2,70,8|8|8,0:0|0:0|0:0,0:0:0:0:
332,94,47096,2,0,P|346:62|344:27,2,70,8|8|8,0:0|0:0|0:0,0:0:0:0:
281,172,47565,6,0,P|312:185|347:183,2,70,8|8|8,0:0|0:0|0:0,0:0:0:0:
204,124,48033,1,8,0:0:0:0:
204,124,48190,37,0,2:0:0:0:
124,236,48502,1,0,2:0:0:0:
264,356,48815,6,0,L|272:264,1,70,4|0,0:0|2:0,0:0:0:0:
360,308,49127,2,0,L|353:238,1,70,8|0,0:0|2:0,0:0:0:0:
296,168,49440,1,0,0:0:0:0:
240,96,49596,1,0,0:0:0:0:
192,172,49752,2,0,P|184:216|200:260,1,70,8|0,0:0|2:0,0:0:0:0:
270,286,50065,38,0,B|306:298|306:298|338:286,1,70,2|0,0:2|2:0,0:0:0:0:
412,236,50377,2,0,B|424:200|424:200|412:168,1,70,8|0,0:0|2:0,0:0:0:0:
364,92,50690,1,0,0:0:0:0:
300,156,50846,1,0,0:0:0:0:
252,80,51002,2,0,L|168:88,1,70,8|0,0:0|2:0,0:0:0:0:
104,132,51315,6,0,P|96:164|104:212,1,70,2|0,0:2|2:0,0:0:0:0:
164,264,51627,2,0,P|172:296|164:344,1,70,8|0,0:0|2:0,0:0:0:0:
248,376,51940,1,0,0:0:0:0:
324,324,52096,1,0,0:0:0:0:
408,360,52252,2,0,L|412:276,1,70,8|0,0:0|2:2,0:0:0:0:
456,212,52565,38,0,L|452:128,1,70,2|0,0:2|2:2,0:0:0:0:
368,104,52877,2,0,L|280:112,1,70,8|0,0:0|2:0,0:0:0:0:
240,196,53190,2,0,L|309:189,1,70
384,262,53502,2,0,L|296:270,1,70,8|0,0:0|2:0,0:0:0:0:
224,276,53815,6,0,P|164:228|172:152,1,140,4|8,0:0|0:0,0:0:0:0:
316,112,54440,2,0,P|352:120|392:104,2,70,0|0|8,0:0|0:0|0:0,0:0:0:0:
236,72,54908,38,0,P|272:124|243:199,1,140,4|0,0:0|0:0,0:0:0:0:
162,169,55377,2,0,L|84:172,1,70,8|0,0:0|2:0,0:0:0:0:
44,252,55690,2,0,P|40:283|44:324,1,70
136,320,56002,2,0,P|139:288|135:247,1,70,8|0,0:0|2:0,0:0:0:0:
92,172,56315,6,0,P|96:100|160:68,1,140,4|8,0:0|0:0,0:0:0:0:
224,120,56783,2,0,P|296:128|348:72,1,140
412,28,57252,2,0,P|440:24|492:44,1,70,8|0,0:0|2:0,0:0:0:0:
436,116,57565,38,0,P|428:148|432:212,1,70,4|0,0:0|2:0,0:0:0:0:
472,264,57877,2,0,P|471:298|463:332,1,70,8|0,0:0|0:0,0:0:0:0:
380,372,58190,5,4,0:0:0:0:
264,232,58502,1,8,0:0:0:0:
118,341,58815,6,0,L|110:249,1,70,4|0,0:0|2:0,0:0:0:0:
22,293,59127,2,0,L|29:223,1,70,8|0,0:0|2:0,0:0:0:0:
24,132,59440,1,0,0:0:0:0:
108,100,59596,1,0,0:0:0:0:
164,172,59752,2,0,P|200:184|240:168,1,70,8|0,0:0|2:0,0:0:0:0:
308,124,60065,6,0,B|344:116|344:116|392:128,1,70,2|0,0:2|2:0,0:0:0:0:
436,192,60377,2,0,B|444:228|444:228|432:276,1,70,8|0,0:0|2:0,0:0:0:0:
368,324,60690,1,0,0:0:0:0:
300,264,60846,1,0,0:0:0:0:
232,324,61002,2,0,B|200:336|200:336|152:320,1,70,8|0,0:0|2:0,0:0:0:0:
124,244,61315,38,0,P|120:204|124:172,1,70,2|0,0:2|2:0,0:0:0:0:
216,176,61627,2,8,P|219:210|215:245,1,70,8|0,0:0|2:0,0:0:0:0:
166,324,61940,1,0,0:0:0:0:
88,368,62096,1,0,0:0:0:0:
16,312,62252,2,0,L|8:224,1,70,8|0,0:0|2:0,0:0:0:0:
100,256,62565,6,0,L|108:168,1,70,2|0,0:2|2:0,0:0:0:0:
156,112,62877,2,0,P|209:104|244:123,1,70,8|0,0:0|2:0,0:0:0:0:
250,197,63190,2,0,P|284:202|318:194,1,70
339,104,63502,2,0,P|372:94|406:102,1,70,8|0,0:0|2:0,0:0:0:0:
480,156,63815,38,0,P|440:108|456:32,1,140,4|8,0:0|0:0,0:0:0:0:
260,84,64440,2,0,P|216:88|172:68,2,70,0|0|8,0:0|0:0|0:0,0:0:0:0:
336,40,64908,6,0,P|350:106|308:159,1,140,4|0,0:0|0:0,0:0:0:0:
220,192,65377,2,0,L|142:195,1,70,8|0,0:0|2:0,0:0:0:0:
102,275,65690,2,0,P|98:306|102:347,1,70
194,343,66002,2,0,P|197:311|193:270,1,70,8|0,0:0|2:0,0:0:0:0:
150,194,66315,38,8,P|176:132|140:72,1,140,4|8,0:0|0:0,0:0:0:0:
76,12,66783,2,0,P|136:32|220:-4,1,140
272,72,67252,2,0,L|280:148,1,70,8|0,0:0|2:0,0:0:0:0:
216,208,67565,6,0,P|284:236|344:208,1,140,4|8,0:0|0:0,0:0:0:0:
416,156,68033,1,0,0:0:0:0:
448,240,68190,2,0,L|448:328,1,70,8|0,0:0|0:0,0:0:0:0:
360,332,68502,2,0,P|326:321|292:325,1,70
204,348,68815,38,0,P|168:352|128:336,1,70,12|0,0:0|2:0,0:0:0:0:
176,260,69127,2,0,P|140:251|108:222,1,70,8|0,0:0|2:0,0:0:0:0:
179,167,69440,2,0,P|148:146|128:108,1,70,8|0,0:0|2:0,0:0:0:0:
213,80,69752,2,0,P|191:50|185:8,1,70,8|0,0:0|0:0,0:0:0:0:
299,80,70065,6,0,P|320:50|326:8,1,70,8|0,0:0|2:0,0:0:0:0:
333,167,70377,2,0,P|363:146|383:108,1,70,8|0,0:0|2:0,0:0:0:0:
336,260,70690,2,0,P|371:251|403:222,1,70,8|0,0:0|2:0,0:0:0:0:
308,348,71002,2,0,P|344:352|384:336,1,70,8|0,0:0|0:0,0:0:0:0:
212,284,71315,6,0,P|190:314|184:356,1,70,12|0,0:0|2:0,0:0:0:0:
178,197,71627,2,0,P|147:218|127:256,1,70,8|0,0:0|2:0,0:0:0:0:
175,104,71940,2,0,P|139:113|107:142,1,70,8|0,0:0|2:0,0:0:0:0:
203,16,72252,2,0,P|167:12|127:28,1,70,8|0,0:0|0:0,0:0:0:0:
307,16,72565,6,0,P|343:12|383:28,1,70,8|0,0:0|2:0,0:0:0:0:
335,104,72877,2,0,P|370:113|402:142,1,70,8|0,0:0|2:0,0:0:0:0:
332,197,73190,2,0,P|362:218|382:256,1,70,8|0,0:0|2:0,0:0:0:0:
298,284,73502,2,0,P|319:314|325:356,1,70,8|0,0:0|2:0,0:0:0:0:
158,292,73815,6,0,L|305:283,1,140,8|8,0:0|0:0,0:0:0:0:
378,246,74283,2,0,L|458:230,1,70,8|0,0:0|2:0,0:0:0:0:
469,143,74596,2,0,L|401:157,1,70,8|0,0:0|2:0,0:0:0:0:
345,83,74908,2,0,L|425:67,1,70,2|0,0:2|2:0,0:0:0:0:
268,120,75377,6,0,P|260:64|284:24,2,105.000004005432,2|2|2,2:0|2:0|2:0,2:0:0:0:
148,175,76315,6,0,B|112:167|112:167|68:179,1,70,4|0,0:0|2:0,0:0:0:0:
12,236,76627,2,0,B|4:272|4:272|16:316,1,70,8|0,0:0|0:0,0:0:0:0:
81,363,76940,2,0,L|165:363,1,70
220,304,77252,1,8,0:0:0:0:
288,363,77408,6,0,P|312:299|276:231,1,140,4|0,0:0|0:0,0:0:0:0:
193,219,77877,2,0,L|169:131,1,70,8|0,0:0|2:0,0:0:0:0:
229,78,78190,1,0,0:0:0:0:
229,78,78346,1,0,0:0:0:0:
309,120,78502,2,0,B|346:121|346:121|385:103,1,70,8|0,0:0|2:0,0:0:0:0:
425,38,78815,38,0,P|416:105|462:154,1,140,4|8,0:0|0:0,0:0:0:0:
420,235,79283,2,0,P|416:266|420:307,1,70
512,303,79595,2,0,P|515:271|511:230,1,70,0|8,0:0|0:0,0:0:0:0:
462,154,79908,6,0,B|393:141|393:141|310:170,1,140,4|0,0:0|0:0,0:0:0:0:
248,210,80377,2,0,P|213:215|180:204,1,70,8|0,0:0|2:0,0:0:0:0:
111,144,80690,1,0,0:0:0:0:
111,144,80846,1,0,0:0:0:0:
48,210,81002,2,0,P|40:250|60:298,1,70,8|0,0:0|2:0,0:0:0:0:
130,315,81315,38,0,L|142:383,2,70,4|0|8,0:0|0:0|0:0,0:0:0:0:
219,297,81783,2,0,L|249:360,2,70
248,210,82252,1,8,0:0:0:0:
176,156,82408,6,0,P|232:120|316:148,1,140,4|0,0:0|0:0,0:0:0:0:
360,203,82877,2,0,P|368:239|352:291,1,70,8|0,0:0|2:0,0:0:0:0:
300,338,83190,1,0,0:0:0:0:
300,338,83346,1,0,0:0:0:0:
235,273,83502,2,0,L|155:265,1,70,8|0,0:0|2:0,0:0:0:0:
132,180,83815,38,0,B|179:183|179:183|220:170|220:170|280:174,1,140,4|8,0:0|0:0,0:0:0:0:
348,127,84283,2,0,P|357:96|346:44,1,70
274,17,84596,2,0,P|265:48|276:100,1,70,0|8,0:0|0:0,0:0:0:0:
269,173,84908,6,0,L|414:187,1,140,4|0,0:0|0:0,0:0:0:0:
444,270,85377,2,0,P|452:303|443:337,1,70,8|0,0:0|2:0,0:0:0:0:
359,300,85690,2,0,P|325:291|291:299,1,70,8|0,0:0|0:0,0:0:0:0:
214,348,86002,2,0,P|180:356|147:347,1,70,8|0,0:0|0:0,0:0:0:0:
80,284,86315,37,8,0:0:0:0:
88,191,86471,1,8,0:0:0:0:
88,191,86627,2,0,P|83:148|89:113,1,70,2|0,2:0|2:0,2:0:0:0:
178,123,86940,2,0,P|181:157|176:192,2,70,0|0|0,2:0|2:0|2:0,2:0:0:0:
133,43,87408,5,12,0:0:0:0:
256,192,87565,12,0,89440,0:0:0:0:
