osu file format v14

[General]
AudioFilename: audio.mp3
AudioLeadIn: 0
PreviewTime: 48111
Countdown: 0
SampleSet: Normal
StackLeniency: 0.3
Mode: 0
LetterboxInBreaks: 0
WidescreenStoryboard: 0

[Editor]
DistanceSpacing: 1.2
BeatDivisor: 2
GridSize: 4
TimelineZoom: 1

[Metadata]
Title:Kanadeai
TitleUnicode:カナデアイ
Artist:Itowokashi
ArtistUnicode:イトヲカシ
Creator:Lefia
Version:Easy
Source:双星の陰陽師
Tags:Sousei no onmyouji twin star exorcist opening 4 ito kashitaro KittyAdventure gokugohan12468 byby
BeatmapID:1208256
BeatmapSetID:569992

[Difficulty]
HPDrainRate:3
CircleSize:2.5
OverallDifficulty:2
ApproachRate:3
SliderMultiplier:0.8
SliderTickRate:1

[Events]
//Background and Video events
Video,0,"video.avi"
0,0,"BG.jpg",0,0
//Break Periods
//Storyboard Layer 0 (Background)
//Storyboard Layer 1 (Fail)
//Storyboard Layer 2 (Pass)
//Storyboard Layer 3 (Foreground)
//Storyboard Sound Samples

[TimingPoints]
1315,312.5,4,2,1,40,1,0
6315,-100,4,1,1,60,0,0
18815,-100,4,2,1,55,0,0
27565,-100,4,1,1,60,0,0
38815,-100,4,2,1,55,0,0
46315,-100,4,1,1,60,0,0
46627,-100,4,1,1,65,0,0
47252,-100,4,1,1,70,0,0
47877,-100,4,1,1,75,0,0
48815,-100,4,1,1,70,0,1
58736,-100,4,1,1,70,0,0
58815,-100,4,1,1,70,0,1
68815,-100,4,1,1,70,0,0
76315,-100,4,1,1,60,0,0
88190,-100,4,2,1,50,0,0
88502,-100,4,2,1,40,0,0
88815,-100,4,2,1,30,0,0
89127,-100,4,2,1,15,0,0
89440,-100,4,2,1,5,0,0

[Colours]
Combo1 : 0,255,128
Combo2 : 110,110,110
Combo3 : 192,192,192
Combo4 : 255,43,43

[HitObjects]
28,180,1002,5,0,0:0:0:0:
44,84,1315,6,0,L|136:83,1,80,2|0,0:0|0:0,0:0:0:0:
199,143,1940,2,0,P|223:79|199:23,2,120,2|0|0,0:0|0:0|0:0,0:0:0:0:
117,316,3502,1,0,0:0:0:0:
212,328,3815,38,0,L|300:316,1,80,2|0,0:0|0:0,0:0:0:0:
364,256,4440,2,0,P|388:308|368:372,2,120,2|0|0,0:0|0:0|0:0,0:0:0:0:
176,36,6315,6,0,L|168:176,1,120,4|8,0:0|0:0,0:0:0:0:
76,176,7096,2,0,L|80:292,1,80,8|2,0:0|0:2,0:0:0:0:
196,340,7877,2,0,B|276:372|276:304|360:336,1,160,0|0,2:0|2:0,0:0:0:0:
440,364,8815,38,0,L|444:268,1,80,4|8,0:0|0:0,0:0:0:0:
396,200,9440,2,0,P|448:184|512:216,2,120,0|2|8,0:0|2:0|0:0,0:0:0:0:
344,280,10690,2,0,P|304:284|260:268,1,80,0|8,0:0|0:0,0:0:0:0:
200,204,11315,6,0,P|162:191|122:196,1,80,4|8,0:0|0:0,0:0:0:0:
44,252,11940,2,0,P|24:200|47:134,2,120,0|2|8,0:0|2:0|0:0,0:0:0:0:
124,308,13190,2,0,L|204:340,1,80,0|8,0:0|0:0,0:0:0:0:
296,336,13815,6,0,L|370:306,1,80,4|8,0:0|0:0,0:0:0:0:
432,232,14440,2,0,P|468:292|444:360,2,120,0|2|8,0:0|2:0|0:0,0:0:0:0:
340,200,15690,2,0,L|332:116,1,80,0|8,0:0|1:0,0:0:0:0:
240,144,16315,6,0,L|193:50,1,80,4|8,0:0|1:0,0:0:0:0:
116,32,16940,2,0,B|56:20|56:20|-4:36,2,120,0|2|8,0:0|2:0|0:0,0:0:0:0:
204,72,18190,2,0,B|244:84|244:84|292:72,1,80,8|8,0:0|0:0,0:0:0:0:
372,48,18815,38,0,P|444:72|444:160,1,160,4|2,0:0|0:0,0:0:0:0:
364,316,20065,2,0,B|288:340|288:340|204:316,1,160,2|2,0:0|0:0,0:0:0:0:
44,224,21315,6,0,P|28:164|64:92,1,120,2|2,0:0|0:0,0:0:0:0:
116,44,22096,1,0,0:0:0:0:
192,104,22408,2,0,L|312:108,1,120,2|2,0:0|0:0,0:0:0:0:
316,204,23190,2,0,L|432:204,1,80,0|2,0:0|0:0,0:0:0:0:
468,140,23815,38,0,P|496:212|456:281,1,160,2|2,0:0|0:0,0:0:0:0:
272,336,25065,2,0,B|156:344|156:344|100:320,1,160,2|2,0:0|0:0,0:0:0:0:
32,152,26315,6,0,B|112:144|112:144|180:164,1,120,2|2,0:0|0:0,0:0:0:0:
220,224,27096,1,0,0:0:0:0:
288,156,27408,2,0,B|325:144|325:144|405:152,1,120,2|8,0:0|0:0,0:0:0:0:
500,132,28190,2,0,P|504:168|480:216,1,80,8|8,0:0|0:0,0:0:0:0:
408,264,28815,38,0,B|344:276|344:276|264:256,1,120,4|0,0:0|0:0,0:0:0:0:
200,232,29596,1,0,0:0:0:0:
116,280,29908,2,0,P|108:204|139:159,1,120,4|8,0:0|0:0,0:0:0:0:
216,132,30690,2,0,L|316:132,1,80,0|8,0:0|0:0,0:0:0:0:
376,188,31315,6,0,P|396:128|372:72,1,120,4|0,0:0|0:0,0:0:0:0:
300,20,32096,1,0,0:0:0:0:
208,48,32408,2,0,B|128:48|128:48|72:88,1,120,4|8,0:0|0:0,0:0:0:0:
32,144,33190,2,0,P|24:184|40:236,1,80,0|8,0:0|0:0,0:0:0:0:
104,288,33815,37,4,0:0:0:0:
160,208,34127,2,0,L|272:192,1,80,8|0,0:0|0:0,0:0:0:0:
240,292,34752,2,0,L|353:295,1,80,8|4,0:0|0:0,0:0:0:0:
380,368,35377,2,0,P|420:304|380:220,1,160,8|8,0:0|0:0,0:0:0:0:
300,200,36315,6,0,L|292:100,1,80,4|8,0:0|0:0,0:0:0:0:
232,48,36940,2,0,P|284:24|352:44,2,120,0|2|8,0:0|2:0|0:0,0:0:0:0:
196,136,38190,2,0,B|156:152|156:152|88:144,1,80,8|0,0:0|0:0,0:0:0:0:
24,132,38815,5,4,0:0:0:0:
64,320,39440,1,8,0:0:0:0:
212,196,40065,2,0,L|236:108,2,80,2|0|8,0:0|0:0|0:0,0:0:0:0:
308,364,41315,5,2,0:0:0:0:
416,208,41940,1,8,0:0:0:0:
256,100,42565,2,0,L|248:16,2,80,2|0|8,0:0|0:0|0:0,0:0:0:0:
280,292,43815,5,2,0:0:0:0:
96,344,44440,1,8,0:0:0:0:
60,156,45065,2,0,L|72:60,1,80,2|8,0:0|0:0,0:0:0:0:
156,120,45690,2,0,L|200:33,1,80,0|8,0:0|0:0,0:0:0:0:
284,20,46315,6,0,B|364:28|364:28|424:88,1,160,12|8,0:0|0:0,0:0:0:0:
448,176,47252,1,8,0:0:0:0:
424,268,47565,2,0,P|388:280|324:252,1,80,8|8,0:0|0:0,0:0:0:0:
268,216,48190,1,2,2:0:0:0:
196,280,48502,1,2,2:0:0:0:
100,256,48815,6,0,P|104:216|96:172,1,80,4|8,0:0|0:0,0:0:0:0:
56,88,49440,2,0,P|96:92|140:84,1,80,0|8,0:0|0:0,0:0:0:0:
224,48,50065,2,0,P|220:88|228:132,1,80,2|8,0:2|0:0,0:0:0:0:
268,216,50690,2,0,P|228:212|184:220,1,80,0|8,0:0|0:0,0:0:0:0:
100,260,51315,6,0,P|92:200|116:152,1,80,2|8,2:0|0:0,0:0:0:0:
136,96,51940,1,0,0:0:0:0:
226,127,52252,2,0,B|306:151|306:83|410:127,1,160,8|8,0:0|0:0,0:0:0:0:
462,170,53190,2,0,P|470:206|454:262,1,80,0|8,0:0|0:0,0:0:0:0:
374,290,53815,38,0,P|365:251|374:213,1,80,4|8,0:0|0:0,0:0:0:0:
382,117,54440,1,0,0:0:0:0:
448,48,54752,2,0,P|375:21|306:62,1,160,8|8,0:0|0:0,0:0:0:0:
268,148,55690,2,0,P|261:187|269:226,1,80,0|8,0:0|0:0,0:0:0:0:
320,308,56315,6,0,P|260:324|196:284,2,120,4|0|8,0:0|2:0|0:0,0:0:0:0:
372,228,57565,2,0,P|408:216|472:244,1,80,2|8,2:0|0:0,0:0:0:0:
504,148,58190,1,0,0:0:0:0:
468,60,58502,1,0,0:0:0:0:
372,60,58815,6,0,B|332:52|332:52|284:60,1,80,4|8,0:0|0:0,0:0:0:0:
208,104,59440,2,0,B|169:111|169:111|129:103,1,80,0|8,0:0|0:0,0:0:0:0:
64,172,60065,2,0,B|71:211|71:211|63:251,1,80,2|8,2:0|0:0,0:0:0:0:
132,316,60690,2,0,B|172:308|172:308|211:316,1,80,0|8,0:0|0:0,0:0:0:0:
300,348,61315,6,0,P|360:356|408:332,1,80,2|8,2:0|0:0,0:0:0:0:
460,300,61940,1,0,0:0:0:0:
376,256,62252,2,0,B|336:180|396:180|364:100,1,160,8|8,0:0|0:0,0:0:0:0:
304,28,63190,2,0,P|260:16|200:40,1,80,0|8,0:0|0:0,0:0:0:0:
152,84,63815,38,0,P|144:124|156:161,1,80,4|8,0:0|0:0,0:0:0:0:
204,244,64440,1,0,0:0:0:0:
244,332,64752,2,0,L|280:160,1,160,8|8,0:0|0:0,0:0:0:0:
244,84,65690,2,0,B|284:72|284:72|344:92,1,80,0|8,0:0|0:0,0:0:0:0:
376,164,66315,6,0,P|416:112|408:40,2,120,4|2|8,0:0|2:0|0:0,0:0:0:0:
296,216,67565,2,0,B|218:245|218:177|114:225,1,160,2|8,2:0|0:0,0:0:0:0:
104,128,68502,1,0,0:0:0:0:
164,52,68815,38,0,L|256:52,1,80,12|8,0:0|0:0,0:0:0:0:
308,124,69440,2,0,P|368:148|440:124,2,120,8|0|8,0:0|0:0|0:0,0:0:0:0:
216,144,70690,2,0,L|216:248,1,80,8|8,0:0|0:0,0:0:0:0:
176,312,71315,6,0,P|216:324|260:308,1,80,12|8,0:0|0:0,0:0:0:0:
324,252,71940,2,0,P|352:304|316:384,2,120,8|0|8,0:0|0:0|0:0,0:0:0:0:
284,164,73190,2,0,L|284:76,1,80,8|8,0:0|0:0,0:0:0:0:
196,44,73815,38,0,B|140:28|140:28|68:48,1,120,4|8,0:0|0:0,0:0:0:0:
28,124,74596,2,0,L|28:212,1,80,8|2,0:0|0:2,0:0:0:0:
4,344,75377,2,0,B|84:368|84:308|176:348,1,160,0|0,2:0|2:0,0:0:0:0:
256,356,76315,22,0,L|260:260,1,80,4|8,0:0|0:0,0:0:0:0:
208,192,76940,2,0,P|264:176|320:200,2,120,0|2|8,0:0|2:0|0:0,0:0:0:0:
168,280,78190,2,0,P|128:284|84:268,1,80,0|8,0:0|0:0,0:0:0:0:
48,188,78815,6,0,P|43:149|56:112,1,80,4|8,0:0|0:0,0:0:0:0:
112,32,79440,2,0,P|52:12|1:33,2,120,0|2|8,0:0|2:0|0:0,0:0:0:0:
156,120,80690,2,0,B|196:128|196:128|252:120,1,80,0|8,0:0|0:0,0:0:0:0:
324,84,81315,38,0,B|364:76|364:76|420:84,1,80,4|8,0:0|0:0,0:0:0:0:
460,156,81940,2,0,P|496:96|472:28,2,120,0|2|8,0:0|2:0|0:0,0:0:0:0:
364,172,83190,2,0,L|352:276,1,80,0|8,0:0|1:0,0:0:0:0:
260,228,83815,6,0,L|213:322,1,80,4|8,0:0|1:0,0:0:0:0:
140,348,84440,2,0,B|80:360|80:360|20:344,2,120,0|2|8,0:0|2:0|0:0,0:0:0:0:
224,300,85690,2,0,B|264:288|264:288|312:300,1,80,8|8,0:0|0:0,0:0:0:0:
388,332,86315,37,8,0:0:0:0:
464,276,86627,2,0,B|516:180|432:180|492:68,1,200,0|12,2:0|0:0,0:0:0:0:
256,192,87565,12,0,89440,0:0:0:0:
