osu file format v14

[General]
AudioFilename: audio.mp3
AudioLeadIn: 0
PreviewTime: 49546
Countdown: 0
SampleSet: Normal
StackLeniency: 0.4
Mode: 0
LetterboxInBreaks: 0
WidescreenStoryboard: 1

[Editor]
DistanceSpacing: 1.6
BeatDivisor: 4
GridSize: 4
TimelineZoom: 1.5

[Metadata]
Title:Aoi Honoo (TV Size)
TitleUnicode:蒼い炎 (TV Size)
Artist:Itowokashi
ArtistUnicode:イトヲカシ
Creator:Lefia
Version:Light Insane
Source:ブラッククローバー
Tags:Black Clover ending ed 1 01 anime jpop jrock japanese
BeatmapID:2164074
BeatmapSetID:1035041

[Difficulty]
HPDrainRate:6
CircleSize:3.7
OverallDifficulty:7
ApproachRate:8.5
SliderMultiplier:1.6
SliderTickRate:1

[Events]
//Background and Video events
0,0,"thumb-1920-999241.png",0,0
//Break Periods
//Storyboard Layer 0 (Background)
//Storyboard Layer 1 (Fail)
//Storyboard Layer 2 (Pass)
//Storyboard Layer 3 (Foreground)
//Storyboard Layer 4 (Overlay)
//Storyboard Sound Samples

[TimingPoints]
-1520,441.176470588235,4,1,1,65,1,0
7303,-133.333333333333,4,2,1,55,0,0
21421,-117.647058823529,4,1,1,55,0,0
49656,-100,4,1,1,80,0,1
63663,-100,4,1,1,80,0,0
63774,-100,4,1,1,80,0,1
72617,441.176470588235,4,1,1,60,1,0
72617,-100,4,2,1,60,0,0
74381,-100,4,1,1,80,0,0
93572,-100,4,2,1,5,0,0

[Colours]
Combo1 : 187,255,187
Combo2 : 192,192,192
Combo3 : 255,128,128
Combo4 : 128,128,128

[HitObjects]
62,139,24,5,0,0:0:0:0:
62,139,134,1,0,0:0:0:0:
62,139,244,6,0,P|103:121|144:125,1,80,4|8,0:0|0:0,0:0:0:0:
278,213,686,2,0,P|237:231|196:227,1,80,8|8,0:0|0:0,0:0:0:0:
208,69,1127,2,0,P|226:110|222:151,1,80,8|8,0:0|0:0,0:0:0:0:
132,283,1568,2,0,P|114:242|118:201,1,80,8|8,0:0|0:0,0:0:0:0:
223,144,2009,6,0,P|264:126|305:130,1,80,4|8,0:0|0:0,0:0:0:0:
439,218,2451,2,0,P|398:236|357:232,1,80,8|8,0:0|0:0,0:0:0:0:
369,74,2892,2,0,P|387:115|383:156,1,80,8|8,0:0|0:0,0:0:0:0:
293,288,3333,2,0,P|275:247|279:206,1,80,8|8,0:0|0:0,0:0:0:0:
384,149,3774,5,4,0:0:0:0:
427,313,3994,1,0,0:0:0:0:
412,305,4105,1,0,0:0:0:0:
397,298,4215,1,0,0:0:0:0:
383,289,4325,1,0,0:0:0:0:
372,282,4436,2,0,L|284:288,1,80,8|0,0:0|0:0,0:0:0:0:
136,324,4877,1,8,0:0:0:0:
149,316,4987,1,0,0:0:0:0:
162,307,5097,2,0,L|159:190,1,80,0|8,0:0|0:0,0:0:0:0:
111,73,5539,6,0,P|153:56|210:72,1,80,4|0,0:0|0:0,0:0:0:0:
341,100,5980,1,8,0:0:0:0:
329,97,6090,1,0,0:0:0:0:
317,93,6200,2,0,P|310:134|320:171,1,80
435,283,6642,1,0,0:0:0:0:
275,275,6862,1,8,0:0:0:0:
115,295,7083,1,0,0:0:0:0:
115,295,7193,1,0,0:0:0:0:
115,295,7303,6,0,L|113:169,1,120.000004577637,4|8,0:0|0:0,0:0:0:0:
195,87,7965,1,0,0:0:0:0:
240,199,8186,2,0,P|303:204|354:169,1,120.000004577637,2|8,0:0|0:0,0:0:0:0:
433,90,8847,1,0,0:0:0:0:
433,90,9068,6,0,L|453:170,1,60.0000022888184,2|0,0:0|0:0,0:0:0:0:
460,207,9399,1,2,0:0:0:0:
460,207,9509,2,0,P|429:209|399:227,1,60.0000022888184,0|2,0:0|0:0,0:0:0:0:
301,285,9950,1,8,0:0:0:0:
184,257,10171,2,0,L|175:179,1,60.0000022888184,0|8,0:0|0:0,0:0:0:0:
233,91,10612,1,0,0:0:0:0:
286,197,10832,6,0,L|279:256,1,60.0000022888184,2|0,0:0|0:0,0:0:0:0:
354,350,11274,1,8,0:0:0:0:
450,279,11494,2,0,L|458:203,1,60.0000022888184,2|8,0:0|0:0,0:0:0:0:
491,107,11935,1,2,0:0:0:0:
491,107,12156,1,8,0:0:0:0:
379,77,12377,5,2,0:0:0:0:
379,77,12597,2,0,L|291:89,1,60.0000022888184,8|0,0:0|0:0,0:0:0:0:
204,125,13039,1,8,0:0:0:0:
99,182,13259,2,0,P|84:120|100:68,1,120.000004577637,2|0,0:0|0:0,0:0:0:0:
204,125,13921,1,8,0:0:0:0:
201,245,14142,1,8,0:1:0:0:
99,182,14362,6,0,B|58:197|24:189|24:189|69:225,1,120.000004577637,4|8,0:0|0:0,0:0:0:0:
201,245,15024,1,0,0:0:0:0:
308,192,15244,2,0,P|357:175|414:221,1,120.000004577637,2|8,0:0|0:0,0:0:0:0:
455,94,15906,1,0,0:0:0:0:
455,94,16127,6,0,L|465:11,1,60.0000022888184,2|0,0:0|0:0,0:0:0:0:
402,22,16458,1,2,0:0:0:0:
402,22,16568,2,0,P|372:15|336:24,1,60.0000022888184,0|2,0:0|0:0,0:0:0:0:
307,135,17009,1,8,0:0:0:0:
344,249,17230,2,0,P|315:256|281:251,1,60.0000022888184,0|8,0:0|0:0,0:0:0:0:
193,175,17671,1,0,0:0:0:0:
307,135,17891,6,0,P|336:128|370:133,1,60.0000022888184,2|0,0:0|0:0,0:0:0:0:
447,219,18333,1,8,0:0:0:0:
502,112,18553,2,0,L|502:36,1,60.0000022888184,2|8,0:0|0:0,0:0:0:0:
386,38,18994,1,2,0:0:0:0:
386,38,19215,1,8,0:0:0:0:
315,138,19436,1,2,0:0:0:0:
315,138,19656,5,8,0:0:0:0:
234,227,19877,2,0,L|156:230,1,60.0000022888184,0|8,0:0|0:0,0:0:0:0:
286,322,20318,1,2,0:0:0:0:
358,226,20539,1,8,0:0:0:0:
433,319,20759,1,8,0:1:0:0:
401,147,20980,2,0,L|398:80,1,60.0000022888184,8|0,0:1|0:0,0:0:0:0:
478,197,21421,6,0,P|426:234|354:224,1,136.000002593994,4|8,0:0|0:0,0:0:0:0:
229,135,22083,1,0,0:0:0:0:
216,236,22303,1,0,0:0:0:0:
315,117,22524,1,2,0:2:0:0:
153,176,22744,1,8,0:0:0:0:
283,299,22965,1,2,0:2:0:0:
283,299,23186,6,0,L|370:290,1,68.0000012969971,2|0,0:2|0:0,0:0:0:0:
401,288,23517,1,2,0:2:0:0:
401,288,23627,2,0,P|407:225|396:197,1,68.0000012969971,8|2,0:0|0:2,0:0:0:0:
352,96,24068,1,0,0:0:0:0:
273,193,24289,2,0,L|205:186,1,68.0000012969971,0|8,0:0|0:0,0:0:0:0:
314,295,24730,1,0,0:0:0:0:
357,100,24950,5,2,0:2:0:0:
357,100,25171,2,0,L|365:24,1,68.0000012969971,0|8,0:0|0:0,0:0:0:0:
232,20,25612,1,2,0:2:0:0:
232,20,25833,1,0,0:0:0:0:
159,137,26053,1,2,0:2:0:0:
159,137,26274,1,8,0:0:0:0:
235,248,26494,1,2,0:2:0:0:
235,248,26715,5,0,0:0:0:0:
338,159,26936,2,0,P|380:166|408:201,1,68.0000012969971,0|8,0:0|0:0,0:0:0:0:
235,248,27377,1,2,0:2:0:0:
235,248,27597,2,0,P|242:206|277:178,1,68.0000012969971
345,292,28039,1,8,0:0:0:0:
157,309,28259,1,8,0:0:0:0:
146,309,28369,1,8,0:0:0:0:
135,309,28480,6,0,L|-11:319,1,136.000002593994,4|8,0:0|0:0,0:0:0:0:
95,193,29142,1,2,0:2:0:0:
135,309,29362,1,0,0:0:0:0:
21,229,29583,1,0,0:0:0:0:
161,147,29803,1,8,0:0:0:0:
135,309,30024,1,2,0:2:0:0:
135,309,30244,6,0,P|179:303|220:309,1,68.0000012969971,2|0,0:2|0:0,0:0:0:0:
260,310,30575,1,2,0:2:0:0:
260,310,30686,2,0,P|304:316|345:310,1,68.0000012969971,8|2,0:0|0:2,0:0:0:0:
473,250,31127,1,0,0:0:0:0:
400,143,31347,2,0,P|394:187|400:228,1,68.0000012969971,0|8,0:0|0:0,0:0:0:0:
428,357,31789,1,0,0:0:0:0:
477,256,32009,5,2,0:2:0:0:
477,256,32230,2,0,P|483:212|477:171,1,68.0000012969971,0|8,0:0|0:0,0:0:0:0:
454,59,32671,1,2,0:2:0:0:
454,59,32892,1,0,0:0:0:0:
406,188,33112,1,2,0:2:0:0:
406,188,33333,1,8,0:0:0:0:
512,119,33553,1,2,2:0:0:0:
512,119,33774,5,4,0:0:0:0:
377,105,33994,2,0,P|334:112|291:104,1,68.0000012969971,0|8,0:0|0:0,0:0:0:0:
178,51,34436,2,0,P|185:94|177:137,1,68.0000012969971,8|0,0:0|0:0,0:0:0:0:
89,226,34877,1,0,0:0:0:0:
205,308,35097,1,8,0:0:0:0:
346,284,35318,1,0,0:0:0:0:
359,285,35428,1,0,0:0:0:0:
372,286,35539,6,0,L|388:130,1,136.000002593994,4|0,0:0|0:0,0:0:0:0:
329,42,36200,1,8,0:0:0:0:
263,145,36421,2,0,P|227:150|184:145,1,68.0000012969971
84,94,36862,1,8,0:0:0:0:
38,208,37083,1,0,0:0:0:0:
38,208,37303,5,2,0:2:0:0:
116,302,37524,2,0,P|162:290|197:301,1,68.0000012969971
349,331,37965,1,8,0:0:0:0:
289,164,38186,2,0,P|293:196|282:246,1,68.0000012969971,2|0,0:2|0:0,0:0:0:0:
181,293,38627,1,8,0:0:0:0:
103,198,38847,1,0,0:0:0:0:
52,341,39068,6,0,L|31:255,1,68.0000012969971,4|0,0:0|0:0,0:0:0:0:
24,226,39399,1,0,0:0:0:0:
24,226,39509,1,0,0:0:0:0:
173,154,39730,1,8,0:0:0:0:
124,277,39950,2,0,P|165:289|219:282,1,68.0000012969971
365,234,40392,1,8,0:0:0:0:
261,169,40612,1,0,0:0:0:0:
278,290,40833,6,0,P|332:334|405:333,1,136.000002593994,2|0,0:2|0:0,0:0:0:0:
479,246,41494,2,0,L|488:169,1,68.0000012969971,8|0,0:0|0:0,0:0:0:0:
365,234,41936,1,0,0:0:0:0:
261,169,42156,1,8,0:0:0:0:
278,290,42377,1,0,0:0:0:0:
251,154,42597,6,0,L|157:149,1,68.0000012969971,4|0,0:0|0:0,0:0:0:0:
148,32,43039,1,0,0:0:0:0:
297,57,43259,2,0,P|339:93|355:183,1,136.000002593994,8|0,0:0|0:0,0:0:0:0:
342,290,43921,1,8,0:0:0:0:
342,290,44142,1,0,0:0:0:0:
240,221,44362,5,2,0:2:0:0:
240,221,44583,2,0,L|255:123,1,68.0000012969971
385,106,45024,1,8,0:0:0:0:
351,223,45244,1,0,0:0:0:0:
351,223,45355,1,0,0:0:0:0:
351,223,45465,2,0,L|336:313,1,68.0000012969971,0|8,0:0|0:0,0:0:0:0:
225,334,45906,1,0,0:0:0:0:
130,255,46127,6,0,B|70:248|26:260|26:260|73:281,1,136.000002593994,4|8,0:0|0:0,0:0:0:0:
240,338,46789,1,8,0:0:0:0:
393,256,47009,1,8,0:0:0:0:
218,255,47230,1,8,0:0:0:0:
371,339,47450,1,8,0:0:0:0:
307,154,47671,6,0,L|307:316,1,136.000002593994,4|0,0:0|0:0,0:0:0:0:
392,119,48333,1,8,0:0:0:0:
218,119,48553,2,0,L|218:281,1,136.000002593994,4|0,0:0|0:0,0:0:0:0:
371,339,49215,5,8,0:0:0:0:
386,320,49325,1,0,0:0:0:0:
395,297,49436,1,0,0:0:0:0:
404,275,49546,1,0,0:0:0:0:
408,247,49656,6,0,L|408:162,1,80,4|0,0:0|0:0,0:0:0:0:
262,99,50097,1,8,0:0:0:0:
309,252,50318,2,0,P|342:323|416:351,1,160,2|0,0:2|0:0,0:0:0:0:
488,208,50980,1,8,0:0:0:0:
308,172,51200,1,0,0:0:0:0:
308,172,51421,6,0,L|309:275,1,80,2|0,0:2|0:0,0:0:0:0:
197,339,51862,1,8,0:0:0:0:
65,230,52083,2,0,P|60:270|65:313,1,80,2|0,0:2|0:0,0:0:0:0:
177,196,52524,1,0,0:0:0:0:
98,112,52744,2,0,P|36:106|-12:118,1,80,8|0,0:0|0:0,0:0:0:0:
177,196,53186,6,0,P|216:199|256:192,1,80,2|0,0:2|0:0,0:0:0:0:
392,107,53627,1,8,0:0:0:0:
249,32,53847,2,0,L|256:204,1,160,2|0,0:2|0:0,0:0:0:0:
297,346,54509,1,8,0:0:0:0:
333,190,54730,1,0,0:0:0:0:
333,190,54950,6,0,P|282:184|234:204,1,80,2|0,0:2|0:0,0:0:0:0:
143,307,55392,1,8,0:0:0:0:
298,345,55612,2,0,P|304:294|284:246,1,80,2|0,0:2|0:0,0:0:0:0:
165,216,56053,1,0,0:0:0:0:
298,345,56274,1,8,0:0:0:0:
333,190,56494,1,0,0:0:0:0:
333,190,56605,1,0,0:0:0:0:
333,190,56715,6,0,P|339:139|319:91,1,80,4|0,0:0|0:0,0:0:0:0:
277,41,57046,1,0,0:0:0:0:
277,41,57156,2,0,P|226:35|178:55,1,80,8|0,0:0|0:0,0:0:0:0:
123,89,57487,2,0,L|69:94,1,40,2|0,0:2|0:0,0:0:0:0:
88,261,57818,2,0,P|131:252|181:265,1,80,8|8,0:0|0:0,0:0:0:0:
337,300,58259,1,0,0:0:0:0:
337,300,58369,1,0,0:0:0:0:
337,300,58480,6,0,P|294:309|244:296,1,80,2|0,0:2|0:0,0:0:0:0:
293,221,58811,1,0,0:0:0:0:
293,221,58921,2,0,L|292:138,1,80,8|0,0:0|0:0,0:0:0:0:
291,52,59252,2,0,L|289:5,1,40,2|0,0:2|0:0,0:0:0:0:
456,36,59583,1,8,0:0:0:0:
456,36,59803,2,0,P|384:54|345:48,1,80,8|0,0:0|0:0,0:0:0:0:
214,34,60244,6,0,P|286:52|325:46,1,80,4|0,0:0|2:0,0:0:0:0:
379,53,60575,2,0,P|364:116|363:144,1,80,8|0,0:0|2:0,0:0:0:0:
365,215,60906,1,2,0:2:0:0:
234,321,61127,6,0,P|162:303|123:309,1,80,4|0,0:0|2:0,0:0:0:0:
69,302,61458,2,0,P|84:239|85:211,1,80,8|0,0:0|2:0,0:0:0:0:
83,140,61789,1,2,0:2:0:0:
229,56,62009,6,0,P|276:54|328:87,1,80,4|0,0:0|0:0,0:0:0:0:
348,139,62340,2,0,P|395:141|447:108,1,80,8|0,0:0|0:0,0:0:0:0:
497,84,62671,2,0,P|507:124|500:167,1,80,8|8,0:0|0:0,0:0:0:0:
404,299,63112,1,0,0:0:0:0:
348,139,63333,1,8,0:0:0:0:
476,250,63553,1,0,0:0:0:0:
335,249,63774,6,0,P|295:241|250:246,1,80,4|0,0:0|0:0,0:0:0:0:
134,348,64215,1,8,0:0:0:0:
293,330,64436,2,0,P|393:319|422:244,1,160,2|0,0:2|0:0,0:0:0:0:
488,130,65097,1,8,0:0:0:0:
364,219,65318,1,0,0:0:0:0:
364,219,65539,6,0,B|378:261|446:287|446:286,1,80,2|0,0:2|0:0,0:0:0:0:
327,142,65980,1,8,0:0:0:0:
327,142,66200,2,0,B|312:99|244:73|244:74,1,80,2|0,0:2|0:0,0:0:0:0:
118,138,66642,1,0,0:0:0:0:
220,260,66862,2,0,B|239:219|209:153|209:154,1,80,8|0,0:0|0:0,0:0:0:0:
16,182,67303,6,0,B|-3:220|17:258,1,80,2|0,0:2|0:0,0:0:0:0:
220,260,67744,2,0,B|259:280|299:260,1,80,8|2,0:0|0:2,0:0:0:0:
254,107,68186,1,0,0:0:0:0:
133,219,68406,2,0,B|113:257|133:297,1,80,0|8,0:0|0:0,0:0:0:0:
296,260,68847,1,0,0:0:0:0:
296,260,69068,6,0,L|294:171,1,80,2|0,0:2|0:0,0:0:0:0:
162,87,69509,1,8,0:0:0:0:
116,220,69730,2,0,P|157:231|203:218,1,80,2|0,0:2|0:0,0:0:0:0:
292,100,70171,2,0,L|294:195,1,80,0|8,0:0|0:0,0:0:0:0:
342,332,70612,1,0,0:0:0:0:
338,323,70722,1,0,0:0:0:0:
332,312,70833,6,0,P|292:301|246:316,1,80,4|8,0:0|0:0,0:0:0:0:
97,339,71274,2,0,L|98:250,1,80,8|0,0:0|0:0,0:0:0:0:
37,205,71605,2,0,P|95:176|154:198,1,120,8|0,0:0|0:0,0:0:0:0:
255,310,72156,2,0,L|261:214,1,80,8|0,0:0|0:0,0:0:0:0:
230,64,72617,5,4,0:0:0:0:
230,64,72838,2,0,P|270:56|314:73,1,80,0|2,0:0|0:0,0:0:0:0:
434,177,73279,2,0,L|350:186,1,80,0|2,0:0|0:0,0:0:0:0:
381,19,73720,1,0,0:0:0:0:
434,177,73941,2,0,P|448:210|445:256,1,80,8|0,0:1|0:0,0:0:0:0:
299,334,74382,6,0,P|364:332|407:357,1,80,4|0,0:0|0:0,0:0:0:0:
211,365,74823,1,0,0:0:0:0:
226,197,75044,2,0,L|231:282,1,80,8|0,0:0|0:0,0:0:0:0:
163,122,75485,2,0,P|197:100|241:97,1,80,0|8,0:0|0:0,0:0:0:0:
389,163,75926,1,0,0:0:0:0:
226,197,76147,6,0,L|311:190,1,80,2|0,0:2|0:0,0:0:0:0:
189,278,76588,1,0,0:0:0:0:
100,142,76809,2,0,P|134:182|138:229,1,80,8|0,0:0|0:0,0:0:0:0:
24,298,77250,2,0,L|111:286,1,80,0|8,0:0|0:0,0:0:0:0:
271,292,77691,1,0,0:0:0:0:
230,128,77912,6,0,L|230:207,1,80,4|0,0:0|0:0,0:0:0:0:
304,56,78353,1,0,0:0:0:0:
152,129,78573,2,0,P|203:136|241:121,1,80,8|0,0:0|0:0,0:0:0:0:
391,82,79014,1,0,0:0:0:0:
391,82,79235,2,0,L|391:172,1,80,8|0,0:0|0:0,0:0:0:0:
386,341,79676,6,0,P|324:326|287:335,1,80,2|0,0:2|0:0,0:0:0:0:
476,283,80117,1,0,0:0:0:0:
391,162,80338,2,0,L|390:262,1,80,8|0,0:0|0:0,0:0:0:0:
474,96,80779,1,0,0:0:0:0:
305,96,81000,2,0,L|305:194,1,80,8|0,0:0|0:0,0:0:0:0:
177,286,81441,6,0,L|274:262,1,80,12|8,0:0|0:0,0:0:0:0:
80,207,81882,2,0,L|179:200,1,80,8|8,0:0|0:0,0:0:0:0:
1,107,82323,2,0,L|100:117,1,80,8|8,0:0|0:0,0:0:0:0:
230,58,82764,1,8,0:0:0:0:
159,201,82985,1,8,0:0:0:0:
321,156,83206,6,0,L|312:52,1,80,12|8,0:0|0:0,0:0:0:0:
399,248,83647,2,0,L|408:144,1,80,8|8,0:0|0:0,0:0:0:0:
467,350,84088,2,0,L|494:249,1,80,8|8,0:0|0:0,0:0:0:0:
487,104,84529,1,8,0:0:0:0:
399,248,84750,1,8,0:0:0:0:
358,85,84970,5,4,0:0:0:0:
337,98,85081,1,0,0:0:0:0:
315,108,85191,1,0,0:0:0:0:
294,120,85300,1,0,0:0:0:0:
272,130,85412,1,0,0:0:0:0:
250,140,85522,1,0,0:0:0:0:
227,149,85632,6,0,L|116:156,1,80,8|0,0:0|0:0,0:0:0:0:
319,253,86073,2,0,L|398:247,1,80,8|0,0:0|0:0,0:0:0:0:
240,303,86514,1,4,0:0:0:0:
256,192,86734,12,0,93572,0:0:0:0:
