osu file format v14

[General]
AudioFilename: audio.mp3
AudioLeadIn: 0
PreviewTime: 49546
Countdown: 0
SampleSet: Normal
StackLeniency: 0.3
Mode: 0
LetterboxInBreaks: 0
WidescreenStoryboard: 1

[Editor]
DistanceSpacing: 1.5
BeatDivisor: 4
GridSize: 4
TimelineZoom: 1.4

[Metadata]
Title:Aoi Honoo (TV Size)
TitleUnicode:蒼い炎 (TV Size)
Artist:Itowokashi
ArtistUnicode:イトヲカシ
Creator:Lefia
Version:Normal
Source:ブラッククローバー
Tags:Black Clover ending ed 1 01 anime jpop jrock japanese
BeatmapID:2164637
BeatmapSetID:1035041

[Difficulty]
HPDrainRate:3
CircleSize:3
OverallDifficulty:4
ApproachRate:5
SliderMultiplier:1.2
SliderTickRate:1

[Events]
//Background and Video events
0,0,"thumb-1920-999241.png",0,0
//Break Periods
//Storyboard Layer 0 (Background)
//Storyboard Layer 1 (Fail)
//Storyboard Layer 2 (Pass)
//Storyboard Layer 3 (Foreground)
//Storyboard Layer 4 (Overlay)
//Storyboard Sound Samples

[TimingPoints]
-1520,441.176470588235,4,1,1,65,1,0
7303,-100,4,2,1,55,0,0
21421,-100,4,1,1,55,0,0
49656,-100,4,1,1,80,0,1
63663,-100,4,1,1,80,0,0
63774,-100,4,1,1,80,0,1
72617,441.176470588235,4,1,1,80,1,0
72617,-100,4,1,1,80,0,0
93572,-100,4,1,1,5,0,0

[Colours]
Combo1 : 187,255,187
Combo2 : 192,192,192
Combo3 : 255,128,128
Combo4 : 128,128,128

[HitObjects]
60,319,244,6,0,L|52:251,1,60,4|8,0:0|0:0,0:0:0:0:
116,195,686,2,0,L|108:127,1,60,0|8,0:0|0:0,0:0:0:0:
42,74,1127,2,0,P|96:40|152:52,1,120,0|8,0:0|0:0,0:0:0:0:
207,219,2009,2,0,L|281:215,1,60,4|8,0:0|0:0,0:0:0:0:
332,277,2450,2,0,L|406:273,1,60,0|8,0:0|0:0,0:0:0:0:
468,322,2892,2,0,B|499:274|468:226|468:226|462:185,1,120,0|8,0:0|0:0,0:0:0:0:
389,45,3774,6,0,P|318:38|258:83,1,120,4|8,0:0|0:0,0:0:0:0:
207,117,4436,2,0,P|160:157|84:149,2,120,8|8|8,0:0|0:0|0:0,0:0:0:0:
276,61,5539,2,0,P|330:36|388:45,1,120,4|0,0:0|0:0,0:0:0:0:
462,95,6200,2,0,L|475:221,1,120,8|0,0:0|0:0,0:0:0:0:
399,263,6862,2,0,P|369:260|337:276,1,60,8|0,0:0|0:0,0:0:0:0:
269,324,7303,5,4,0:0:0:0:
93,287,7744,2,0,L|76:211,1,60,8|0,0:0|0:0,0:0:0:0:
29,153,8186,2,0,P|92:173|141:145,1,120,2|8,0:0|0:0,0:0:0:0:
228,131,8847,1,0,0:0:0:0:
228,131,9068,2,0,L|219:235,2,90,2|2|2,0:0|0:0|0:0,0:0:0:0:
360,6,10171,2,0,P|382:43|364:122,1,120
309,182,10833,6,0,P|255:207|197:196,1,120,2|8,0:0|0:0,0:0:0:0:
135,132,11494,2,0,L|-2:129,1,120,2|0,0:0|0:0,0:0:0:0:
9,312,12377,2,0,P|72:274|120:290,1,120,2|0,0:0|0:0,0:0:0:0:
191,332,13039,1,8,0:0:0:0:
191,332,13259,2,0,P|199:269|155:210,1,120,2|0,0:0|0:0,0:0:0:0:
109,156,13921,1,8,0:0:0:0:
234,27,14362,6,0,L|256:158,1,120,4|8,0:0|0:0,0:0:0:0:
272,233,15024,1,0,0:0:0:0:
272,233,15244,2,0,P|215:257|158:237,1,120,2|8,0:0|0:0,0:0:0:0:
74,219,15906,1,0,0:0:0:0:
74,219,16127,2,0,L|81:311,2,90,2|2|2,0:0|0:0|0:0,0:0:0:0:
35,42,17230,2,0,P|93:36|140:71,1,120
119,159,17892,6,0,L|237:148,1,120,2|8,0:0|0:0,0:0:0:0:
290,74,18553,2,0,P|322:115|310:198,1,120,2|0,0:0|0:0,0:0:0:0:
231,337,19436,2,0,P|273:312|349:316,1,120,2|0,0:0|0:0,0:0:0:0:
436,330,20097,1,8,0:0:0:0:
436,330,20318,2,0,L|414:197,1,120,2|0,0:0|1:0,0:0:0:0:
334,174,20980,2,0,L|320:101,1,60,8|0,1:0|0:0,0:0:0:0:
296,29,21421,5,4,0:0:0:0:
117,52,21862,2,0,P|111:92|93:124,1,60,8|0,0:0|2:0,0:0:0:0:
25,156,22303,2,0,P|71:192|130:191,1,120,0|8,0:0|0:0,0:0:0:0:
218,226,22965,1,0,0:0:0:0:
218,226,23186,2,0,P|224:181|209:139,2,90,2|2|2,0:2|2:0|0:2,0:0:0:0:
369,324,24289,2,0,B|437:302|437:302|500:311,1,120
501,220,24950,6,0,P|507:160|473:113,1,120,2|8,0:2|0:0,0:0:0:0:
420,186,25612,2,0,L|290:227,1,120,2|0,0:2|0:0,0:0:0:0:
137,287,26494,2,0,P|116:217|138:167,1,120,2|0,0:2|0:0,0:0:0:0:
197,113,27156,1,8,0:0:0:0:
197,113,27377,2,0,L|328:155,1,120,2|0,0:2|0:0,0:0:0:0:
340,235,28039,2,0,L|419:265,1,60,8|0,0:0|0:0,0:0:0:0:
463,316,28480,5,12,0:0:0:0:
432,138,28921,2,0,P|394:130|366:109,1,60,8|0,0:0|2:0,0:0:0:0:
312,54,29362,2,0,P|228:38|187:75,1,120,0|8,0:0|0:0,0:0:0:0:
122,89,30024,1,0,0:0:0:0:
122,89,30244,2,0,L|113:-8,2,90,2|2|2,0:2|2:0|0:2,0:0:0:0:
253,304,31347,2,0,P|313:297|353:248,1,120
362,166,32009,6,0,L|351:40,1,120,2|8,0:2|0:0,0:0:0:0:
266,77,32671,1,2,0:2:0:0:
266,77,32892,2,0,P|200:102|138:73,1,120,0|8,0:0|0:0,0:0:0:0:
81,36,33553,1,2,0:2:0:0:
81,36,33774,2,0,P|65:86|96:156,1,120,4|0,0:0|0:0,0:0:0:0:
168,186,34436,2,0,P|227:191|305:159,1,120,8|0,0:0|0:0,0:0:0:0:
361,127,35097,1,8,0:0:0:0:
196,52,35539,6,0,L|125:53,1,60,4|0,0:0|2:0,0:0:0:0:
48,31,35980,1,0,0:0:0:0:
48,31,36200,2,0,P|48:79|97:135,1,120,8|0,0:0|0:0,0:0:0:0:
182,138,36862,1,8,0:0:0:0:
182,138,37083,2,0,L|315:136,1,120
371,78,37744,1,0,0:0:0:0:
371,78,37965,1,8,0:0:0:0:
391,262,38406,1,0,0:0:0:0:
391,262,38627,2,0,P|352:270|322:267,1,60,8|0,0:0|0:0,0:0:0:0:
246,240,39068,6,0,P|203:230|144:247,2,90,4|0|8,0:0|0:0|0:0,0:0:0:0:
201,318,39950,2,0,P|137:326|81:282,1,120,0|8,0:0|0:0,0:0:0:0:
79,208,40612,1,0,0:0:0:0:
79,208,40833,2,0,L|83:71,1,120,2|0,0:2|0:0,0:0:0:0:
156,37,41494,1,8,0:0:0:0:
324,101,41936,2,0,L|333:30,2,60,0|8|0,0:0|0:0|0:0,0:0:0:0:
370,177,42597,6,0,P|296:185|244:144,1,120,4|0,0:0|0:0,0:0:0:0:
187,107,43259,2,0,P|133:81|76:93,1,120,8|0,0:0|0:0,0:0:0:0:
123,169,43921,2,0,L|118:240,1,60,8|0,0:0|0:0,0:0:0:0:
76,308,44362,1,2,0:2:0:0:
76,308,44583,2,0,P|126:318|190:283,2,120,0|8|0,0:0|0:0|0:0,0:0:0:0:
118,228,45686,1,8,0:0:0:0:
204,70,46127,6,0,P|269:52|323:79,1,120,4|0,0:0|0:0,0:0:0:0:
375,138,46789,2,0,L|399:199,1,60,8|0,0:0|2:0,0:0:0:0:
318,237,47229,2,0,L|326:305,1,60,8|0,0:0|2:0,0:0:0:0:
236,281,47671,2,0,P|185:259|115:278,1,120,4|0,0:0|0:0,0:0:0:0:
46,238,48333,1,8,0:0:0:0:
46,238,48553,2,0,L|35:157,1,60,4|0,0:0|0:0,0:0:0:0:
44,88,48994,1,0,0:0:0:0:
44,88,49215,1,8,0:0:0:0:
221,55,49656,6,0,L|217:130,1,60,4|0,0:0|0:0,0:0:0:0:
173,193,50097,1,8,0:0:0:0:
173,193,50318,2,0,P|233:204|287:171,1,120
347,113,50980,2,0,P|389:108|424:106,1,60,8|0,0:0|0:0,0:0:0:0:
466,39,51421,2,0,P|490:71|473:166,1,120,2|8,0:2|0:0,0:0:0:0:
428,217,52083,2,0,P|398:268|408:330,1,120
485,284,52744,1,8,0:0:0:0:
304,282,53186,6,0,L|225:279,1,60,2|0,0:2|0:0,0:0:0:0:
161,315,53627,1,8,0:0:0:0:
161,315,53847,2,0,P|157:254|200:201,1,120
252,143,54509,2,0,P|267:102|264:68,1,60,8|0,0:0|0:0,0:0:0:0:
176,91,54950,2,0,L|54:94,1,120,2|8,0:2|0:0,0:0:0:0:
50,183,55612,2,0,L|183:180,1,120
252,143,56274,1,8,0:0:0:0:
423,89,56715,6,0,P|440:149|409:213,1,120,4|8,0:0|0:0,0:0:0:0:
368,274,57377,1,0,0:0:0:0:
368,274,57597,2,0,L|360:333,2,60,0|0|8,0:0|0:0|0:0,0:0:0:0:
300,214,58259,1,0,0:0:0:0:
300,214,58480,2,0,P|256:200|179:227,1,120,2|8,0:2|0:0,0:0:0:0:
122,282,59142,1,0,0:0:0:0:
122,282,59362,1,0,0:0:0:0:
191,129,59803,1,0,0:0:0:0:
191,129,60024,1,0,0:0:0:0:
191,129,60244,6,0,P|220:85|218:39,2,90,4|0|0,0:0|0:0|0:0,0:0:0:0:
187,220,61127,2,0,P|232:211|269:180,2,90,4|0|0,0:0|0:0|0:0,0:0:0:0:
111,171,62009,2,0,P|103:109|138:58,1,120,4|8,0:0|0:0,0:0:0:0:
226,53,62671,1,0,0:0:0:0:
226,53,62892,2,0,L|356:51,1,120,0|8,0:0|0:0,0:0:0:0:
414,217,63774,5,4,0:0:0:0:
414,217,63994,2,0,P|373:229|333:218,1,60,0|8,0:0|0:0,0:0:0:0:
294,160,64436,2,0,P|266:219|280:278,1,120
187,286,65097,2,0,P|157:285|129:296,1,60,8|0,0:0|0:0,0:0:0:0:
54,356,65539,2,0,P|34:295|52:241,1,120,2|8,0:2|0:0,0:0:0:0:
100,169,66200,2,0,P|129:118|119:60,1,120
39,102,66862,1,8,0:0:0:0:
218,96,67303,6,0,L|290:86,1,60,2|0,0:2|0:0,0:0:0:0:
350,35,67744,1,8,0:0:0:0:
350,35,67965,2,0,P|367:80|346:146,1,120
275,202,68627,2,0,L|262:276,1,60,8|0,0:0|0:0,0:0:0:0:
191,313,69068,2,0,P|240:348|313:335,1,120,2|8,0:2|0:0,0:0:0:0:
352,272,69730,2,0,P|410:268|458:302,1,120
384,355,70392,1,8,0:0:0:0:
384,175,70833,6,0,L|378:50,1,120,4|8,0:0|0:0,0:0:0:0:
292,58,71494,1,0,0:0:0:0:
292,58,71715,2,0,L|281:-10,2,60,8|0|0,0:0|0:0|0:0,0:0:0:0:
201,59,72377,1,0,0:0:0:0:
120,99,72617,1,2,0:2:0:0:
143,320,73719,1,0,0:0:0:0:
143,320,73940,2,0,L|221:306,1,60,8|0,0:0|0:0,0:0:0:0:
280,353,74381,6,0,P|289:284|257:235,1,120,4|0,0:0|0:0,0:0:0:0:
176,223,75043,1,8,0:0:0:0:
176,223,75263,2,0,L|50:244,1,120,0|8,0:0|0:0,0:0:0:0:
153,89,76146,2,0,P|208:75|265:115,1,120,2|0,0:2|0:0,0:0:0:0:
294,189,76808,1,8,0:0:0:0:
294,189,77028,2,0,P|343:219|400:206,1,120,0|8,0:0|0:0,0:0:0:0:
258,315,77911,6,0,L|130:325,1,120,2|0,0:2|0:0,0:0:0:0:
62,276,78572,2,0,L|53:195,1,60,8|0,0:0|0:0,0:0:0:0:
136,171,79013,1,0,0:0:0:0:
136,171,79234,2,0,L|127:90,1,60,8|0,0:0|0:0,0:0:0:0:
77,37,79675,2,0,P|148:21|192:50,1,120,2|0,0:2|0:0,0:0:0:0:
248,107,80337,2,0,P|301:131|357:113,1,120,8|0,0:0|0:0,0:0:0:0:
396,194,80999,2,0,P|391:223|403:271,1,60,8|0,0:0|0:0,0:0:0:0:
337,322,81440,6,0,L|276:346,1,60,4|8,0:0|0:0,0:0:0:0:
238,265,81882,2,0,L|170:273,1,60,0|8,0:0|0:0,0:0:0:0:
122,343,82323,2,0,P|88:289|100:233,1,120,0|8,0:0|0:0,0:0:0:0:
171,184,82984,1,0,0:0:0:0:
171,184,83205,2,0,L|230:176,1,60,4|8,0:0|0:0,0:0:0:0:
238,265,83646,2,0,L|297:272,1,60,0|8,0:0|0:0,0:0:0:0:
372,323,84088,2,0,P|387:258|355:203,1,120,0|8,0:0|0:0,0:0:0:0:
296,144,84749,1,0,0:0:0:0:
296,144,84970,6,0,P|225:137|165:182,1,120,4|8,0:0|0:0,0:0:0:0:
246,223,85631,2,0,L|250:302,1,60,2|0,0:2|0:0,0:0:0:0:
339,286,86072,2,0,L|345:356,1,60,2|0,0:2|0:0,0:0:0:0:
431,366,86513,1,4,0:0:0:0:
256,192,86734,12,0,93572,2:2:0:0:
