osu file format v14

[General]
AudioFilename: audio.mp3
AudioLeadIn: 0
PreviewTime: 120265
Countdown: 0
SampleSet: Normal
StackLeniency: 0.7
Mode: 1
LetterboxInBreaks: 0
WidescreenStoryboard: 0

[Editor]
Bookmarks: 22259,43984,65708,89156,111915,121570,143294,165708,187087,211225,233294,254328,277432,321570,332604
DistanceSpacing: 2
BeatDivisor: 8
GridSize: 32
TimelineZoom: 3.1

[Metadata]
Title:Hacking to the Gate (kmsn_DnB_remix)
TitleUnicode:Hacking to the Gate (kmsn_DnB_remix)
Artist:Itou Kanako
ArtistUnicode:いとうかなこ
Creator:KuroKuroKuro
Version:Observer
Source:STEINS;GATE
Tags:Steins Gate 5pb. Nitroplus nitro+ ニトロプラス シュタインズ ゲート kamome sano op opening theme VECTOR 志倉千代丸 Shikura Chiyomaru 磯江俊道 Isoe Toshimichi Anime J-POP JPOP リミックス Japanese
BeatmapID:2427610
BeatmapSetID:1163693

[Difficulty]
HPDrainRate:4
CircleSize:5
OverallDifficulty:6
ApproachRate:5
SliderMultiplier:1.4
SliderTickRate:1

[Events]
//Background and Video events
0,0,"BG.jpg",0,55
//Break Periods
//Storyboard Layer 0 (Background)
//Storyboard Layer 1 (Fail)
//Storyboard Layer 2 (Pass)
//Storyboard Layer 3 (Foreground)
//Storyboard Layer 4 (Overlay)
//Storyboard Sound Samples

[TimingPoints]
7,344.827586206897,4,1,0,80,1,0
22032,-100,4,1,0,80,0,0
41343,-90.9090909090909,4,1,0,80,0,0
41688,-83.3333333333333,4,1,0,80,0,0
42032,-76.9230769230769,4,1,0,80,0,0
42377,-71.4285714285714,4,1,0,80,0,0
42722,-66.6666666666667,4,1,0,80,0,0
43757,-100,4,1,0,80,0,0
88929,-76.9230769230769,4,1,0,85,0,0
88972,-76.9230769230769,4,1,0,85,0,1
110136,-76.9230769230769,4,1,0,80,0,1
110179,-76.9230769230769,4,1,0,80,0,0
111688,-100,4,1,0,80,0,0
115998,-99.009900990099,4,1,0,80,0,0
116084,-98.0392156862745,4,1,0,80,0,0
116170,-97.0873786407767,4,1,0,80,0,0
116343,-96.1538461538461,4,1,0,80,0,0
116515,-95.2380952380952,4,1,0,80,0,0
116688,-94.3396226415094,4,1,0,80,0,0
116774,-93.4579439252336,4,1,0,80,0,0
116860,-92.5925925925926,4,1,0,80,0,0
117032,-91.743119266055,4,1,0,80,0,0
117205,-90.9090909090909,4,1,0,80,0,0
117377,-90.0900900900901,4,1,0,80,0,0
117463,-89.2857142857143,4,1,0,80,0,0
117550,-88.4955752212389,4,1,0,80,0,0
117722,-87.719298245614,4,1,0,80,0,0
117894,-86.9565217391304,4,1,0,80,0,0
118067,-86.2068965517241,4,1,0,80,0,0
118153,-85.4700854700855,4,1,0,80,0,0
118239,-84.7457627118644,4,1,0,80,0,0
118412,-84.0336134453781,4,1,0,80,0,0
118584,-83.3333333333333,4,1,0,80,0,0
118670,-82.6446280991736,4,1,0,80,0,0
118757,-81.9672131147541,4,1,0,80,0,0
118843,-81.3008130081301,4,1,0,80,0,0
118929,-80.6451612903226,4,1,0,80,0,0
119015,-80,4,1,0,80,0,0
119101,-79.3650793650794,4,1,0,80,0,0
119188,-78.7401574803149,4,1,0,80,0,0
119274,-78.125,4,1,0,80,0,0
119360,-77.5193798449612,4,1,0,80,0,0
119446,-76.9230769230769,4,1,0,80,0,0
119532,-76.3358778625954,4,1,0,80,0,0
119619,-75.7575757575758,4,1,0,80,0,0
119705,-75.187969924812,4,1,0,80,0,0
120998,-100,4,1,0,80,0,0
121343,-90.9090909090909,4,1,0,85,0,0
121386,-90.9090909090909,4,1,0,85,0,1
143412,-100,4,1,0,80,0,1
143455,-99.9999999999999,4,1,0,80,0,0
210308,-99.9999999999999,4,1,0,80,0,0
210394,-101.010101010101,4,1,0,80,0,0
210481,-102.040816326531,4,1,0,80,0,0
210567,-103.092783505155,4,1,0,80,0,0
210653,-104.166666666667,4,1,0,80,0,0
210739,-105.263157894737,4,1,0,80,0,0
210998,-90.9090909090909,4,1,0,85,0,0
211041,-90.9090909090909,4,1,0,85,0,1
232205,-91.743119266055,4,1,0,85,0,1
232291,-92.5925925925926,4,1,0,85,0,1
232377,-93.4579439252336,4,1,0,85,0,1
232463,-94.3396226415094,4,1,0,85,0,1
232550,-95.2380952380952,4,1,0,85,0,1
232636,-96.1538461538461,4,1,0,85,0,1
232722,-97.0873786407767,4,1,0,85,0,1
232808,-98.0392156862745,4,1,0,85,0,1
232894,-99.009900990099,4,1,0,85,0,1
233067,-100,4,1,0,80,0,1
233110,-100,4,1,0,80,0,0
254188,-99.009900990099,4,1,0,80,0,0
254274,-98.0392156862745,4,1,0,80,0,0
254360,-97.0873786407767,4,1,0,80,0,0
254446,-96.1538461538461,4,1,0,80,0,0
254532,-95.2380952380952,4,1,0,80,0,0
254619,-94.3396226415094,4,1,0,80,0,0
254705,-93.4579439252336,4,1,0,80,0,0
254791,-92.5925925925926,4,1,0,80,0,0
254877,-91.743119266055,4,1,0,80,0,0
254964,-90.9090909090909,4,1,0,80,0,0
255136,-90.9090909090909,4,1,0,85,0,0
255179,-90.9090909090909,4,1,0,85,0,1
276343,-91.743119266055,4,1,0,85,0,1
276429,-92.5925925925926,4,1,0,85,0,1
276515,-93.4579439252336,4,1,0,85,0,1
276601,-94.3396226415094,4,1,0,85,0,1
276688,-95.2380952380952,4,1,0,85,0,1
276774,-96.1538461538461,4,1,0,85,0,1
276860,-97.0873786407767,4,1,0,85,0,1
276946,-98.0392156862745,4,1,0,85,0,1
277032,-99.009900990099,4,1,0,85,0,1
277205,-100,4,1,0,80,0,1
277248,-100,4,1,0,80,0,0
321343,-100,4,1,0,70,0,0

[HitObjects]
256,192,22075,5,12,0:0:0:0:
256,192,22248,1,0,0:0:0:0:
256,192,22420,1,0,0:0:0:0:
256,192,22593,1,8,0:0:0:0:
256,192,22765,1,0,0:0:0:0:
256,192,22938,1,8,0:0:0:0:
256,192,23024,1,8,0:0:0:0:
256,192,23110,1,0,0:0:0:0:
256,192,23282,1,8,0:0:0:0:
256,192,23455,1,0,0:0:0:0:
256,192,23800,1,8,0:0:0:0:
256,192,24317,1,0,0:0:0:0:
256,192,24489,1,8,0:0:0:0:
256,192,24834,1,0,0:0:0:0:
256,192,25179,1,8,0:0:0:0:
256,192,25696,1,0,0:0:0:0:
256,192,25868,1,8,0:0:0:0:
256,192,26213,1,0,0:0:0:0:
256,192,26558,1,8,0:0:0:0:
256,192,27075,1,0,0:0:0:0:
256,192,27248,1,8,0:0:0:0:
256,192,27593,1,0,0:0:0:0:
256,192,27938,1,8,0:0:0:0:
256,192,28455,1,0,0:0:0:0:
256,192,28628,1,8,0:0:0:0:
256,192,28972,1,0,0:0:0:0:
256,192,29317,1,8,0:0:0:0:
256,192,29834,1,0,0:0:0:0:
256,192,30007,1,8,0:0:0:0:
256,192,30351,1,0,0:0:0:0:
256,192,30696,1,8,0:0:0:0:
256,192,31213,1,0,0:0:0:0:
256,192,31386,1,8,0:0:0:0:
256,192,31731,1,0,0:0:0:0:
256,192,32075,1,8,0:0:0:0:
256,192,32593,1,0,0:0:0:0:
256,192,32765,1,8,0:0:0:0:
256,192,33110,1,12,0:0:0:0:
256,192,33283,1,0,0:0:0:0:
256,192,33455,1,0,0:0:0:0:
256,192,33628,1,8,0:0:0:0:
256,192,33800,1,0,0:0:0:0:
256,192,33973,1,8,0:0:0:0:
256,192,34058,1,8,0:0:0:0:
256,192,34145,1,0,0:0:0:0:
256,192,34317,1,8,0:0:0:0:
256,192,34489,1,0,0:0:0:0:
256,192,34834,1,8,0:0:0:0:
256,192,35007,1,0,0:0:0:0:
256,192,35351,1,0,0:0:0:0:
256,192,35524,1,8,0:0:0:0:
256,192,35869,1,0,0:0:0:0:
256,192,36214,1,8,0:0:0:0:
256,192,36386,1,0,0:0:0:0:
256,192,36731,1,0,0:0:0:0:
256,192,36903,1,8,0:0:0:0:
256,192,37248,1,0,0:0:0:0:
256,192,37593,1,8,0:0:0:0:
256,192,37765,1,0,0:0:0:0:
256,192,38110,1,0,0:0:0:0:
256,192,38283,1,8,0:0:0:0:
256,192,38628,1,0,0:0:0:0:
256,192,38973,1,8,0:0:0:0:
256,192,39317,1,0,0:0:0:0:
256,192,39662,1,8,0:0:0:0:
256,192,40007,1,0,0:0:0:0:
256,192,40352,1,8,0:0:0:0:
256,192,40696,1,0,0:0:0:0:
256,192,41042,1,8,0:0:0:0:
256,192,41386,1,0,0:0:0:0:
256,192,41731,1,0,0:0:0:0:
256,192,42075,1,0,0:0:0:0:
256,192,42421,1,0,0:0:0:0:
256,192,42765,12,0,43627,0:0:0:0:
257,192,43800,5,8,0:0:0:0:
257,192,44144,1,0,0:0:0:0:
257,192,44317,1,8,0:0:0:0:
257,192,44403,1,0,0:0:0:0:
257,192,44489,1,8,0:0:0:0:
257,192,44662,1,0,0:0:0:0:
257,192,44834,1,0,0:0:0:0:
257,192,44920,1,8,0:0:0:0:
257,192,45093,1,8,0:0:0:0:
257,192,45179,1,0,0:0:0:0:
257,192,45351,1,8,0:0:0:0:
257,192,45524,1,0,0:0:0:0:
257,192,45610,1,8,0:0:0:0:
257,192,45696,1,0,0:0:0:0:
257,192,45869,1,8,0:0:0:0:
257,192,46041,1,0,0:0:0:0:
257,192,46127,1,0,0:0:0:0:
257,192,46213,1,8,0:0:0:0:
257,192,46300,1,0,0:0:0:0:
257,192,46386,1,0,0:0:0:0:
257,192,46558,1,8,0:0:0:0:
257,192,46731,1,0,0:0:0:0:
257,192,46817,1,8,0:0:0:0:
257,192,46903,1,0,0:0:0:0:
257,192,47076,1,0,0:0:0:0:
257,192,47248,1,8,0:0:0:0:
257,192,47334,1,8,0:0:0:0:
257,192,47420,1,0,0:0:0:0:
257,192,47507,1,8,0:0:0:0:
257,192,47679,1,8,0:0:0:0:
257,192,47765,1,0,0:0:0:0:
257,192,47938,1,8,0:0:0:0:
257,192,48024,1,8,0:0:0:0:
257,192,48110,1,0,0:0:0:0:
257,192,48196,1,0,0:0:0:0:
257,192,48282,1,8,0:0:0:0:
257,192,48455,1,0,0:0:0:0:
257,192,48627,1,8,0:0:0:0:
257,192,48713,1,8,0:0:0:0:
257,192,48800,1,0,0:0:0:0:
257,192,48886,1,0,0:0:0:0:
257,192,48972,1,8,0:0:0:0:
257,192,49059,1,0,0:0:0:0:
257,192,49145,1,0,0:0:0:0:
257,192,49317,1,8,0:0:0:0:
257,192,49662,1,0,0:0:0:0:
257,192,49834,1,0,0:0:0:0:
257,192,49920,1,0,0:0:0:0:
257,192,50007,1,8,0:0:0:0:
257,192,50179,1,0,0:0:0:0:
257,192,50265,1,8,0:0:0:0:
257,192,50438,1,8,0:0:0:0:
257,192,50524,1,0,0:0:0:0:
257,192,50696,1,8,0:0:0:0:
257,192,50869,1,0,0:0:0:0:
257,192,51041,1,0,0:0:0:0:
257,192,51127,1,8,0:0:0:0:
257,192,51213,1,0,0:0:0:0:
257,192,51300,1,0,0:0:0:0:
257,192,51386,1,8,0:0:0:0:
257,192,51558,1,0,0:0:0:0:
257,192,51645,1,8,0:0:0:0:
257,192,51731,1,0,0:0:0:0:
257,192,51903,1,0,0:0:0:0:
257,192,52076,1,8,0:0:0:0:
257,192,52248,1,0,0:0:0:0:
257,192,52334,1,0,0:0:0:0:
257,192,52420,1,8,0:0:0:0:
257,192,52507,1,8,0:0:0:0:
257,192,52593,1,0,0:0:0:0:
257,192,52765,1,8,0:0:0:0:
257,192,52938,1,0,0:0:0:0:
257,192,53024,1,0,0:0:0:0:
257,192,53110,1,8,0:0:0:0:
257,192,53282,1,0,0:0:0:0:
257,192,53455,1,8,0:0:0:0:
257,192,53541,1,0,0:0:0:0:
257,192,53627,1,0,0:0:0:0:
257,192,53713,1,8,0:0:0:0:
257,192,53800,1,0,0:0:0:0:
257,192,53972,1,0,0:0:0:0:
257,192,54144,1,8,0:0:0:0:
257,192,54230,1,0,0:0:0:0:
257,192,54316,1,8,0:0:0:0:
257,192,54402,1,8,0:0:0:0:
257,192,54489,1,0,0:0:0:0:
257,192,54575,1,8,0:0:0:0:
257,192,54661,1,0,0:0:0:0:
257,192,54833,1,8,0:0:0:0:
257,192,55179,1,0,0:0:0:0:
257,192,55265,1,8,0:0:0:0:
257,192,55351,1,0,0:0:0:0:
257,192,55438,1,0,0:0:0:0:
257,192,55524,1,8,0:0:0:0:
257,192,55696,1,0,0:0:0:0:
257,192,55782,1,8,0:0:0:0:
257,192,55869,1,0,0:0:0:0:
257,192,56041,1,0,0:0:0:0:
257,192,56213,1,8,0:0:0:0:
257,192,56386,1,0,0:0:0:0:
257,192,56472,1,0,0:0:0:0:
257,192,56558,1,8,0:0:0:0:
257,192,56731,1,0,0:0:0:0:
257,192,56903,1,8,0:0:0:0:
257,192,57076,1,0,0:0:0:0:
257,192,57162,1,8,0:0:0:0:
257,192,57334,1,8,0:0:0:0:
257,192,57420,1,0,0:0:0:0:
257,192,57593,1,8,0:0:0:0:
257,192,57679,1,0,0:0:0:0:
257,192,57765,1,0,0:0:0:0:
257,192,57851,1,0,0:0:0:0:
257,192,57938,1,8,0:0:0:0:
257,192,58110,1,0,0:0:0:0:
257,192,58282,1,8,0:0:0:0:
257,192,58455,1,0,0:0:0:0:
257,192,58541,1,0,0:0:0:0:
257,192,58627,1,8,0:0:0:0:
257,192,58713,1,0,0:0:0:0:
257,192,58800,1,8,0:0:0:0:
257,192,58972,1,8,0:0:0:0:
257,192,59144,1,8,0:0:0:0:
257,192,59317,1,0,0:0:0:0:
257,192,59489,1,8,0:0:0:0:
257,192,59576,1,0,0:0:0:0:
257,192,59662,1,8,0:0:0:0:
257,192,59748,1,8,0:0:0:0:
257,192,59834,1,0,0:0:0:0:
257,192,59920,1,8,0:0:0:0:
257,192,60093,1,8,0:0:0:0:
257,192,60179,1,0,0:0:0:0:
257,192,60351,1,8,0:0:0:0:
257,192,60438,1,0,0:0:0:0:
257,192,60524,1,8,0:0:0:0:
257,192,60696,1,0,0:0:0:0:
257,192,60869,1,0,0:0:0:0:
257,192,60955,1,0,0:0:0:0:
257,192,61041,1,8,0:0:0:0:
257,192,61127,1,0,0:0:0:0:
257,192,61300,1,8,0:0:0:0:
257,192,61386,1,0,0:0:0:0:
257,192,61558,1,0,0:0:0:0:
257,192,61731,1,8,0:0:0:0:
257,192,61903,1,0,0:0:0:0:
257,192,61989,1,0,0:0:0:0:
257,192,62076,1,8,0:0:0:0:
257,192,62162,1,8,0:0:0:0:
257,192,62248,1,0,0:0:0:0:
257,192,62420,1,8,0:0:0:0:
257,192,62593,1,0,0:0:0:0:
257,192,62679,1,8,0:0:0:0:
257,192,62765,1,0,0:0:0:0:
257,192,62938,1,0,0:0:0:0:
257,192,63110,1,8,0:0:0:0:
257,192,63282,1,0,0:0:0:0:
257,192,63369,1,0,0:0:0:0:
257,192,63455,1,0,0:0:0:0:
257,192,63541,1,8,0:0:0:0:
257,192,63627,1,0,0:0:0:0:
257,192,63800,1,8,0:0:0:0:
257,192,63972,1,0,0:0:0:0:
257,192,64058,1,0,0:0:0:0:
257,192,64145,1,8,0:0:0:0:
257,192,64231,1,0,0:0:0:0:
257,192,64317,1,8,0:0:0:0:
257,192,64489,1,0,0:0:0:0:
257,192,64662,1,4,0:0:0:0:
257,192,65007,1,4,0:0:0:0:
257,192,65179,1,4,0:0:0:0:
257,192,65524,1,0,0:0:0:0:
257,192,65696,1,0,0:0:0:0:
257,192,65869,1,8,0:0:0:0:
257,192,66041,1,4,0:0:0:0:
257,192,66558,1,8,0:0:0:0:
257,192,66903,1,0,0:0:0:0:
257,192,67076,1,8,0:0:0:0:
257,192,67162,1,0,0:0:0:0:
257,192,67248,1,8,0:0:0:0:
257,192,67420,1,8,0:0:0:0:
257,192,67593,1,0,0:0:0:0:
257,192,67765,1,8,0:0:0:0:
257,192,67851,1,0,0:0:0:0:
257,192,67938,1,0,0:0:0:0:
257,192,68024,1,8,0:0:0:0:
257,192,68196,1,0,0:0:0:0:
257,192,68282,1,8,0:0:0:0:
257,192,68455,1,0,0:0:0:0:
257,192,68627,1,8,0:0:0:0:
257,192,68713,1,8,0:0:0:0:
257,192,68800,1,0,0:0:0:0:
257,192,68972,1,8,0:0:0:0:
257,192,69145,1,0,0:0:0:0:
257,192,69231,1,0,0:0:0:0:
257,192,69317,1,8,0:0:0:0:
257,192,69403,1,0,0:0:0:0:
257,192,69576,1,8,0:0:0:0:
257,192,69662,1,0,0:0:0:0:
257,192,69834,1,0,0:0:0:0:
257,192,70007,1,8,0:0:0:0:
257,192,70179,1,0,0:0:0:0:
257,192,70265,1,0,0:0:0:0:
257,192,70351,1,8,0:0:0:0:
257,192,70438,1,0,0:0:0:0:
257,192,70610,1,0,0:0:0:0:
257,192,70696,1,8,0:0:0:0:
257,192,70869,1,0,0:0:0:0:
257,192,70955,1,0,0:0:0:0:
257,192,71041,1,8,0:0:0:0:
257,192,71127,1,8,0:0:0:0:
257,192,71213,1,0,0:0:0:0:
257,192,71386,1,8,0:0:0:0:
257,192,71558,1,8,0:0:0:0:
257,192,71731,1,0,0:0:0:0:
257,192,71903,1,0,0:0:0:0:
257,192,71989,1,0,0:0:0:0:
257,192,72076,1,8,0:0:0:0:
257,192,72248,1,0,0:0:0:0:
257,192,72334,1,8,0:0:0:0:
257,192,72420,1,8,0:0:0:0:
257,192,72507,1,0,0:0:0:0:
257,192,72679,1,0,0:0:0:0:
257,192,72765,1,8,0:0:0:0:
257,192,72938,1,8,0:0:0:0:
257,192,73110,1,0,0:0:0:0:
257,192,73196,1,8,0:0:0:0:
257,192,73282,1,0,0:0:0:0:
257,192,73369,1,0,0:0:0:0:
257,192,73455,1,8,0:0:0:0:
257,192,73627,1,0,0:0:0:0:
257,192,73713,1,8,0:0:0:0:
257,192,73800,1,8,0:0:0:0:
257,192,73886,1,0,0:0:0:0:
257,192,74058,1,0,0:0:0:0:
257,192,74145,1,8,0:0:0:0:
257,192,74317,1,8,0:0:0:0:
257,192,74489,1,0,0:0:0:0:
257,192,74575,1,0,0:0:0:0:
257,192,74662,1,8,0:0:0:0:
257,192,74834,1,8,0:0:0:0:
257,192,75007,1,8,0:0:0:0:
257,192,75094,1,0,0:0:0:0:
257,192,75265,1,0,0:0:0:0:
257,192,75351,1,8,0:0:0:0:
257,192,75524,1,8,0:0:0:0:
257,192,75696,1,0,0:0:0:0:
257,192,75782,1,0,0:0:0:0:
257,192,75869,1,8,0:0:0:0:
257,192,76041,1,0,0:0:0:0:
257,192,76127,1,8,0:0:0:0:
257,192,76213,1,0,0:0:0:0:
257,192,76386,1,8,0:0:0:0:
257,192,76558,1,0,0:0:0:0:
257,192,76645,1,8,0:0:0:0:
257,192,76731,1,0,0:0:0:0:
257,192,76903,1,8,0:0:0:0:
257,192,77076,1,4,0:0:0:0:
257,192,77593,1,8,0:0:0:0:
257,192,77938,1,0,0:0:0:0:
257,192,78110,1,0,0:0:0:0:
257,192,78196,1,0,0:0:0:0:
257,192,78282,1,8,0:0:0:0:
257,192,78455,1,0,0:0:0:0:
257,192,78541,1,0,0:0:0:0:
257,192,78627,1,8,0:0:0:0:
257,192,78713,1,0,0:0:0:0:
257,192,78800,1,0,0:0:0:0:
257,192,78886,1,0,0:0:0:0:
257,192,78972,1,8,0:0:0:0:
257,192,79145,1,0,0:0:0:0:
257,192,79231,1,8,0:0:0:0:
257,192,79317,1,0,0:0:0:0:
257,192,79489,1,0,0:0:0:0:
257,192,79662,1,8,0:0:0:0:
257,192,79748,1,0,0:0:0:0:
257,192,79834,1,0,0:0:0:0:
257,192,79920,1,0,0:0:0:0:
257,192,80007,1,8,0:0:0:0:
257,192,80179,1,0,0:0:0:0:
257,192,80351,1,8,0:0:0:0:
257,192,80524,1,0,0:0:0:0:
257,192,80610,1,0,0:0:0:0:
257,192,80696,1,8,0:0:0:0:
257,192,80782,1,8,0:0:0:0:
257,192,80869,1,0,0:0:0:0:
257,192,81041,1,8,0:0:0:0:
257,192,81127,1,0,0:0:0:0:
257,192,81213,1,8,0:0:0:0:
257,192,81386,1,0,0:0:0:0:
257,192,81558,1,0,0:0:0:0:
257,192,81644,1,0,0:0:0:0:
257,192,81731,1,8,0:0:0:0:
257,192,81903,1,0,0:0:0:0:
257,192,81989,1,8,0:0:0:0:
257,192,82075,1,8,0:0:0:0:
257,192,82162,1,8,0:0:0:0:
257,192,82248,1,0,0:0:0:0:
257,192,82334,1,0,0:0:0:0:
257,192,82420,1,8,0:0:0:0:
257,192,82593,1,0,0:0:0:0:
257,192,82765,1,8,0:0:0:0:
257,192,82851,1,8,0:0:0:0:
257,192,82938,1,0,0:0:0:0:
257,192,83024,1,0,0:0:0:0:
257,192,83111,1,8,0:0:0:0:
257,192,83282,1,8,0:0:0:0:
257,192,83369,1,0,0:0:0:0:
257,192,83454,1,8,0:0:0:0:
257,192,83627,1,0,0:0:0:0:
257,192,83800,1,8,0:0:0:0:
257,192,83886,1,8,0:0:0:0:
257,192,83972,1,0,0:0:0:0:
257,192,84058,1,0,0:0:0:0:
257,192,84144,1,8,0:0:0:0:
257,192,84317,1,0,0:0:0:0:
257,192,84489,1,8,0:0:0:0:
257,192,84662,1,0,0:0:0:0:
257,192,84748,1,8,0:0:0:0:
257,192,84834,1,0,0:0:0:0:
257,192,84920,1,0,0:0:0:0:
257,192,85007,1,8,0:0:0:0:
257,192,85179,1,8,0:0:0:0:
257,192,85265,1,8,0:0:0:0:
257,192,85351,1,0,0:0:0:0:
257,192,85524,1,8,0:0:0:0:
257,192,85696,1,0,0:0:0:0:
257,192,85869,1,8,0:0:0:0:
257,192,85955,1,8,0:0:0:0:
257,192,86041,1,8,0:0:0:0:
257,192,86127,1,8,0:0:0:0:
257,192,86213,1,0,0:0:0:0:
257,192,86386,1,8,0:0:0:0:
257,192,86472,1,8,0:0:0:0:
257,192,86558,1,0,0:0:0:0:
257,192,86731,1,8,0:0:0:0:
257,192,86903,1,0,0:0:0:0:
257,192,87075,1,8,0:0:0:0:
257,192,87162,1,0,0:0:0:0:
257,192,87248,1,8,0:0:0:0:
257,192,87420,1,8,0:0:0:0:
257,192,87593,1,0,0:0:0:0:
257,192,87679,1,0,0:0:0:0:
257,192,87765,1,8,0:0:0:0:
257,192,87851,1,0,0:0:0:0:
257,192,87938,1,8,0:0:0:0:
257,192,88024,1,8,0:0:0:0:
257,192,88110,1,0,0:0:0:0:
257,192,88196,1,8,0:0:0:0:
257,192,88972,1,8,0:0:0:0:
257,192,89059,1,8,0:0:0:0:
257,192,89145,1,8,0:0:0:0:
257,192,89231,1,8,0:0:0:0:
257,192,89317,1,0,0:0:0:0:
257,192,89403,1,0,0:0:0:0:
257,192,89489,1,8,0:0:0:0:
257,192,89662,1,4,0:0:0:0:
257,192,90179,1,4,0:0:0:0:
257,192,90869,1,4,0:0:0:0:
257,192,91558,1,0,0:0:0:0:
257,192,91731,1,8,0:0:0:0:
256,190,91903,1,0,0:0:0:0:
256,190,92075,1,0,0:0:0:0:
257,192,92248,1,4,0:0:0:0:
256,190,92938,1,4,0:0:0:0:
257,192,93627,1,4,0:0:0:0:
257,192,94317,1,0,0:0:0:0:
257,192,94403,1,0,0:0:0:0:
257,192,94489,1,8,0:0:0:0:
257,192,94575,1,8,0:0:0:0:
257,192,94662,1,0,0:0:0:0:
257,192,94748,1,0,0:0:0:0:
257,192,94834,1,8,0:0:0:0:
257,192,94920,1,0,0:0:0:0:
257,192,95007,1,8,0:0:0:0:
257,192,95093,1,8,0:0:0:0:
257,192,95179,1,4,0:0:0:0:
257,192,95696,1,4,0:0:0:0:
257,192,96386,1,4,0:0:0:0:
257,192,97075,1,8,0:0:0:0:
257,192,97162,1,0,0:0:0:0:
257,192,97248,1,8,0:0:0:0:
257,192,97334,1,0,0:0:0:0:
257,192,97420,1,8,0:0:0:0:
257,192,97593,1,0,0:0:0:0:
257,192,97765,1,4,0:0:0:0:
257,192,98455,1,4,0:0:0:0:
257,192,99144,1,4,0:0:0:0:
257,192,100007,1,0,0:0:0:0:
257,192,100093,1,8,0:0:0:0:
257,192,100179,1,0,0:0:0:0:
257,192,100265,1,8,0:0:0:0:
257,192,100351,1,0,0:0:0:0:
257,192,100438,1,0,0:0:0:0:
257,192,100524,1,8,0:0:0:0:
257,192,100610,1,8,0:0:0:0:
257,192,100696,1,4,0:0:0:0:
257,192,101213,1,4,0:0:0:0:
257,192,101386,1,8,0:0:0:0:
257,192,101903,1,4,0:0:0:0:
257,192,102593,1,0,0:0:0:0:
257,192,102708,1,8,0:0:0:0:
257,192,102766,1,8,0:0:0:0:
257,192,102938,1,8,0:0:0:0:
257,192,103110,1,8,0:0:0:0:
257,192,103282,1,4,0:0:0:0:
257,192,103972,1,4,0:0:0:0:
257,192,104144,1,8,0:0:0:0:
257,192,104662,1,4,0:0:0:0:
257,192,106213,1,4,0:0:0:0:
257,192,106731,1,4,0:0:0:0:
257,192,106903,1,8,0:0:0:0:
257,192,107420,1,4,0:0:0:0:
257,192,107766,1,0,0:0:0:0:
257,192,108024,1,0,0:0:0:0:
257,192,108282,1,8,0:0:0:0:
257,192,108455,1,0,0:0:0:0:
257,192,108627,1,0,0:0:0:0:
257,192,108800,1,4,0:0:0:0:
257,192,109489,1,4,0:0:0:0:
257,192,109662,1,8,0:0:0:0:
257,192,110179,1,4,0:0:0:0:
257,192,111731,1,0,0:0:0:0:
257,192,111903,1,0,0:0:0:0:
257,192,112075,1,8,0:0:0:0:
257,192,112248,1,0,0:0:0:0:
257,192,112334,1,0,0:0:0:0:
257,192,112420,1,8,0:0:0:0:
257,192,112507,1,8,0:0:0:0:
257,192,112593,1,0,0:0:0:0:
257,192,112765,1,8,0:0:0:0:
257,192,112938,1,0,0:0:0:0:
257,192,113110,1,0,0:0:0:0:
257,192,113282,1,0,0:0:0:0:
257,192,113455,1,8,0:0:0:0:
257,192,113627,1,0,0:0:0:0:
257,192,113713,1,0,0:0:0:0:
257,192,113800,1,8,0:0:0:0:
257,192,113886,1,8,0:0:0:0:
257,192,113972,1,0,0:0:0:0:
257,192,114144,1,8,0:0:0:0:
257,192,114317,1,0,0:0:0:0:
257,192,114489,1,0,0:0:0:0:
257,192,114575,1,0,0:0:0:0:
257,192,114662,1,0,0:0:0:0:
257,192,114834,1,8,0:0:0:0:
257,192,115007,1,0,0:0:0:0:
257,192,115093,1,8,0:0:0:0:
257,192,115179,1,0,0:0:0:0:
257,192,115265,1,8,0:0:0:0:
257,192,115351,1,0,0:0:0:0:
257,192,115524,1,8,0:0:0:0:
257,192,115610,1,0,0:0:0:0:
257,192,115696,1,0,0:0:0:0:
257,192,115782,1,0,0:0:0:0:
257,192,115869,1,8,0:0:0:0:
257,192,116041,1,0,0:0:0:0:
257,192,116127,1,0,0:0:0:0:
257,192,116213,1,8,0:0:0:0:
257,192,116386,1,0,0:0:0:0:
257,192,116558,1,8,0:0:0:0:
257,192,116731,1,0,0:0:0:0:
257,192,116817,1,0,0:0:0:0:
257,192,116903,1,8,0:0:0:0:
257,192,117075,1,0,0:0:0:0:
257,192,117248,1,8,0:0:0:0:
257,192,117420,1,0,0:0:0:0:
257,192,117507,1,0,0:0:0:0:
257,192,117593,1,8,0:0:0:0:
257,192,117765,1,0,0:0:0:0:
257,192,117938,1,8,0:0:0:0:
257,192,118110,1,0,0:0:0:0:
257,192,118196,1,0,0:0:0:0:
257,192,118282,1,8,0:0:0:0:
257,192,118455,1,8,0:0:0:0:
257,192,118627,1,0,0:0:0:0:
257,192,118713,1,0,0:0:0:0:
257,192,118800,1,8,0:0:0:0:
257,192,118886,1,8,0:0:0:0:
257,192,118972,1,0,0:0:0:0:
257,192,119058,1,0,0:0:0:0:
257,192,119144,1,8,0:0:0:0:
257,192,119231,1,8,0:0:0:0:
257,192,119317,1,0,0:0:0:0:
257,192,119403,1,0,0:0:0:0:
257,192,119489,1,8,0:0:0:0:
257,192,119575,1,0,0:0:0:0:
257,192,119662,1,8,0:0:0:0:
257,192,119748,1,0,0:0:0:0:
257,192,119834,1,0,0:0:0:0:
257,192,119920,1,8,0:0:0:0:
257,192,121041,1,8,0:0:0:0:
257,192,121386,1,4,0:0:0:0:
257,192,121558,1,0,0:0:0:0:
257,192,121644,1,0,0:0:0:0:
257,192,121731,1,8,0:0:0:0:
257,192,121903,1,0,0:0:0:0:
257,192,121989,1,0,0:0:0:0:
257,192,122075,1,8,0:0:0:0:
257,192,122162,1,0,0:0:0:0:
257,192,122248,1,8,0:0:0:0:
257,192,122420,1,8,0:0:0:0:
257,192,122507,1,8,0:0:0:0:
257,192,122593,1,0,0:0:0:0:
257,192,122679,1,8,0:0:0:0:
257,192,122765,1,8,0:0:0:0:
257,192,122851,1,8,0:0:0:0:
257,192,122938,1,0,0:0:0:0:
257,192,123110,1,8,0:0:0:0:
257,192,123282,1,0,0:0:0:0:
257,192,123369,1,8,0:0:0:0:
257,192,123455,1,0,0:0:0:0:
257,192,123541,1,0,0:0:0:0:
257,192,123627,1,8,0:0:0:0:
257,192,123800,1,12,0:0:0:0:
257,192,123972,1,0,0:0:0:0:
257,192,124058,1,0,0:0:0:0:
257,192,124144,1,8,0:0:0:0:
257,192,124317,1,0,0:0:0:0:
257,192,124489,1,8,0:0:0:0:
257,192,124662,1,0,0:0:0:0:
257,192,124748,1,8,0:0:0:0:
257,192,124834,1,0,0:0:0:0:
257,192,124920,1,0,0:0:0:0:
257,192,125007,1,8,0:0:0:0:
257,192,125093,1,0,0:0:0:0:
257,192,125179,1,8,0:0:0:0:
257,192,125265,1,8,0:0:0:0:
257,192,125351,1,0,0:0:0:0:
257,192,125438,1,0,0:0:0:0:
257,192,125524,1,8,0:0:0:0:
257,192,125696,1,0,0:0:0:0:
257,192,125869,1,8,0:0:0:0:
257,192,126041,1,0,0:0:0:0:
257,192,126127,1,0,0:0:0:0:
257,192,126213,1,8,0:0:0:0:
257,192,126386,1,8,0:0:0:0:
257,192,126472,1,0,0:0:0:0:
257,192,126558,1,0,0:0:0:0:
257,192,126644,1,8,0:0:0:0:
257,192,126731,1,0,0:0:0:0:
257,192,126903,1,8,0:0:0:0:
257,192,127075,1,0,0:0:0:0:
257,192,127162,1,0,0:0:0:0:
257,192,127248,1,8,0:0:0:0:
257,192,127334,1,0,0:0:0:0:
257,192,127420,1,8,0:0:0:0:
257,192,127507,1,8,0:0:0:0:
257,192,127593,1,0,0:0:0:0:
257,192,127765,1,0,0:0:0:0:
257,192,127938,1,8,0:0:0:0:
257,192,128024,1,0,0:0:0:0:
257,192,128110,1,8,0:0:0:0:
257,192,128282,1,0,0:0:0:0:
257,192,128455,1,0,0:0:0:0:
257,192,128541,1,0,0:0:0:0:
257,192,128627,1,8,0:0:0:0:
257,192,128713,1,8,0:0:0:0:
257,192,128800,1,0,0:0:0:0:
257,192,128886,1,8,0:0:0:0:
257,192,128972,1,0,0:0:0:0:
257,192,129144,1,0,0:0:0:0:
257,192,129317,1,8,0:0:0:0:
257,192,129403,1,0,0:0:0:0:
257,192,129489,1,8,0:0:0:0:
257,192,129575,1,8,0:0:0:0:
257,192,129662,1,0,0:0:0:0:
257,192,129834,1,0,0:0:0:0:
257,192,130007,1,8,0:0:0:0:
257,192,130179,1,0,0:0:0:0:
257,192,130265,1,8,0:0:0:0:
257,192,130438,1,8,0:0:0:0:
257,192,130524,1,0,0:0:0:0:
257,192,130696,1,8,0:0:0:0:
257,192,130782,1,8,0:0:0:0:
257,192,130869,1,0,0:0:0:0:
257,192,130955,1,0,0:0:0:0:
257,192,131041,1,0,0:0:0:0:
257,192,131213,1,8,0:0:0:0:
257,192,131299,1,0,0:0:0:0:
257,192,131472,1,8,0:0:0:0:
257,192,131558,1,0,0:0:0:0:
257,192,131731,1,8,0:0:0:0:
257,192,131817,1,0,0:0:0:0:
257,192,131989,1,8,0:0:0:0:
257,192,132032,1,8,0:0:0:0:
257,192,132075,1,8,0:0:0:0:
257,192,132162,1,8,0:0:0:0:
257,192,132248,1,0,0:0:0:0:
257,192,132420,1,12,0:0:0:0:
257,192,132593,1,0,0:0:0:0:
257,192,132679,1,0,0:0:0:0:
257,192,132765,1,8,0:0:0:0:
257,192,132938,1,0,0:0:0:0:
257,192,133024,1,0,0:0:0:0:
257,192,133110,1,8,0:0:0:0:
257,192,133196,1,8,0:0:0:0:
257,192,133282,1,0,0:0:0:0:
257,192,133369,1,0,0:0:0:0:
257,192,133455,1,8,0:0:0:0:
257,192,133541,1,0,0:0:0:0:
257,192,133627,1,8,0:0:0:0:
257,192,133800,1,0,0:0:0:0:
257,192,133972,1,0,0:0:0:0:
257,192,134058,1,0,0:0:0:0:
257,192,134144,1,8,0:0:0:0:
257,192,134317,1,0,0:0:0:0:
257,192,134403,1,0,0:0:0:0:
257,192,134489,1,8,0:0:0:0:
257,192,134575,1,8,0:0:0:0:
257,192,134662,1,0,0:0:0:0:
257,192,134834,1,12,0:0:0:0:
257,192,135007,1,8,0:0:0:0:
257,192,135093,1,8,0:0:0:0:
257,192,135179,1,0,0:0:0:0:
257,192,135351,1,0,0:0:0:0:
257,192,135524,1,8,0:0:0:0:
257,192,135696,1,0,0:0:0:0:
257,192,135782,1,0,0:0:0:0:
257,192,135869,1,8,0:0:0:0:
257,192,136041,1,0,0:0:0:0:
257,192,136213,1,8,0:0:0:0:
257,192,136300,1,0,0:0:0:0:
257,192,136386,1,0,0:0:0:0:
257,192,136472,1,0,0:0:0:0:
257,192,136558,1,8,0:0:0:0:
257,192,136731,1,0,0:0:0:0:
257,192,136903,1,8,0:0:0:0:
257,192,137075,1,0,0:0:0:0:
257,192,137162,1,8,0:0:0:0:
257,192,137248,1,0,0:0:0:0:
257,192,137334,1,0,0:0:0:0:
257,192,137420,1,8,0:0:0:0:
257,192,137593,1,8,0:0:0:0:
257,192,137765,1,0,0:0:0:0:
257,192,137938,1,8,0:0:0:0:
257,192,138110,1,0,0:0:0:0:
257,192,138196,1,0,0:0:0:0:
257,192,138282,1,8,0:0:0:0:
257,192,138455,1,0,0:0:0:0:
257,192,138541,1,8,0:0:0:0:
257,192,138627,1,8,0:0:0:0:
257,192,138713,1,8,0:0:0:0:
257,192,138800,1,0,0:0:0:0:
257,192,138886,1,0,0:0:0:0:
257,192,138972,1,8,0:0:0:0:
257,192,139144,1,0,0:0:0:0:
257,192,139317,1,8,0:0:0:0:
257,192,139489,1,8,0:0:0:0:
257,192,139575,1,0,0:0:0:0:
257,192,139662,1,8,0:0:0:0:
257,192,139748,1,8,0:0:0:0:
257,192,139835,1,0,0:0:0:0:
257,192,139920,1,0,0:0:0:0:
257,192,140007,1,8,0:0:0:0:
257,192,140179,1,0,0:0:0:0:
257,192,140265,1,0,0:0:0:0:
257,192,140351,1,8,0:0:0:0:
257,192,140438,1,0,0:0:0:0:
257,192,140524,1,8,0:0:0:0:
257,192,140610,1,8,0:0:0:0:
257,192,140696,1,0,0:0:0:0:
257,192,140869,1,0,0:0:0:0:
257,192,141041,1,8,0:0:0:0:
257,192,141213,1,8,0:0:0:0:
257,192,141300,1,8,0:0:0:0:
257,192,141386,1,0,0:0:0:0:
257,192,141558,1,0,0:0:0:0:
257,192,141731,1,8,0:0:0:0:
257,192,141817,1,8,0:0:0:0:
257,192,141903,1,0,0:0:0:0:
257,192,141989,1,8,0:0:0:0:
257,192,142075,1,0,0:0:0:0:
257,192,142162,1,8,0:0:0:0:
257,192,142248,1,0,0:0:0:0:
257,192,142334,1,0,0:0:0:0:
257,192,142420,1,8,0:0:0:0:
257,192,142593,1,0,0:0:0:0:
257,192,142679,1,0,0:0:0:0:
257,192,142851,1,0,0:0:0:0:
257,192,142938,1,0,0:0:0:0:
257,192,143110,1,8,0:0:0:0:
257,192,143455,1,4,0:0:0:0:
257,192,143627,1,0,0:0:0:0:
257,192,143800,1,8,0:0:0:0:
257,192,143972,1,0,0:0:0:0:
257,192,144058,1,0,0:0:0:0:
257,192,144144,1,0,0:0:0:0:
257,192,144317,1,0,0:0:0:0:
257,192,144489,1,8,0:0:0:0:
257,192,144662,1,0,0:0:0:0:
257,192,144748,1,8,0:0:0:0:
257,192,144834,1,0,0:0:0:0:
257,192,145007,1,0,0:0:0:0:
257,192,145179,1,8,0:0:0:0:
257,192,145351,1,0,0:0:0:0:
257,192,145438,1,8,0:0:0:0:
257,192,145524,1,0,0:0:0:0:
257,192,145611,1,8,0:0:0:0:
257,192,145697,1,0,0:0:0:0:
257,192,145869,1,12,0:0:0:0:
257,192,146213,1,0,0:0:0:0:
257,192,146386,1,0,0:0:0:0:
257,192,146558,1,8,0:0:0:0:
257,192,146731,1,0,0:0:0:0:
257,192,146817,1,0,0:0:0:0:
257,192,146903,1,0,0:0:0:0:
257,192,147075,1,0,0:0:0:0:
257,192,147248,1,8,0:0:0:0:
257,192,147334,1,8,0:0:0:0:
257,192,147420,1,0,0:0:0:0:
257,192,147507,1,0,0:0:0:0:
257,192,147593,1,8,0:0:0:0:
257,192,147765,1,0,0:0:0:0:
257,192,147938,1,8,0:0:0:0:
257,192,148024,1,8,0:0:0:0:
257,192,148110,1,0,0:0:0:0:
257,192,148282,1,8,0:0:0:0:
257,192,148455,1,0,0:0:0:0:
257,192,148627,1,8,0:0:0:0:
257,192,148972,1,0,0:0:0:0:
257,192,149144,1,0,0:0:0:0:
257,192,149317,1,8,0:0:0:0:
257,192,149489,1,0,0:0:0:0:
257,192,149575,1,8,0:0:0:0:
257,192,149661,1,0,0:0:0:0:
257,192,149834,1,0,0:0:0:0:
257,192,150006,1,8,0:0:0:0:
257,192,150179,1,0,0:0:0:0:
257,192,150265,1,0,0:0:0:0:
257,192,150351,1,0,0:0:0:0:
257,192,150524,1,0,0:0:0:0:
257,192,150696,1,8,0:0:0:0:
257,192,150868,1,0,0:0:0:0:
257,192,150955,1,0,0:0:0:0:
257,192,151041,1,8,0:0:0:0:
257,192,151128,1,8,0:0:0:0:
257,192,151214,1,0,0:0:0:0:
257,192,151386,1,8,0:0:0:0:
257,192,151731,1,0,0:0:0:0:
257,192,151904,1,0,0:0:0:0:
257,192,152076,1,8,0:0:0:0:
257,192,152249,1,0,0:0:0:0:
257,192,152335,1,0,0:0:0:0:
257,192,152421,1,0,0:0:0:0:
257,192,152593,1,0,0:0:0:0:
257,192,152766,1,8,0:0:0:0:
257,192,152852,1,8,0:0:0:0:
257,192,152938,1,0,0:0:0:0:
257,192,153025,1,0,0:0:0:0:
257,192,153111,1,8,0:0:0:0:
257,192,153283,1,0,0:0:0:0:
257,192,153456,1,8,0:0:0:0:
257,192,153542,1,0,0:0:0:0:
257,192,153628,1,0,0:0:0:0:
257,192,153800,1,8,0:0:0:0:
257,192,153973,1,0,0:0:0:0:
257,192,154145,1,8,0:0:0:0:
257,192,154489,1,4,0:0:0:0:
257,192,154661,1,0,0:0:0:0:
257,192,154834,1,8,0:0:0:0:
257,192,155006,1,0,0:0:0:0:
257,192,155092,1,8,0:0:0:0:
257,192,155178,1,0,0:0:0:0:
257,192,155351,1,0,0:0:0:0:
257,192,155524,1,8,0:0:0:0:
257,192,155696,1,0,0:0:0:0:
257,192,155782,1,0,0:0:0:0:
257,192,155868,1,0,0:0:0:0:
257,192,156041,1,0,0:0:0:0:
257,192,156213,1,8,0:0:0:0:
257,192,156385,1,0,0:0:0:0:
257,192,156472,1,0,0:0:0:0:
257,192,156558,1,8,0:0:0:0:
257,192,156645,1,8,0:0:0:0:
257,192,156731,1,0,0:0:0:0:
257,192,156903,1,12,0:0:0:0:
257,192,157248,1,0,0:0:0:0:
257,192,157421,1,0,0:0:0:0:
257,192,157593,1,8,0:0:0:0:
257,192,157766,1,0,0:0:0:0:
257,192,157852,1,8,0:0:0:0:
257,192,157938,1,0,0:0:0:0:
257,192,158110,1,0,0:0:0:0:
257,192,158283,1,8,0:0:0:0:
257,192,158369,1,8,0:0:0:0:
257,192,158455,1,0,0:0:0:0:
257,192,158542,1,0,0:0:0:0:
257,192,158628,1,8,0:0:0:0:
257,192,158800,1,0,0:0:0:0:
257,192,158973,1,8,0:0:0:0:
257,192,159059,1,0,0:0:0:0:
257,192,159145,1,0,0:0:0:0:
257,192,159231,1,0,0:0:0:0:
257,192,159317,1,8,0:0:0:0:
257,192,159490,1,0,0:0:0:0:
257,192,159662,1,8,0:0:0:0:
257,192,160007,1,0,0:0:0:0:
257,192,160179,1,0,0:0:0:0:
257,192,160352,1,8,0:0:0:0:
257,192,160524,1,0,0:0:0:0:
257,192,160610,1,8,0:0:0:0:
257,192,160696,1,0,0:0:0:0:
257,192,160869,1,0,0:0:0:0:
257,192,161042,1,8,0:0:0:0:
257,192,161214,1,0,0:0:0:0:
257,192,161300,1,0,0:0:0:0:
257,192,161386,1,8,0:0:0:0:
257,192,161472,1,0,0:0:0:0:
257,192,161558,1,0,0:0:0:0:
257,192,161731,1,8,0:0:0:0:
257,192,161903,1,0,0:0:0:0:
257,192,161990,1,0,0:0:0:0:
257,192,162076,1,8,0:0:0:0:
257,192,162163,1,8,0:0:0:0:
257,192,162249,1,0,0:0:0:0:
257,192,162335,1,0,0:0:0:0:
257,192,162420,1,8,0:0:0:0:
257,192,162765,1,0,0:0:0:0:
257,192,162938,1,0,0:0:0:0:
257,192,163110,1,8,0:0:0:0:
257,192,163283,1,0,0:0:0:0:
257,192,163369,1,8,0:0:0:0:
257,192,163455,1,0,0:0:0:0:
257,192,163627,1,0,0:0:0:0:
257,192,163800,1,8,0:0:0:0:
257,192,163886,1,8,0:0:0:0:
257,192,163972,1,0,0:0:0:0:
257,192,164059,1,0,0:0:0:0:
257,192,164145,1,8,0:0:0:0:
257,192,164317,1,0,0:0:0:0:
257,192,164490,1,8,0:0:0:0:
257,192,164576,1,0,0:0:0:0:
257,192,164662,1,8,0:0:0:0:
257,192,164748,1,8,0:0:0:0:
257,192,164834,1,0,0:0:0:0:
257,192,165007,1,0,0:0:0:0:
257,192,165179,1,8,0:0:0:0:
257,192,165265,1,8,0:0:0:0:
257,192,165351,1,0,0:0:0:0:
257,192,165524,1,4,0:0:0:0:
257,192,165869,1,8,0:0:0:0:
257,192,166041,1,0,0:0:0:0:
257,192,166213,1,0,0:0:0:0:
257,192,166300,1,8,0:0:0:0:
257,192,166472,1,8,0:0:0:0:
257,192,166558,1,0,0:0:0:0:
257,192,166730,1,8,0:0:0:0:
257,192,166903,1,0,0:0:0:0:
257,192,166989,1,8,0:0:0:0:
257,192,167075,1,0,0:0:0:0:
257,192,167248,1,8,0:0:0:0:
257,192,167420,1,0,0:0:0:0:
257,192,167506,1,0,0:0:0:0:
257,192,167593,1,8,0:0:0:0:
257,192,167679,1,0,0:0:0:0:
257,192,167765,1,0,0:0:0:0:
257,192,167937,1,8,0:0:0:0:
257,192,168110,1,0,0:0:0:0:
257,192,168196,1,8,0:0:0:0:
257,192,168282,1,0,0:0:0:0:
257,192,168455,1,0,0:0:0:0:
257,192,168627,1,8,0:0:0:0:
257,192,168713,1,0,0:0:0:0:
257,192,168799,1,0,0:0:0:0:
257,192,168886,1,8,0:0:0:0:
257,192,169058,1,8,0:0:0:0:
257,192,169144,1,0,0:0:0:0:
257,192,169317,1,8,0:0:0:0:
257,192,169403,1,8,0:0:0:0:
257,192,169489,1,0,0:0:0:0:
257,192,169575,1,0,0:0:0:0:
257,192,169661,1,8,0:0:0:0:
257,192,169834,1,0,0:0:0:0:
257,192,170006,1,8,0:0:0:0:
257,192,170092,1,8,0:0:0:0:
257,192,170179,1,0,0:0:0:0:
257,192,170265,1,0,0:0:0:0:
257,192,170351,1,8,0:0:0:0:
257,192,170438,1,0,0:0:0:0:
257,192,170524,1,0,0:0:0:0:
257,192,170610,1,0,0:0:0:0:
257,192,170696,1,8,0:0:0:0:
257,192,171041,1,0,0:0:0:0:
257,192,171213,1,0,0:0:0:0:
257,192,171299,1,0,0:0:0:0:
257,192,171386,1,8,0:0:0:0:
257,192,171558,1,0,0:0:0:0:
257,192,171644,1,8,0:0:0:0:
257,192,171817,1,8,0:0:0:0:
257,192,171903,1,0,0:0:0:0:
257,192,172075,1,8,0:0:0:0:
257,192,172248,1,0,0:0:0:0:
257,192,172420,1,0,0:0:0:0:
257,192,172506,1,8,0:0:0:0:
257,192,172592,1,0,0:0:0:0:
257,192,172679,1,0,0:0:0:0:
257,192,172765,1,8,0:0:0:0:
257,192,172937,1,0,0:0:0:0:
257,192,173024,1,8,0:0:0:0:
257,192,173110,1,0,0:0:0:0:
257,192,173282,1,0,0:0:0:0:
257,192,173455,1,8,0:0:0:0:
257,192,173627,1,0,0:0:0:0:
257,192,173713,1,0,0:0:0:0:
257,192,173799,1,8,0:0:0:0:
257,192,173886,1,8,0:0:0:0:
257,192,173972,1,0,0:0:0:0:
257,192,174144,1,8,0:0:0:0:
257,192,174317,1,0,0:0:0:0:
257,192,174403,1,0,0:0:0:0:
257,192,174489,1,8,0:0:0:0:
257,192,174661,1,0,0:0:0:0:
257,192,174834,1,8,0:0:0:0:
257,192,174920,1,0,0:0:0:0:
257,192,175006,1,0,0:0:0:0:
257,192,175092,1,8,0:0:0:0:
257,192,175179,1,0,0:0:0:0:
257,192,175351,1,0,0:0:0:0:
257,192,175523,1,8,0:0:0:0:
257,192,175609,1,0,0:0:0:0:
257,192,175695,1,8,0:0:0:0:
257,192,175781,1,8,0:0:0:0:
257,192,175868,1,0,0:0:0:0:
257,192,175954,1,8,0:0:0:0:
257,192,176040,1,0,0:0:0:0:
257,192,176126,1,0,0:0:0:0:
257,192,176212,1,8,0:0:0:0:
257,192,176558,1,0,0:0:0:0:
257,192,176644,1,8,0:0:0:0:
257,192,176730,1,0,0:0:0:0:
257,192,176817,1,0,0:0:0:0:
257,192,176903,1,8,0:0:0:0:
257,192,177075,1,0,0:0:0:0:
257,192,177161,1,8,0:0:0:0:
257,192,177248,1,0,0:0:0:0:
257,192,177420,1,0,0:0:0:0:
257,192,177592,1,8,0:0:0:0:
257,192,177765,1,0,0:0:0:0:
257,192,177851,1,0,0:0:0:0:
257,192,177937,1,8,0:0:0:0:
257,192,178110,1,0,0:0:0:0:
257,192,178282,1,8,0:0:0:0:
257,192,178455,1,0,0:0:0:0:
257,192,178541,1,8,0:0:0:0:
257,192,178627,1,0,0:0:0:0:
257,192,178799,1,0,0:0:0:0:
257,192,178972,1,8,0:0:0:0:
257,192,179058,1,8,0:0:0:0:
257,192,179144,1,0,0:0:0:0:
257,192,179230,1,0,0:0:0:0:
257,192,179317,1,8,0:0:0:0:
257,192,179489,1,0,0:0:0:0:
257,192,179661,1,8,0:0:0:0:
257,192,179834,1,0,0:0:0:0:
257,192,179920,1,0,0:0:0:0:
257,192,180092,1,8,0:0:0:0:
257,192,180179,1,0,0:0:0:0:
257,192,180351,1,8,0:0:0:0:
257,192,180523,1,0,0:0:0:0:
257,192,180696,1,0,0:0:0:0:
257,192,180868,1,8,0:0:0:0:
257,192,180955,1,0,0:0:0:0:
257,192,181041,1,8,0:0:0:0:
257,192,181127,1,8,0:0:0:0:
257,192,181213,1,0,0:0:0:0:
257,192,181300,1,8,0:0:0:0:
257,192,181386,1,0,0:0:0:0:
257,192,181472,1,0,0:0:0:0:
257,192,181558,1,8,0:0:0:0:
257,192,181731,1,8,0:0:0:0:
257,192,181817,1,0,0:0:0:0:
257,192,181903,1,8,0:0:0:0:
257,192,182075,1,0,0:0:0:0:
257,192,182248,1,8,0:0:0:0:
257,192,182334,1,0,0:0:0:0:
257,192,182420,1,0,0:0:0:0:
257,192,182506,1,8,0:0:0:0:
257,192,182679,1,0,0:0:0:0:
257,192,182765,1,8,0:0:0:0:
257,192,182937,1,0,0:0:0:0:
257,192,183110,1,8,0:0:0:0:
257,192,183282,1,0,0:0:0:0:
257,192,183368,1,8,0:0:0:0:
257,192,183455,1,0,0:0:0:0:
257,192,183541,1,0,0:0:0:0:
257,192,183627,1,0,0:0:0:0:
257,192,183799,1,8,0:0:0:0:
257,192,183972,1,8,0:0:0:0:
257,192,184058,1,8,0:0:0:0:
257,192,184144,1,0,0:0:0:0:
257,192,184317,1,0,0:0:0:0:
257,192,184489,1,8,0:0:0:0:
257,192,184661,1,0,0:0:0:0:
257,192,184748,1,0,0:0:0:0:
257,192,184834,1,0,0:0:0:0:
257,192,184920,1,8,0:0:0:0:
257,192,185006,1,0,0:0:0:0:
257,192,185179,1,8,0:0:0:0:
257,192,185351,1,0,0:0:0:0:
257,192,185437,1,0,0:0:0:0:
257,192,185524,1,8,0:0:0:0:
257,192,185610,1,0,0:0:0:0:
257,192,185696,1,8,0:0:0:0:
257,192,185868,1,0,0:0:0:0:
257,192,186041,1,4,0:0:0:0:
257,192,186386,1,4,0:0:0:0:
257,192,186558,1,4,0:0:0:0:
257,192,186903,1,0,0:0:0:0:
257,192,187075,1,0,0:0:0:0:
257,192,187248,1,8,0:0:0:0:
257,192,187420,1,4,0:0:0:0:
257,192,187938,1,8,0:0:0:0:
257,192,188282,1,0,0:0:0:0:
257,192,188455,1,8,0:0:0:0:
257,192,188541,1,8,0:0:0:0:
257,192,188627,1,0,0:0:0:0:
257,192,188799,1,8,0:0:0:0:
257,192,188972,1,0,0:0:0:0:
257,192,189144,1,8,0:0:0:0:
257,192,189230,1,0,0:0:0:0:
257,192,189317,1,0,0:0:0:0:
257,192,189403,1,8,0:0:0:0:
257,192,189575,1,0,0:0:0:0:
257,192,189661,1,8,0:0:0:0:
257,192,189834,1,0,0:0:0:0:
257,192,190006,1,8,0:0:0:0:
257,192,190092,1,8,0:0:0:0:
257,192,190179,1,0,0:0:0:0:
257,192,190351,1,8,0:0:0:0:
257,192,190524,1,0,0:0:0:0:
257,192,190610,1,0,0:0:0:0:
257,192,190696,1,8,0:0:0:0:
257,192,190782,1,0,0:0:0:0:
257,192,190955,1,8,0:0:0:0:
257,192,191041,1,0,0:0:0:0:
257,192,191213,1,0,0:0:0:0:
257,192,191386,1,8,0:0:0:0:
257,192,191558,1,0,0:0:0:0:
257,192,191644,1,0,0:0:0:0:
257,192,191730,1,8,0:0:0:0:
257,192,191817,1,0,0:0:0:0:
257,192,191989,1,0,0:0:0:0:
257,192,192075,1,8,0:0:0:0:
257,192,192248,1,0,0:0:0:0:
257,192,192334,1,0,0:0:0:0:
257,192,192420,1,8,0:0:0:0:
257,192,192506,1,8,0:0:0:0:
257,192,192592,1,0,0:0:0:0:
257,192,192765,1,8,0:0:0:0:
257,192,192938,1,8,0:0:0:0:
257,192,193110,1,0,0:0:0:0:
257,192,193282,1,0,0:0:0:0:
257,192,193369,1,0,0:0:0:0:
257,192,193455,1,8,0:0:0:0:
257,192,193541,1,8,0:0:0:0:
257,192,193627,1,0,0:0:0:0:
257,192,193713,1,8,0:0:0:0:
257,192,193886,1,0,0:0:0:0:
257,192,193972,1,0,0:0:0:0:
257,192,194058,1,8,0:0:0:0:
257,192,194144,1,0,0:0:0:0:
257,192,194317,1,8,0:0:0:0:
257,192,194489,1,0,0:0:0:0:
257,192,194575,1,8,0:0:0:0:
257,192,194661,1,0,0:0:0:0:
257,192,194748,1,0,0:0:0:0:
257,192,194834,1,8,0:0:0:0:
257,192,195006,1,8,0:0:0:0:
257,192,195092,1,0,0:0:0:0:
257,192,195179,1,0,0:0:0:0:
257,192,195265,1,8,0:0:0:0:
257,192,195437,1,0,0:0:0:0:
257,192,195524,1,8,0:0:0:0:
257,192,195696,1,8,0:0:0:0:
257,192,195868,1,0,0:0:0:0:
257,192,195955,1,8,0:0:0:0:
257,192,196041,1,0,0:0:0:0:
257,192,196213,1,8,0:0:0:0:
257,192,196386,1,8,0:0:0:0:
257,192,196473,1,0,0:0:0:0:
257,192,196644,1,0,0:0:0:0:
257,192,196730,1,8,0:0:0:0:
257,192,196903,1,8,0:0:0:0:
257,192,197075,1,0,0:0:0:0:
257,192,197161,1,0,0:0:0:0:
257,192,197248,1,8,0:0:0:0:
257,192,197420,1,0,0:0:0:0:
257,192,197506,1,8,0:0:0:0:
257,192,197592,1,0,0:0:0:0:
257,192,197765,1,8,0:0:0:0:
257,192,197937,1,0,0:0:0:0:
257,192,198024,1,8,0:0:0:0:
257,192,198110,1,0,0:0:0:0:
257,192,198282,1,8,0:0:0:0:
257,192,198455,1,4,0:0:0:0:
257,192,198972,1,8,0:0:0:0:
257,192,199317,1,0,0:0:0:0:
257,192,199489,1,0,0:0:0:0:
257,192,199575,1,0,0:0:0:0:
257,192,199661,1,8,0:0:0:0:
257,192,199834,1,0,0:0:0:0:
257,192,199920,1,0,0:0:0:0:
257,192,200006,1,8,0:0:0:0:
257,192,200092,1,0,0:0:0:0:
257,192,200179,1,0,0:0:0:0:
257,192,200265,1,0,0:0:0:0:
257,192,200351,1,8,0:0:0:0:
257,192,200524,1,0,0:0:0:0:
257,192,200610,1,8,0:0:0:0:
257,192,200696,1,0,0:0:0:0:
257,192,200868,1,0,0:0:0:0:
257,192,201041,1,8,0:0:0:0:
257,192,201127,1,0,0:0:0:0:
257,192,201213,1,0,0:0:0:0:
257,192,201299,1,0,0:0:0:0:
257,192,201386,1,8,0:0:0:0:
257,192,201558,1,0,0:0:0:0:
257,192,201730,1,8,0:0:0:0:
257,192,201903,1,0,0:0:0:0:
257,192,201989,1,0,0:0:0:0:
257,192,202075,1,8,0:0:0:0:
257,192,202161,1,8,0:0:0:0:
257,192,202248,1,0,0:0:0:0:
257,192,202420,1,8,0:0:0:0:
257,192,202506,1,8,0:0:0:0:
257,192,202592,1,0,0:0:0:0:
257,192,202765,1,0,0:0:0:0:
257,192,202851,1,8,0:0:0:0:
257,192,203023,1,0,0:0:0:0:
257,192,203110,1,8,0:0:0:0:
257,192,203282,1,0,0:0:0:0:
257,192,203368,1,0,0:0:0:0:
257,192,203454,1,8,0:0:0:0:
257,192,203541,1,0,0:0:0:0:
257,192,203627,1,8,0:0:0:0:
257,192,203799,1,8,0:0:0:0:
257,192,203972,1,0,0:0:0:0:
257,192,204144,1,8,0:0:0:0:
257,192,204230,1,8,0:0:0:0:
257,192,204317,1,0,0:0:0:0:
257,192,204403,1,0,0:0:0:0:
257,192,204490,1,8,0:0:0:0:
257,192,204661,1,8,0:0:0:0:
257,192,204747,1,0,0:0:0:0:
257,192,204833,1,8,0:0:0:0:
257,192,205006,1,0,0:0:0:0:
257,192,205179,1,8,0:0:0:0:
257,192,205265,1,8,0:0:0:0:
257,192,205351,1,0,0:0:0:0:
257,192,205437,1,0,0:0:0:0:
257,192,205523,1,8,0:0:0:0:
257,192,205696,1,0,0:0:0:0:
257,192,205868,1,8,0:0:0:0:
257,192,206041,1,0,0:0:0:0:
257,192,206127,1,8,0:0:0:0:
257,192,206213,1,0,0:0:0:0:
257,192,206299,1,0,0:0:0:0:
257,192,206386,1,8,0:0:0:0:
257,192,206558,1,8,0:0:0:0:
257,192,206644,1,8,0:0:0:0:
257,192,206730,1,0,0:0:0:0:
257,192,206903,1,8,0:0:0:0:
257,192,207075,1,0,0:0:0:0:
257,192,207248,1,8,0:0:0:0:
257,192,207334,1,8,0:0:0:0:
257,192,207420,1,0,0:0:0:0:
257,192,207507,1,8,0:0:0:0:
257,192,207593,1,0,0:0:0:0:
257,192,207679,1,8,0:0:0:0:
257,192,207765,1,0,0:0:0:0:
257,192,207851,1,0,0:0:0:0:
257,192,207937,1,8,0:0:0:0:
257,192,208110,1,0,0:0:0:0:
257,192,208282,1,8,0:0:0:0:
257,192,208455,1,0,0:0:0:0:
257,192,208540,1,0,0:0:0:0:
257,192,208627,1,8,0:0:0:0:
257,192,208799,1,8,0:0:0:0:
257,192,208972,1,0,0:0:0:0:
257,192,209058,1,0,0:0:0:0:
257,192,209144,1,8,0:0:0:0:
257,192,209230,1,0,0:0:0:0:
257,192,209317,1,8,0:0:0:0:
257,192,209403,1,8,0:0:0:0:
257,192,209489,1,0,0:0:0:0:
257,192,209575,1,8,0:0:0:0:
257,192,210351,1,8,0:0:0:0:
257,192,210437,1,8,0:0:0:0:
257,192,210523,1,8,0:0:0:0:
257,192,210609,1,8,0:0:0:0:
257,192,210696,1,0,0:0:0:0:
257,192,210782,1,0,0:0:0:0:
257,192,211041,1,4,0:0:0:0:
257,192,211213,1,0,0:0:0:0:
257,192,211299,1,0,0:0:0:0:
257,192,211386,1,8,0:0:0:0:
257,192,211558,1,0,0:0:0:0:
257,192,211644,1,0,0:0:0:0:
257,192,211731,1,8,0:0:0:0:
257,192,211817,1,0,0:0:0:0:
257,192,211903,1,8,0:0:0:0:
257,192,212075,1,8,0:0:0:0:
257,192,212162,1,8,0:0:0:0:
257,192,212248,1,0,0:0:0:0:
257,192,212334,1,8,0:0:0:0:
257,192,212420,1,8,0:0:0:0:
257,192,212506,1,8,0:0:0:0:
257,192,212593,1,0,0:0:0:0:
257,192,212765,1,8,0:0:0:0:
257,192,212937,1,0,0:0:0:0:
257,192,213024,1,8,0:0:0:0:
257,192,213110,1,0,0:0:0:0:
257,192,213196,1,0,0:0:0:0:
257,192,213282,1,8,0:0:0:0:
257,192,213455,1,12,0:0:0:0:
257,192,213627,1,0,0:0:0:0:
257,192,213713,1,0,0:0:0:0:
257,192,213799,1,8,0:0:0:0:
257,192,213972,1,0,0:0:0:0:
257,192,214144,1,8,0:0:0:0:
257,192,214317,1,0,0:0:0:0:
257,192,214403,1,8,0:0:0:0:
257,192,214489,1,0,0:0:0:0:
257,192,214575,1,0,0:0:0:0:
257,192,214662,1,8,0:0:0:0:
257,192,214748,1,0,0:0:0:0:
257,192,214834,1,8,0:0:0:0:
257,192,214920,1,8,0:0:0:0:
257,192,215006,1,0,0:0:0:0:
257,192,215093,1,0,0:0:0:0:
257,192,215179,1,8,0:0:0:0:
257,192,215351,1,0,0:0:0:0:
257,192,215437,1,0,0:0:0:0:
257,192,215524,1,8,0:0:0:0:
257,192,215696,1,0,0:0:0:0:
257,192,215868,1,8,0:0:0:0:
257,192,216041,1,0,0:0:0:0:
257,192,216127,1,8,0:0:0:0:
257,192,216213,1,0,0:0:0:0:
257,192,216299,1,0,0:0:0:0:
257,192,216386,1,8,0:0:0:0:
257,192,216558,1,8,0:0:0:0:
257,192,216730,1,0,0:0:0:0:
257,192,216817,1,0,0:0:0:0:
257,192,216903,1,8,0:0:0:0:
257,192,216989,1,0,0:0:0:0:
257,192,217075,1,8,0:0:0:0:
257,192,217162,1,8,0:0:0:0:
257,192,217248,1,0,0:0:0:0:
257,192,217420,1,0,0:0:0:0:
257,192,217593,1,8,0:0:0:0:
257,192,217679,1,0,0:0:0:0:
257,192,217765,1,8,0:0:0:0:
257,192,217937,1,0,0:0:0:0:
257,192,218110,1,0,0:0:0:0:
257,192,218196,1,0,0:0:0:0:
257,192,218282,1,8,0:0:0:0:
257,192,218368,1,8,0:0:0:0:
257,192,218455,1,0,0:0:0:0:
257,192,218541,1,8,0:0:0:0:
257,192,218627,1,0,0:0:0:0:
257,192,218799,1,0,0:0:0:0:
257,192,218972,1,8,0:0:0:0:
257,192,219058,1,0,0:0:0:0:
257,192,219144,1,8,0:0:0:0:
257,192,219230,1,8,0:0:0:0:
257,192,219317,1,0,0:0:0:0:
257,192,219489,1,0,0:0:0:0:
257,192,219662,1,8,0:0:0:0:
257,192,219834,1,0,0:0:0:0:
257,192,219920,1,8,0:0:0:0:
257,192,220093,1,8,0:0:0:0:
257,192,220179,1,0,0:0:0:0:
257,192,220351,1,8,0:0:0:0:
257,192,220437,1,8,0:0:0:0:
257,192,220524,1,0,0:0:0:0:
257,192,220610,1,0,0:0:0:0:
257,192,220696,1,0,0:0:0:0:
257,192,220868,1,8,0:0:0:0:
257,192,220954,1,0,0:0:0:0:
257,192,221127,1,8,0:0:0:0:
257,192,221213,1,0,0:0:0:0:
257,192,221386,1,8,0:0:0:0:
257,192,221472,1,0,0:0:0:0:
257,192,221645,1,8,0:0:0:0:
257,192,221688,1,8,0:0:0:0:
257,192,221731,1,8,0:0:0:0:
257,192,221817,1,8,0:0:0:0:
257,192,221903,1,0,0:0:0:0:
257,192,222075,1,12,0:0:0:0:
257,192,222248,1,0,0:0:0:0:
257,192,222334,1,0,0:0:0:0:
257,192,222420,1,8,0:0:0:0:
257,192,222593,1,0,0:0:0:0:
257,192,222679,1,0,0:0:0:0:
257,192,222765,1,8,0:0:0:0:
257,192,222851,1,8,0:0:0:0:
257,192,222937,1,0,0:0:0:0:
257,192,223024,1,0,0:0:0:0:
257,192,223110,1,8,0:0:0:0:
257,192,223196,1,0,0:0:0:0:
257,192,223282,1,8,0:0:0:0:
257,192,223455,1,0,0:0:0:0:
257,192,223627,1,0,0:0:0:0:
257,192,223713,1,0,0:0:0:0:
257,192,223799,1,8,0:0:0:0:
257,192,223972,1,0,0:0:0:0:
257,192,224058,1,0,0:0:0:0:
257,192,224144,1,8,0:0:0:0:
257,192,224231,1,0,0:0:0:0:
257,192,224317,1,8,0:0:0:0:
257,192,224489,1,12,0:0:0:0:
257,192,224662,1,0,0:0:0:0:
257,192,224748,1,8,0:0:0:0:
257,192,224834,1,0,0:0:0:0:
257,192,225006,1,0,0:0:0:0:
257,192,225179,1,8,0:0:0:0:
257,192,225351,1,0,0:0:0:0:
257,192,225437,1,0,0:0:0:0:
257,192,225524,1,8,0:0:0:0:
257,192,225696,1,0,0:0:0:0:
257,192,225868,1,8,0:0:0:0:
257,192,225955,1,0,0:0:0:0:
257,192,226041,1,0,0:0:0:0:
257,192,226127,1,0,0:0:0:0:
257,192,226213,1,8,0:0:0:0:
257,192,226386,1,0,0:0:0:0:
257,192,226558,1,8,0:0:0:0:
257,192,226730,1,0,0:0:0:0:
257,192,226817,1,8,0:0:0:0:
257,192,226903,1,0,0:0:0:0:
257,192,226989,1,0,0:0:0:0:
257,192,227075,1,8,0:0:0:0:
257,192,227248,1,8,0:0:0:0:
257,192,227420,1,0,0:0:0:0:
257,192,227593,1,8,0:0:0:0:
257,192,227765,1,0,0:0:0:0:
257,192,227851,1,0,0:0:0:0:
257,192,227937,1,8,0:0:0:0:
257,192,228110,1,0,0:0:0:0:
257,192,228196,1,8,0:0:0:0:
257,192,228282,1,8,0:0:0:0:
257,192,228368,1,8,0:0:0:0:
257,192,228455,1,0,0:0:0:0:
257,192,228541,1,0,0:0:0:0:
257,192,228627,1,8,0:0:0:0:
257,192,228800,1,0,0:0:0:0:
257,192,228972,1,8,0:0:0:0:
257,192,229144,1,8,0:0:0:0:
257,192,229230,1,0,0:0:0:0:
257,192,229317,1,8,0:0:0:0:
257,192,229403,1,8,0:0:0:0:
257,192,229489,1,0,0:0:0:0:
257,192,229575,1,0,0:0:0:0:
257,192,229662,1,8,0:0:0:0:
257,192,229834,1,0,0:0:0:0:
257,192,229920,1,0,0:0:0:0:
257,192,230006,1,8,0:0:0:0:
257,192,230093,1,8,0:0:0:0:
257,192,230179,1,0,0:0:0:0:
257,192,230265,1,0,0:0:0:0:
257,192,230351,1,8,0:0:0:0:
257,192,230524,1,0,0:0:0:0:
257,192,230696,1,8,0:0:0:0:
257,192,230868,1,8,0:0:0:0:
257,192,230955,1,8,0:0:0:0:
257,192,231041,1,0,0:0:0:0:
257,192,231213,1,0,0:0:0:0:
257,192,231386,1,8,0:0:0:0:
257,192,231472,1,8,0:0:0:0:
257,192,231558,1,0,0:0:0:0:
257,192,231644,1,8,0:0:0:0:
257,192,231730,1,0,0:0:0:0:
257,192,231817,1,8,0:0:0:0:
257,192,231903,1,0,0:0:0:0:
257,192,231989,1,0,0:0:0:0:
257,192,232075,1,8,0:0:0:0:
257,192,232248,1,0,0:0:0:0:
257,192,232334,1,8,0:0:0:0:
257,192,232420,1,0,0:0:0:0:
257,192,232506,1,0,0:0:0:0:
257,192,232593,1,8,0:0:0:0:
257,192,232679,1,0,0:0:0:0:
257,192,232765,1,8,0:0:0:0:
257,192,232851,1,8,0:0:0:0:
257,192,232937,1,0,0:0:0:0:
257,192,233110,1,4,0:0:0:0:
257,192,233455,1,8,0:0:0:0:
257,192,233627,1,0,0:0:0:0:
257,192,233713,1,0,0:0:0:0:
257,192,233799,1,0,0:0:0:0:
257,192,233972,1,0,0:0:0:0:
257,192,234144,1,8,0:0:0:0:
257,192,234317,1,0,0:0:0:0:
257,192,234403,1,8,0:0:0:0:
257,192,234489,1,0,0:0:0:0:
257,192,234662,1,0,0:0:0:0:
257,192,234834,1,8,0:0:0:0:
257,192,235006,1,0,0:0:0:0:
257,192,235093,1,8,0:0:0:0:
257,192,235179,1,0,0:0:0:0:
257,192,235265,1,8,0:0:0:0:
257,192,235352,1,0,0:0:0:0:
257,192,235524,1,12,0:0:0:0:
257,192,235868,1,0,0:0:0:0:
257,192,236041,1,0,0:0:0:0:
257,192,236213,1,8,0:0:0:0:
257,192,236386,1,0,0:0:0:0:
257,192,236472,1,0,0:0:0:0:
257,192,236558,1,0,0:0:0:0:
257,192,236730,1,0,0:0:0:0:
257,192,236903,1,8,0:0:0:0:
257,192,236989,1,8,0:0:0:0:
257,192,237075,1,0,0:0:0:0:
257,192,237162,1,0,0:0:0:0:
257,192,237248,1,8,0:0:0:0:
257,192,237420,1,0,0:0:0:0:
257,192,237593,1,8,0:0:0:0:
257,192,237679,1,8,0:0:0:0:
257,192,237765,1,0,0:0:0:0:
257,192,237937,1,8,0:0:0:0:
257,192,238110,1,0,0:0:0:0:
257,192,238282,1,8,0:0:0:0:
257,192,238627,1,0,0:0:0:0:
257,192,238799,1,0,0:0:0:0:
257,192,238972,1,8,0:0:0:0:
257,192,239144,1,0,0:0:0:0:
257,192,239230,1,8,0:0:0:0:
257,192,239316,1,0,0:0:0:0:
257,192,239489,1,0,0:0:0:0:
257,192,239661,1,8,0:0:0:0:
257,192,239834,1,0,0:0:0:0:
257,192,239920,1,0,0:0:0:0:
257,192,240006,1,0,0:0:0:0:
257,192,240179,1,0,0:0:0:0:
257,192,240351,1,8,0:0:0:0:
257,192,240523,1,0,0:0:0:0:
257,192,240610,1,0,0:0:0:0:
257,192,240696,1,8,0:0:0:0:
257,192,240783,1,8,0:0:0:0:
257,192,240869,1,0,0:0:0:0:
257,192,241041,1,8,0:0:0:0:
257,192,241386,1,0,0:0:0:0:
257,192,241559,1,0,0:0:0:0:
257,192,241731,1,8,0:0:0:0:
257,192,241904,1,0,0:0:0:0:
257,192,241990,1,0,0:0:0:0:
257,192,242076,1,0,0:0:0:0:
257,192,242248,1,0,0:0:0:0:
257,192,242421,1,8,0:0:0:0:
257,192,242507,1,8,0:0:0:0:
257,192,242593,1,0,0:0:0:0:
257,192,242680,1,0,0:0:0:0:
257,192,242766,1,8,0:0:0:0:
257,192,242938,1,0,0:0:0:0:
257,192,243111,1,8,0:0:0:0:
257,192,243197,1,0,0:0:0:0:
257,192,243283,1,0,0:0:0:0:
257,192,243455,1,8,0:0:0:0:
257,192,243628,1,0,0:0:0:0:
257,192,243800,1,8,0:0:0:0:
257,192,244144,1,4,0:0:0:0:
257,192,244316,1,0,0:0:0:0:
257,192,244489,1,8,0:0:0:0:
257,192,244661,1,0,0:0:0:0:
257,192,244747,1,8,0:0:0:0:
257,192,244833,1,0,0:0:0:0:
257,192,245006,1,0,0:0:0:0:
257,192,245179,1,8,0:0:0:0:
257,192,245351,1,0,0:0:0:0:
257,192,245437,1,0,0:0:0:0:
257,192,245523,1,0,0:0:0:0:
257,192,245696,1,0,0:0:0:0:
257,192,245868,1,8,0:0:0:0:
257,192,246040,1,0,0:0:0:0:
257,192,246127,1,8,0:0:0:0:
257,192,246213,1,8,0:0:0:0:
257,192,246300,1,8,0:0:0:0:
257,192,246386,1,0,0:0:0:0:
257,192,246558,1,12,0:0:0:0:
257,192,246903,1,0,0:0:0:0:
257,192,247076,1,0,0:0:0:0:
257,192,247248,1,8,0:0:0:0:
257,192,247421,1,0,0:0:0:0:
257,192,247507,1,8,0:0:0:0:
257,192,247593,1,0,0:0:0:0:
257,192,247765,1,0,0:0:0:0:
257,192,247938,1,8,0:0:0:0:
257,192,248024,1,8,0:0:0:0:
257,192,248110,1,0,0:0:0:0:
257,192,248197,1,0,0:0:0:0:
257,192,248283,1,8,0:0:0:0:
257,192,248455,1,0,0:0:0:0:
257,192,248628,1,8,0:0:0:0:
257,192,248714,1,0,0:0:0:0:
257,192,248800,1,0,0:0:0:0:
257,192,248886,1,0,0:0:0:0:
257,192,248972,1,8,0:0:0:0:
257,192,249145,1,0,0:0:0:0:
257,192,249317,1,8,0:0:0:0:
257,192,249662,1,0,0:0:0:0:
257,192,249834,1,0,0:0:0:0:
257,192,250007,1,8,0:0:0:0:
257,192,250179,1,0,0:0:0:0:
257,192,250265,1,8,0:0:0:0:
257,192,250351,1,0,0:0:0:0:
257,192,250524,1,0,0:0:0:0:
257,192,250697,1,8,0:0:0:0:
257,192,250869,1,0,0:0:0:0:
257,192,250955,1,0,0:0:0:0:
257,192,251041,1,8,0:0:0:0:
257,192,251127,1,0,0:0:0:0:
257,192,251213,1,0,0:0:0:0:
257,192,251386,1,8,0:0:0:0:
257,192,251558,1,0,0:0:0:0:
257,192,251645,1,0,0:0:0:0:
257,192,251731,1,8,0:0:0:0:
257,192,251818,1,8,0:0:0:0:
257,192,251904,1,0,0:0:0:0:
257,192,251990,1,0,0:0:0:0:
257,192,252075,1,8,0:0:0:0:
257,192,252420,1,0,0:0:0:0:
257,192,252593,1,0,0:0:0:0:
257,192,252765,1,8,0:0:0:0:
257,192,252938,1,0,0:0:0:0:
257,192,253024,1,8,0:0:0:0:
257,192,253110,1,0,0:0:0:0:
257,192,253282,1,0,0:0:0:0:
257,192,253455,1,8,0:0:0:0:
257,192,253541,1,8,0:0:0:0:
257,192,253627,1,0,0:0:0:0:
257,192,253800,1,0,0:0:0:0:
257,192,253972,1,0,0:0:0:0:
257,192,254144,1,8,0:0:0:0:
257,192,254231,1,0,0:0:0:0:
257,192,254317,1,0,0:0:0:0:
257,192,254403,1,0,0:0:0:0:
257,192,254489,1,8,0:0:0:0:
257,192,254575,1,0,0:0:0:0:
257,192,254662,1,8,0:0:0:0:
257,192,254748,1,8,0:0:0:0:
257,192,254834,1,0,0:0:0:0:
257,192,254920,1,0,0:0:0:0:
257,192,255006,1,8,0:0:0:0:
257,192,255179,1,4,0:0:0:0:
257,192,255351,1,0,0:0:0:0:
257,192,255437,1,0,0:0:0:0:
257,192,255524,1,8,0:0:0:0:
257,192,255696,1,0,0:0:0:0:
257,192,255782,1,0,0:0:0:0:
257,192,255869,1,8,0:0:0:0:
257,192,255955,1,0,0:0:0:0:
257,192,256041,1,8,0:0:0:0:
257,192,256213,1,8,0:0:0:0:
257,192,256300,1,8,0:0:0:0:
257,192,256386,1,0,0:0:0:0:
257,192,256472,1,8,0:0:0:0:
257,192,256558,1,8,0:0:0:0:
257,192,256644,1,8,0:0:0:0:
257,192,256731,1,0,0:0:0:0:
257,192,256903,1,8,0:0:0:0:
257,192,257075,1,0,0:0:0:0:
257,192,257162,1,8,0:0:0:0:
257,192,257248,1,0,0:0:0:0:
257,192,257334,1,0,0:0:0:0:
257,192,257420,1,8,0:0:0:0:
257,192,257593,1,12,0:0:0:0:
257,192,257765,1,0,0:0:0:0:
257,192,257851,1,0,0:0:0:0:
257,192,257937,1,8,0:0:0:0:
257,192,258110,1,0,0:0:0:0:
257,192,258282,1,8,0:0:0:0:
257,192,258455,1,0,0:0:0:0:
257,192,258541,1,8,0:0:0:0:
257,192,258627,1,0,0:0:0:0:
257,192,258713,1,0,0:0:0:0:
257,192,258800,1,8,0:0:0:0:
257,192,258886,1,0,0:0:0:0:
257,192,258972,1,8,0:0:0:0:
257,192,259058,1,8,0:0:0:0:
257,192,259144,1,0,0:0:0:0:
257,192,259231,1,0,0:0:0:0:
257,192,259317,1,8,0:0:0:0:
257,192,259489,1,0,0:0:0:0:
257,192,259575,1,0,0:0:0:0:
257,192,259662,1,8,0:0:0:0:
257,192,259834,1,0,0:0:0:0:
257,192,260006,1,8,0:0:0:0:
257,192,260179,1,0,0:0:0:0:
257,192,260265,1,8,0:0:0:0:
257,192,260351,1,0,0:0:0:0:
257,192,260437,1,0,0:0:0:0:
257,192,260524,1,8,0:0:0:0:
257,192,260696,1,8,0:0:0:0:
257,192,260868,1,0,0:0:0:0:
257,192,260955,1,0,0:0:0:0:
257,192,261041,1,8,0:0:0:0:
257,192,261127,1,0,0:0:0:0:
257,192,261213,1,8,0:0:0:0:
257,192,261300,1,8,0:0:0:0:
257,192,261386,1,0,0:0:0:0:
257,192,261558,1,0,0:0:0:0:
257,192,261731,1,8,0:0:0:0:
257,192,261817,1,0,0:0:0:0:
257,192,261903,1,8,0:0:0:0:
257,192,262075,1,0,0:0:0:0:
257,192,262248,1,0,0:0:0:0:
257,192,262334,1,0,0:0:0:0:
257,192,262420,1,8,0:0:0:0:
257,192,262506,1,8,0:0:0:0:
257,192,262593,1,0,0:0:0:0:
257,192,262679,1,8,0:0:0:0:
257,192,262765,1,0,0:0:0:0:
257,192,262937,1,0,0:0:0:0:
257,192,263110,1,8,0:0:0:0:
257,192,263196,1,0,0:0:0:0:
257,192,263282,1,8,0:0:0:0:
257,192,263368,1,8,0:0:0:0:
257,192,263455,1,0,0:0:0:0:
257,192,263627,1,0,0:0:0:0:
257,192,263800,1,8,0:0:0:0:
257,192,263972,1,0,0:0:0:0:
257,192,264058,1,8,0:0:0:0:
257,192,264231,1,8,0:0:0:0:
257,192,264317,1,0,0:0:0:0:
257,192,264489,1,8,0:0:0:0:
257,192,264575,1,8,0:0:0:0:
257,192,264662,1,0,0:0:0:0:
257,192,264748,1,0,0:0:0:0:
257,192,264834,1,0,0:0:0:0:
257,192,265006,1,8,0:0:0:0:
257,192,265092,1,0,0:0:0:0:
257,192,265265,1,8,0:0:0:0:
257,192,265351,1,0,0:0:0:0:
257,192,265524,1,8,0:0:0:0:
257,192,265610,1,0,0:0:0:0:
257,192,265782,1,8,0:0:0:0:
257,192,265825,1,8,0:0:0:0:
257,192,265869,1,8,0:0:0:0:
257,192,265955,1,8,0:0:0:0:
257,192,266041,1,0,0:0:0:0:
257,192,266213,1,12,0:0:0:0:
257,192,266386,1,0,0:0:0:0:
257,192,266472,1,0,0:0:0:0:
257,192,266558,1,8,0:0:0:0:
257,192,266644,1,0,0:0:0:0:
257,192,266731,1,8,0:0:0:0:
257,192,266817,1,8,0:0:0:0:
257,192,266903,1,0,0:0:0:0:
257,192,266989,1,8,0:0:0:0:
257,192,267075,1,0,0:0:0:0:
257,192,267162,1,0,0:0:0:0:
257,192,267248,1,8,0:0:0:0:
257,192,267334,1,0,0:0:0:0:
257,192,267420,1,8,0:0:0:0:
257,192,267593,1,0,0:0:0:0:
257,192,267765,1,0,0:0:0:0:
257,192,267851,1,0,0:0:0:0:
257,192,267937,1,8,0:0:0:0:
257,192,268024,1,8,0:0:0:0:
257,192,268110,1,0,0:0:0:0:
257,192,268196,1,8,0:0:0:0:
257,192,268282,1,0,0:0:0:0:
257,192,268368,1,0,0:0:0:0:
257,192,268455,1,8,0:0:0:0:
257,192,268627,1,12,0:0:0:0:
257,192,268800,1,0,0:0:0:0:
257,192,268886,1,8,0:0:0:0:
257,192,268972,1,0,0:0:0:0:
257,192,269144,1,0,0:0:0:0:
257,192,269317,1,8,0:0:0:0:
257,192,269489,1,0,0:0:0:0:
257,192,269575,1,0,0:0:0:0:
257,192,269662,1,8,0:0:0:0:
257,192,269834,1,0,0:0:0:0:
257,192,270006,1,8,0:0:0:0:
257,192,270093,1,0,0:0:0:0:
257,192,270179,1,0,0:0:0:0:
257,192,270265,1,0,0:0:0:0:
257,192,270351,1,8,0:0:0:0:
257,192,270524,1,0,0:0:0:0:
257,192,270696,1,8,0:0:0:0:
257,192,270868,1,0,0:0:0:0:
257,192,270955,1,8,0:0:0:0:
257,192,271041,1,0,0:0:0:0:
257,192,271127,1,0,0:0:0:0:
257,192,271213,1,8,0:0:0:0:
257,192,271386,1,8,0:0:0:0:
257,192,271472,1,8,0:0:0:0:
257,192,271558,1,0,0:0:0:0:
257,192,271731,1,8,0:0:0:0:
257,192,271903,1,0,0:0:0:0:
257,192,271989,1,0,0:0:0:0:
257,192,272075,1,8,0:0:0:0:
257,192,272248,1,0,0:0:0:0:
257,192,272334,1,8,0:0:0:0:
257,192,272420,1,8,0:0:0:0:
257,192,272506,1,8,0:0:0:0:
257,192,272593,1,0,0:0:0:0:
257,192,272679,1,0,0:0:0:0:
257,192,272765,1,8,0:0:0:0:
257,192,272937,1,0,0:0:0:0:
257,192,273110,1,8,0:0:0:0:
257,192,273282,1,8,0:0:0:0:
257,192,273368,1,0,0:0:0:0:
257,192,273455,1,8,0:0:0:0:
257,192,273541,1,8,0:0:0:0:
257,192,273628,1,0,0:0:0:0:
257,192,273713,1,8,0:0:0:0:
257,192,273800,1,0,0:0:0:0:
257,192,273886,1,0,0:0:0:0:
257,192,273972,1,8,0:0:0:0:
257,192,274058,1,0,0:0:0:0:
257,192,274144,1,8,0:0:0:0:
257,192,274317,1,0,0:0:0:0:
257,192,274403,1,0,0:0:0:0:
257,192,274489,1,8,0:0:0:0:
257,192,274662,1,0,0:0:0:0:
257,192,274834,1,8,0:0:0:0:
257,192,275006,1,8,0:0:0:0:
257,192,275093,1,8,0:0:0:0:
257,192,275179,1,0,0:0:0:0:
257,192,275351,1,0,0:0:0:0:
257,192,275524,1,8,0:0:0:0:
257,192,275610,1,8,0:0:0:0:
257,192,275696,1,0,0:0:0:0:
257,192,275782,1,8,0:0:0:0:
257,192,275868,1,0,0:0:0:0:
257,192,275955,1,0,0:0:0:0:
257,192,276041,1,8,0:0:0:0:
257,192,276127,1,0,0:0:0:0:
257,192,276213,1,8,0:0:0:0:
257,192,276386,1,0,0:0:0:0:
257,192,276472,1,8,0:0:0:0:
257,192,276558,1,0,0:0:0:0:
257,192,276644,1,0,0:0:0:0:
257,192,276731,1,8,0:0:0:0:
257,192,276817,1,0,0:0:0:0:
257,192,276903,1,8,0:0:0:0:
257,192,276989,1,8,0:0:0:0:
257,192,277075,1,0,0:0:0:0:
257,192,277248,1,4,0:0:0:0:
257,192,277593,1,8,0:0:0:0:
257,192,277765,1,0,0:0:0:0:
257,192,277851,1,0,0:0:0:0:
257,192,277937,1,0,0:0:0:0:
257,192,278110,1,0,0:0:0:0:
257,192,278282,1,8,0:0:0:0:
257,192,278455,1,0,0:0:0:0:
257,192,278541,1,8,0:0:0:0:
257,192,278627,1,0,0:0:0:0:
257,192,278800,1,0,0:0:0:0:
257,192,278972,1,8,0:0:0:0:
257,192,279144,1,0,0:0:0:0:
257,192,279231,1,8,0:0:0:0:
257,192,279317,1,0,0:0:0:0:
257,192,279403,1,8,0:0:0:0:
257,192,279489,1,0,0:0:0:0:
257,192,279662,1,12,0:0:0:0:
257,192,280006,1,0,0:0:0:0:
257,192,280179,1,0,0:0:0:0:
257,192,280351,1,8,0:0:0:0:
257,192,280524,1,0,0:0:0:0:
257,192,280610,1,0,0:0:0:0:
257,192,280696,1,0,0:0:0:0:
257,192,280868,1,0,0:0:0:0:
257,192,281041,1,8,0:0:0:0:
257,192,281127,1,8,0:0:0:0:
257,192,281213,1,0,0:0:0:0:
257,192,281300,1,0,0:0:0:0:
257,192,281386,1,8,0:0:0:0:
257,192,281558,1,0,0:0:0:0:
257,192,281731,1,8,0:0:0:0:
257,192,281817,1,8,0:0:0:0:
257,192,281903,1,0,0:0:0:0:
257,192,282075,1,8,0:0:0:0:
257,192,282248,1,0,0:0:0:0:
257,192,282420,1,8,0:0:0:0:
257,192,282765,1,0,0:0:0:0:
257,192,282937,1,0,0:0:0:0:
257,192,283110,1,8,0:0:0:0:
257,192,283282,1,0,0:0:0:0:
257,192,283368,1,8,0:0:0:0:
257,192,283454,1,0,0:0:0:0:
257,192,283627,1,0,0:0:0:0:
257,192,283799,1,8,0:0:0:0:
257,192,283972,1,0,0:0:0:0:
257,192,284058,1,0,0:0:0:0:
257,192,284144,1,0,0:0:0:0:
257,192,284317,1,0,0:0:0:0:
257,192,284489,1,8,0:0:0:0:
257,192,284661,1,0,0:0:0:0:
257,192,284748,1,0,0:0:0:0:
257,192,284834,1,8,0:0:0:0:
257,192,284921,1,8,0:0:0:0:
257,192,285007,1,0,0:0:0:0:
257,192,285179,1,8,0:0:0:0:
257,192,285524,1,0,0:0:0:0:
257,192,285697,1,0,0:0:0:0:
257,192,285869,1,8,0:0:0:0:
257,192,286042,1,0,0:0:0:0:
257,192,286128,1,0,0:0:0:0:
257,192,286214,1,0,0:0:0:0:
257,192,286386,1,0,0:0:0:0:
257,192,286559,1,8,0:0:0:0:
257,192,286645,1,8,0:0:0:0:
257,192,286731,1,0,0:0:0:0:
257,192,286818,1,0,0:0:0:0:
257,192,286904,1,8,0:0:0:0:
257,192,287076,1,0,0:0:0:0:
257,192,287249,1,8,0:0:0:0:
257,192,287335,1,0,0:0:0:0:
257,192,287421,1,0,0:0:0:0:
257,192,287507,1,8,0:0:0:0:
257,192,287593,1,0,0:0:0:0:
257,192,287766,1,0,0:0:0:0:
257,192,287938,1,8,0:0:0:0:
257,192,288282,1,4,0:0:0:0:
257,192,288454,1,0,0:0:0:0:
257,192,288627,1,8,0:0:0:0:
257,192,288799,1,0,0:0:0:0:
257,192,288885,1,8,0:0:0:0:
257,192,288971,1,0,0:0:0:0:
257,192,289144,1,0,0:0:0:0:
257,192,289317,1,8,0:0:0:0:
257,192,289489,1,0,0:0:0:0:
257,192,289575,1,0,0:0:0:0:
257,192,289661,1,0,0:0:0:0:
257,192,289834,1,0,0:0:0:0:
257,192,290006,1,8,0:0:0:0:
257,192,290178,1,0,0:0:0:0:
257,192,290265,1,8,0:0:0:0:
257,192,290438,1,8,0:0:0:0:
257,192,290524,1,0,0:0:0:0:
257,192,290696,1,12,0:0:0:0:
257,192,291041,1,0,0:0:0:0:
257,192,291214,1,0,0:0:0:0:
257,192,291386,1,8,0:0:0:0:
257,192,291559,1,0,0:0:0:0:
257,192,291645,1,0,0:0:0:0:
257,192,291731,1,0,0:0:0:0:
257,192,291903,1,0,0:0:0:0:
257,192,292076,1,8,0:0:0:0:
257,192,292162,1,8,0:0:0:0:
257,192,292248,1,0,0:0:0:0:
257,192,292335,1,0,0:0:0:0:
257,192,292421,1,8,0:0:0:0:
257,192,292593,1,0,0:0:0:0:
257,192,292766,1,8,0:0:0:0:
257,192,292852,1,0,0:0:0:0:
257,192,292938,1,0,0:0:0:0:
257,192,293024,1,0,0:0:0:0:
257,192,293110,1,8,0:0:0:0:
257,192,293283,1,0,0:0:0:0:
257,192,293455,1,8,0:0:0:0:
257,192,293800,1,0,0:0:0:0:
257,192,293972,1,0,0:0:0:0:
257,192,294145,1,8,0:0:0:0:
257,192,294317,1,0,0:0:0:0:
257,192,294403,1,8,0:0:0:0:
257,192,294489,1,0,0:0:0:0:
257,192,294662,1,0,0:0:0:0:
257,192,294835,1,8,0:0:0:0:
257,192,295007,1,0,0:0:0:0:
257,192,295093,1,0,0:0:0:0:
257,192,295179,1,8,0:0:0:0:
257,192,295265,1,8,0:0:0:0:
257,192,295351,1,0,0:0:0:0:
257,192,295524,1,8,0:0:0:0:
257,192,295696,1,0,0:0:0:0:
257,192,295783,1,0,0:0:0:0:
257,192,295869,1,8,0:0:0:0:
257,192,295956,1,8,0:0:0:0:
257,192,296042,1,0,0:0:0:0:
257,192,296128,1,0,0:0:0:0:
257,192,296213,1,8,0:0:0:0:
257,192,296558,1,0,0:0:0:0:
257,192,296731,1,0,0:0:0:0:
257,192,296903,1,8,0:0:0:0:
257,192,297076,1,0,0:0:0:0:
257,192,297162,1,8,0:0:0:0:
257,192,297248,1,0,0:0:0:0:
257,192,297420,1,0,0:0:0:0:
257,192,297593,1,8,0:0:0:0:
257,192,297679,1,0,0:0:0:0:
257,192,297765,1,8,0:0:0:0:
257,192,297852,1,8,0:0:0:0:
257,192,297938,1,0,0:0:0:0:
257,192,298110,1,0,0:0:0:0:
257,192,298282,1,8,0:0:0:0:
257,192,298455,1,0,0:0:0:0:
257,192,298541,1,8,0:0:0:0:
257,192,298627,1,0,0:0:0:0:
257,192,298713,1,8,0:0:0:0:
257,192,298800,1,0,0:0:0:0:
257,192,298972,1,8,0:0:0:0:
257,192,299317,1,4,0:0:0:0:
257,192,299489,1,0,0:0:0:0:
257,192,299662,1,8,0:0:0:0:
257,192,299834,1,0,0:0:0:0:
257,192,299920,1,8,0:0:0:0:
257,192,300006,1,0,0:0:0:0:
257,192,300179,1,0,0:0:0:0:
257,192,300351,1,8,0:0:0:0:
257,192,300524,1,0,0:0:0:0:
257,192,300696,1,8,0:0:0:0:
257,192,300782,1,8,0:0:0:0:
257,192,300869,1,0,0:0:0:0:
257,192,301041,1,8,0:0:0:0:
257,192,301213,1,0,0:0:0:0:
257,192,301300,1,8,0:0:0:0:
257,192,301386,1,0,0:0:0:0:
257,192,301473,1,8,0:0:0:0:
257,192,301559,1,0,0:0:0:0:
257,192,301731,1,8,0:0:0:0:
257,192,302075,1,0,0:0:0:0:
257,192,302248,1,0,0:0:0:0:
257,192,302420,1,8,0:0:0:0:
257,192,302593,1,0,0:0:0:0:
257,192,302679,1,0,0:0:0:0:
257,192,302765,1,0,0:0:0:0:
257,192,302937,1,0,0:0:0:0:
257,192,303110,1,8,0:0:0:0:
257,192,303196,1,8,0:0:0:0:
257,192,303282,1,0,0:0:0:0:
257,192,303369,1,0,0:0:0:0:
257,192,303455,1,8,0:0:0:0:
257,192,303627,1,0,0:0:0:0:
257,192,303800,1,8,0:0:0:0:
257,192,303886,1,8,0:0:0:0:
257,192,303972,1,0,0:0:0:0:
257,192,304144,1,8,0:0:0:0:
257,192,304317,1,0,0:0:0:0:
257,192,304489,1,8,0:0:0:0:
257,192,304575,1,0,0:0:0:0:
257,192,304662,1,8,0:0:0:0:
257,192,304834,1,0,0:0:0:0:
257,192,305006,1,0,0:0:0:0:
257,192,305179,1,8,0:0:0:0:
257,192,305351,1,0,0:0:0:0:
257,192,305437,1,8,0:0:0:0:
257,192,305523,1,0,0:0:0:0:
257,192,305696,1,0,0:0:0:0:
257,192,305868,1,8,0:0:0:0:
257,192,306041,1,0,0:0:0:0:
257,192,306127,1,0,0:0:0:0:
257,192,306213,1,0,0:0:0:0:
257,192,306386,1,0,0:0:0:0:
257,192,306558,1,8,0:0:0:0:
257,192,306730,1,0,0:0:0:0:
257,192,306817,1,0,0:0:0:0:
257,192,306990,1,8,0:0:0:0:
257,192,307076,1,0,0:0:0:0:
257,192,307248,1,8,0:0:0:0:
257,192,307593,1,0,0:0:0:0:
257,192,307766,1,0,0:0:0:0:
257,192,307938,1,8,0:0:0:0:
257,192,308111,1,0,0:0:0:0:
257,192,308197,1,0,0:0:0:0:
257,192,308283,1,0,0:0:0:0:
257,192,308455,1,0,0:0:0:0:
257,192,308628,1,8,0:0:0:0:
257,192,308714,1,8,0:0:0:0:
257,192,308800,1,0,0:0:0:0:
257,192,308887,1,0,0:0:0:0:
257,192,308973,1,0,0:0:0:0:
257,192,309144,1,8,0:0:0:0:
257,192,309231,1,0,0:0:0:0:
257,192,309403,1,8,0:0:0:0:
257,192,309489,1,0,0:0:0:0:
257,192,309662,1,8,0:0:0:0:
257,192,309748,1,0,0:0:0:0:
257,192,309920,1,8,0:0:0:0:
257,192,309963,1,8,0:0:0:0:
257,192,310007,1,8,0:0:0:0:
257,192,310093,1,8,0:0:0:0:
257,192,310179,1,0,0:0:0:0:
257,192,310351,1,4,0:0:0:0:
257,192,310523,1,0,0:0:0:0:
257,192,310696,1,8,0:0:0:0:
257,192,310868,1,0,0:0:0:0:
257,192,310954,1,8,0:0:0:0:
257,192,311040,1,0,0:0:0:0:
257,192,311213,1,0,0:0:0:0:
257,192,311386,1,8,0:0:0:0:
257,192,311558,1,0,0:0:0:0:
257,192,311644,1,0,0:0:0:0:
257,192,311730,1,0,0:0:0:0:
257,192,311903,1,0,0:0:0:0:
257,192,312075,1,8,0:0:0:0:
257,192,312247,1,0,0:0:0:0:
257,192,312334,1,0,0:0:0:0:
257,192,312420,1,8,0:0:0:0:
257,192,312507,1,0,0:0:0:0:
257,192,312593,1,0,0:0:0:0:
257,192,312679,1,0,0:0:0:0:
257,192,312765,1,8,0:0:0:0:
257,192,313110,1,0,0:0:0:0:
257,192,313283,1,0,0:0:0:0:
257,192,313455,1,8,0:0:0:0:
257,192,313628,1,0,0:0:0:0:
257,192,313714,1,8,0:0:0:0:
257,192,313800,1,0,0:0:0:0:
257,192,313972,1,0,0:0:0:0:
257,192,314145,1,8,0:0:0:0:
257,192,314231,1,8,0:0:0:0:
257,192,314317,1,0,0:0:0:0:
257,192,314404,1,0,0:0:0:0:
257,192,314490,1,8,0:0:0:0:
257,192,314662,1,0,0:0:0:0:
257,192,314835,1,8,0:0:0:0:
257,192,314921,1,0,0:0:0:0:
257,192,315007,1,0,0:0:0:0:
257,192,315093,1,0,0:0:0:0:
257,192,315179,1,8,0:0:0:0:
257,192,315352,1,0,0:0:0:0:
257,192,315524,1,8,0:0:0:0:
257,192,315869,1,0,0:0:0:0:
257,192,316041,1,0,0:0:0:0:
257,192,316214,1,8,0:0:0:0:
257,192,316386,1,0,0:0:0:0:
257,192,316472,1,8,0:0:0:0:
257,192,316558,1,0,0:0:0:0:
257,192,316731,1,0,0:0:0:0:
257,192,316904,1,8,0:0:0:0:
257,192,317076,1,0,0:0:0:0:
257,192,317162,1,0,0:0:0:0:
257,192,317248,1,8,0:0:0:0:
257,192,317334,1,8,0:0:0:0:
257,192,317420,1,0,0:0:0:0:
257,192,317593,1,8,0:0:0:0:
257,192,317765,1,0,0:0:0:0:
257,192,317852,1,0,0:0:0:0:
257,192,317938,1,8,0:0:0:0:
257,192,318025,1,8,0:0:0:0:
257,192,318111,1,0,0:0:0:0:
257,192,318196,1,0,0:0:0:0:
257,192,318282,1,8,0:0:0:0:
257,192,318627,1,0,0:0:0:0:
257,192,318800,1,0,0:0:0:0:
257,192,318972,1,8,0:0:0:0:
257,192,319145,1,0,0:0:0:0:
257,192,319231,1,8,0:0:0:0:
257,192,319317,1,0,0:0:0:0:
257,192,319489,1,0,0:0:0:0:
257,192,319662,1,8,0:0:0:0:
257,192,319748,1,8,0:0:0:0:
257,192,319834,1,0,0:0:0:0:
257,192,319921,1,0,0:0:0:0:
257,192,320007,1,0,0:0:0:0:
257,192,320179,1,0,0:0:0:0:
257,192,320351,1,8,0:0:0:0:
257,192,320524,1,0,0:0:0:0:
257,192,320696,1,8,0:0:0:0:
257,192,320782,1,8,0:0:0:0:
257,192,320869,1,0,0:0:0:0:
257,192,320955,1,0,0:0:0:0:
257,192,321041,1,0,0:0:0:0:
257,192,321127,1,8,0:0:0:0:
257,192,321213,1,0,0:0:0:0:
257,192,321386,1,4,0:0:0:0:
257,192,321731,1,8,0:0:0:0:
257,192,321903,1,0,0:0:0:0:
257,192,321989,1,0,0:0:0:0:
257,192,322075,1,0,0:0:0:0:
257,192,322248,1,0,0:0:0:0:
257,192,322420,1,8,0:0:0:0:
257,192,322765,1,0,0:0:0:0:
257,192,322937,1,0,0:0:0:0:
257,192,323109,1,8,0:0:0:0:
257,192,323282,1,0,0:0:0:0:
257,192,323368,1,0,0:0:0:0:
257,192,323455,1,0,0:0:0:0:
257,192,323627,1,0,0:0:0:0:
257,192,323800,1,8,0:0:0:0:
257,192,324144,1,0,0:0:0:0:
257,192,324317,1,0,0:0:0:0:
257,192,324489,1,8,0:0:0:0:
257,192,324662,1,0,0:0:0:0:
257,192,324748,1,8,0:0:0:0:
257,192,324834,1,0,0:0:0:0:
257,192,325007,1,0,0:0:0:0:
257,192,325179,1,8,0:0:0:0:
257,192,325524,1,0,0:0:0:0:
257,192,325696,1,0,0:0:0:0:
257,192,325869,1,8,0:0:0:0:
257,192,326041,1,0,0:0:0:0:
257,192,326127,1,8,0:0:0:0:
257,192,326213,1,0,0:0:0:0:
257,192,326300,1,8,0:0:0:0:
257,192,326386,1,0,0:0:0:0:
257,192,326558,1,8,0:0:0:0:
257,192,326903,1,0,0:0:0:0:
257,192,327075,1,0,0:0:0:0:
257,192,327248,1,8,0:0:0:0:
257,192,327420,1,0,0:0:0:0:
257,192,327507,1,0,0:0:0:0:
257,192,327593,1,8,0:0:0:0:
257,192,327765,1,0,0:0:0:0:
257,192,327938,1,8,0:0:0:0:
257,192,328282,1,0,0:0:0:0:
257,192,328455,1,0,0:0:0:0:
257,192,328627,1,8,0:0:0:0:
257,192,328800,1,0,0:0:0:0:
257,192,328886,1,8,0:0:0:0:
257,192,328972,1,0,0:0:0:0:
257,192,329144,1,0,0:0:0:0:
257,192,329317,1,8,0:0:0:0:
257,192,329662,1,0,0:0:0:0:
257,192,329834,1,0,0:0:0:0:
257,192,330007,1,8,0:0:0:0:
257,192,330179,1,0,0:0:0:0:
257,192,330265,1,0,0:0:0:0:
257,192,330351,1,8,0:0:0:0:
257,192,330438,1,8,0:0:0:0:
257,192,330524,1,0,0:0:0:0:
257,192,330696,1,8,0:0:0:0:
257,192,331041,1,0,0:0:0:0:
257,192,331213,1,0,0:0:0:0:
257,192,331300,1,0,0:0:0:0:
257,192,331386,1,8,0:0:0:0:
257,192,331558,1,0,0:0:0:0:
257,192,331731,1,0,0:0:0:0:
257,192,331817,1,8,0:0:0:0:
257,192,331903,1,0,0:0:0:0:
257,192,332075,1,8,0:0:0:0:
257,192,332420,1,4,0:0:0:0:
257,192,332593,1,0,0:0:0:0:
257,192,332765,1,8,0:0:0:0:
257,192,332938,1,8,0:0:0:0:
257,192,333282,1,0,0:0:0:0:
257,192,333455,1,8,0:0:0:0:
257,192,333800,1,0,0:0:0:0:
257,192,333972,1,0,0:0:0:0:
257,192,334144,1,8,0:0:0:0:
257,192,334317,1,0,0:0:0:0:
257,192,334662,1,0,0:0:0:0:
257,192,334834,1,8,0:0:0:0:
257,192,335179,1,0,0:0:0:0:
257,192,335524,1,8,0:0:0:0:
257,192,335696,1,0,0:0:0:0:
257,192,336041,1,0,0:0:0:0:
257,192,336213,1,8,0:0:0:0:
257,192,336558,1,0,0:0:0:0:
257,192,336731,1,0,0:0:0:0:
257,192,336903,1,8,0:0:0:0:
257,192,337075,1,0,0:0:0:0:
257,192,337420,1,0,0:0:0:0:
257,192,337593,1,8,0:0:0:0:
257,192,337938,1,0,0:0:0:0:
257,192,338282,1,8,0:0:0:0:
257,192,338800,1,0,0:0:0:0:
257,192,338973,1,8,0:0:0:0:
257,192,339317,1,0,0:0:0:0:
257,192,339662,1,8,0:0:0:0:
257,192,340179,1,0,0:0:0:0:
257,192,340351,1,8,0:0:0:0:
257,192,340696,1,0,0:0:0:0:
257,192,341041,1,8,0:0:0:0:
257,192,341213,1,0,0:0:0:0:
257,192,341558,1,0,0:0:0:0:
257,192,341731,1,8,0:0:0:0:
257,192,342075,1,0,0:0:0:0:
257,192,342248,1,0,0:0:0:0:
257,192,342420,1,8,0:0:0:0:
257,192,342593,1,0,0:0:0:0:
257,192,342938,1,0,0:0:0:0:
257,192,343110,1,8,0:0:0:0:
257,192,343455,1,12,0:0:0:0:
