osu file format v14

[General]
AudioFilename: audio.mp3
AudioLeadIn: 0
PreviewTime: 56541
Countdown: 0
SampleSet: Normal
StackLeniency: 0.7
Mode: 1
LetterboxInBreaks: 0
WidescreenStoryboard: 0

[Editor]
DistanceSpacing: 1
BeatDivisor: 8
GridSize: 16
TimelineZoom: 1

[Metadata]
Title:Ao 100 Shoku (TV Size)
TitleUnicode:青100色 (TV Size)
Artist:Itou Miku
ArtistUnicode:伊藤美来
Creator:Yasuho
Version:100 Colors
Source:古見さんは、コミュ症です。
Tags:SOBEX tyistiana pop 古見硝子 komi shouko komi-san wa, komyushou desu. desu communication can't communicate 2nd second season jpop j-pop opening anime japanese ito 2期 two komisan commushou Hyaku 百 青百色 hundred colours
BeatmapID:3766088
BeatmapSetID:1834462

[Difficulty]
HPDrainRate:5
CircleSize:7
OverallDifficulty:5.5
ApproachRate:10
SliderMultiplier:1.4
SliderTickRate:1

[Events]
//Background and Video events
0,0,"94137668_p0.jpg",0,-20
Video,-350,"output.mp4"
//Break Periods
//Storyboard Layer 0 (Background)
//Storyboard Layer 1 (Fail)
//Storyboard Layer 2 (Pass)
//Storyboard Layer 3 (Foreground)
//Storyboard Layer 4 (Overlay)
//Storyboard Sound Samples

[TimingPoints]
-7334,500,4,1,0,55,1,0
6603,-100,4,1,0,35,0,0
8603,-100,4,1,0,55,0,0
52666,-100,4,1,0,65,0,0
54666,-100,4,1,0,70,0,0
55166,-96.1538461538461,4,1,0,70,0,0
55666,-92.5925925925926,4,1,0,75,0,0
55916,-90.9090909090909,4,1,0,75,0,0
56166,-89.2857142857143,4,1,0,75,0,0
56666,-86.2068965517241,4,1,0,85,0,1
71541,-86.2068965517241,4,1,0,85,0,1
71666,-87.719298245614,4,1,0,85,0,1
71916,-90.9090909090909,4,1,0,85,0,1
72041,-92.5925925925926,4,1,0,85,0,1
72166,-94.3396226415094,4,1,0,85,0,1
72416,-98.0392156862745,4,1,0,85,0,1
72666,-100,4,1,0,75,0,0
80666,-100,4,1,0,85,0,1
86666,-96.1538461538461,4,1,0,85,0,1
86916,-92.5925925925926,4,1,0,85,0,1
87166,-89.2857142857143,4,1,0,85,0,1
87416,-86.2068965517241,4,1,0,85,0,1
87666,-83.3333333333333,4,1,0,85,0,1
87916,-80.6451612903226,4,1,0,85,0,1
88166,-78.125,4,1,0,85,0,1
88416,-75.7575757575758,4,1,0,85,0,0

[HitObjects]
211,192,416,5,0,0:0:0:0:
226,182,541,1,0,0:0:0:0:
222,187,666,1,8,0:0:0:0:
233,188,916,1,0,0:0:0:0:
233,188,1166,1,8,0:0:0:0:
233,188,1416,1,8,0:0:0:0:
233,188,2166,1,0,0:0:0:0:
226,172,2666,1,0,0:0:0:0:
233,173,2916,1,8,0:0:0:0:
234,173,3166,1,8,0:0:0:0:
234,173,3416,1,0,0:0:0:0:
152,143,4166,1,8,0:0:0:0:
152,143,4291,1,8,0:0:0:0:
213,73,4416,1,0,0:0:0:0:
257,205,4541,1,0,0:0:0:0:
257,205,4666,1,12,0:0:0:0:
257,205,4916,1,0,0:0:0:0:
257,205,5166,1,8,0:0:0:0:
257,205,5416,1,4,0:0:0:0:
261,204,5916,1,8,0:0:0:0:
261,205,6166,1,8,0:0:0:0:
262,205,6416,1,4,0:0:0:0:
256,192,6666,12,0,8416,0:0:0:0:
246,179,8666,5,4,0:0:0:0:
211,172,9166,1,8,0:0:0:0:
275,179,9416,1,0,0:0:0:0:
144,145,9666,1,8,0:0:0:0:
180,152,9916,1,0,0:0:0:0:
186,153,10166,1,8,0:0:0:0:
187,153,10416,1,8,0:0:0:0:
187,153,10666,1,0,0:0:0:0:
221,156,11041,1,0,0:0:0:0:
207,160,11416,1,8,0:0:0:0:
207,160,11666,1,0,0:0:0:0:
198,93,11916,1,0,0:0:0:0:
187,163,12041,1,8,0:0:0:0:
211,160,12166,1,0,0:0:0:0:
218,144,12416,1,8,0:0:0:0:
218,144,12666,1,0,0:0:0:0:
218,144,13166,1,8,0:0:0:0:
218,144,13416,1,0,0:0:0:0:
210,225,13666,1,0,0:0:0:0:
210,225,14166,1,0,0:0:0:0:
218,144,14416,1,0,0:0:0:0:
218,144,14666,1,8,0:0:0:0:
218,144,14916,1,8,0:0:0:0:
218,144,15166,1,0,0:0:0:0:
218,144,15416,1,8,0:0:0:0:
213,227,15666,1,0,0:0:0:0:
213,227,16166,1,8,0:0:0:0:
162,177,16666,1,0,0:0:0:0:
146,132,16791,1,8,0:0:0:0:
351,191,17041,1,8,0:0:0:0:
292,192,17166,1,0,0:0:0:0:
292,192,17416,1,8,0:0:0:0:
292,192,17666,1,0,0:0:0:0:
293,192,17916,1,8,0:0:0:0:
292,192,18166,1,8,0:0:0:0:
296,192,18416,1,0,0:0:0:0:
296,192,18666,1,8,0:0:0:0:
296,192,18916,1,8,0:0:0:0:
297,192,19166,1,0,0:0:0:0:
296,192,19416,1,0,0:0:0:0:
296,192,19666,1,8,0:0:0:0:
297,192,20166,1,8,0:0:0:0:
296,192,20666,1,0,0:0:0:0:
222,224,20916,1,8,0:0:0:0:
226,223,21166,1,8,0:0:0:0:
229,223,21416,1,0,0:0:0:0:
231,223,21666,1,8,0:0:0:0:
234,223,21916,1,8,0:0:0:0:
169,157,22166,1,0,0:0:0:0:
191,157,22416,1,0,0:0:0:0:
196,157,22666,1,8,0:0:0:0:
203,157,22916,1,0,0:0:0:0:
203,157,23041,1,0,0:0:0:0:
226,160,23916,1,8,0:0:0:0:
226,160,24041,1,0,0:0:0:0:
226,160,24166,1,8,0:0:0:0:
226,160,24291,1,8,0:0:0:0:
226,160,24416,1,0,0:0:0:0:
226,160,24666,1,12,0:0:0:0:
243,147,24916,1,0,0:0:0:0:
243,147,25041,1,8,0:0:0:0:
243,147,25166,1,0,0:0:0:0:
246,147,25416,1,8,0:0:0:0:
247,146,25666,1,0,0:0:0:0:
248,146,25916,1,0,0:0:0:0:
248,146,26166,1,8,0:0:0:0:
246,147,26416,1,8,0:0:0:0:
247,146,26666,1,0,0:0:0:0:
221,160,27041,1,0,0:0:0:0:
251,146,27166,1,8,0:0:0:0:
254,146,27416,1,8,0:0:0:0:
254,146,27666,1,0,0:0:0:0:
221,160,27916,1,0,0:0:0:0:
221,160,28041,1,0,0:0:0:0:
255,147,28166,1,8,0:0:0:0:
254,146,28416,1,8,0:0:0:0:
210,156,28666,1,0,0:0:0:0:
218,158,29166,1,8,0:0:0:0:
241,167,29416,1,0,0:0:0:0:
241,167,29666,1,0,0:0:0:0:
243,169,30166,1,8,0:0:0:0:
244,169,30416,1,8,0:0:0:0:
217,139,30666,1,8,0:0:0:0:
217,139,30916,1,0,0:0:0:0:
157,161,31166,1,8,0:0:0:0:
208,162,31416,1,0,0:0:0:0:
177,172,31541,1,8,0:0:0:0:
212,162,31666,1,0,0:0:0:0:
151,189,31791,1,0,0:0:0:0:
218,162,31916,1,8,0:0:0:0:
185,131,32166,1,0,0:0:0:0:
291,187,32416,1,0,0:0:0:0:
295,187,32541,1,0,0:0:0:0:
295,187,32666,1,8,0:0:0:0:
190,204,32791,1,8,0:0:0:0:
196,174,32916,1,0,0:0:0:0:
156,164,33041,1,8,0:0:0:0:
201,187,33166,1,0,0:0:0:0:
201,187,33416,1,8,0:0:0:0:
225,203,33666,1,0,0:0:0:0:
225,203,33916,1,8,0:0:0:0:
228,204,34166,1,8,0:0:0:0:
230,204,34416,1,0,0:0:0:0:
230,204,34666,1,0,0:0:0:0:
236,203,34916,1,0,0:0:0:0:
238,203,35166,1,8,0:0:0:0:
238,203,35416,1,0,0:0:0:0:
240,203,35666,1,8,0:0:0:0:
241,203,36166,1,8,0:0:0:0:
226,130,36666,1,0,0:0:0:0:
246,144,36916,1,0,0:0:0:0:
246,144,37166,1,8,0:0:0:0:
250,146,37416,1,0,0:0:0:0:
250,146,37666,1,8,0:0:0:0:
250,146,37916,1,8,0:0:0:0:
250,146,38166,1,0,0:0:0:0:
250,146,38416,1,8,0:0:0:0:
250,146,38666,1,0,0:0:0:0:
250,146,38916,1,8,0:0:0:0:
250,146,39041,1,8,0:0:0:0:
250,146,39166,1,0,0:0:0:0:
253,146,39416,1,0,0:0:0:0:
254,146,39666,1,8,0:0:0:0:
255,146,39916,1,0,0:0:0:0:
255,146,40041,1,0,0:0:0:0:
255,147,40166,1,0,0:0:0:0:
253,146,40416,1,0,0:0:0:0:
255,146,40666,1,12,0:0:0:0:
250,194,41041,1,8,0:0:0:0:
250,194,41416,1,8,0:0:0:0:
255,194,41666,1,0,0:0:0:0:
134,115,42041,1,0,0:0:0:0:
256,194,42166,1,8,0:0:0:0:
256,194,42416,1,8,0:0:0:0:
255,194,42666,1,4,0:0:0:0:
222,183,43416,1,0,0:0:0:0:
231,194,43666,1,8,0:0:0:0:
219,226,43791,1,8,0:0:0:0:
231,194,43916,1,0,0:0:0:0:
221,228,44041,1,8,0:0:0:0:
236,193,44166,1,0,0:0:0:0:
127,183,44416,1,0,0:0:0:0:
150,217,44666,1,12,0:0:0:0:
151,134,45041,1,0,0:0:0:0:
186,163,45416,1,0,0:0:0:0:
189,164,45666,1,8,0:0:0:0:
139,135,46041,1,0,0:0:0:0:
191,165,46166,1,8,0:0:0:0:
173,157,46416,1,0,0:0:0:0:
202,158,46666,1,8,0:0:0:0:
251,189,47041,1,0,0:0:0:0:
241,176,47166,1,8,0:0:0:0:
251,189,47416,1,0,0:0:0:0:
254,189,47666,1,8,0:0:0:0:
210,181,47791,1,0,0:0:0:0:
256,190,47916,1,0,0:0:0:0:
217,181,48041,1,8,0:0:0:0:
257,190,48166,1,0,0:0:0:0:
257,190,48416,1,0,0:0:0:0:
257,190,48666,1,12,0:0:0:0:
210,179,49041,1,0,0:0:0:0:
222,187,49416,1,0,0:0:0:0:
224,187,49666,1,8,0:0:0:0:
224,187,50041,1,8,0:0:0:0:
180,146,50166,1,0,0:0:0:0:
230,189,50416,1,0,0:0:0:0:
232,189,50666,1,8,0:0:0:0:
233,189,51041,1,0,0:0:0:0:
236,189,51416,1,8,0:0:0:0:
237,189,51666,1,0,0:0:0:0:
226,152,51791,1,0,0:0:0:0:
239,190,51916,1,8,0:0:0:0:
157,146,52041,1,8,0:0:0:0:
239,191,52166,1,0,0:0:0:0:
241,192,52416,1,0,0:0:0:0:
241,192,52666,1,12,0:0:0:0:
154,156,53041,1,8,0:0:0:0:
201,187,53166,1,0,0:0:0:0:
211,188,53416,1,0,0:0:0:0:
212,189,53666,1,8,0:0:0:0:
215,189,53916,1,0,0:0:0:0:
215,190,54041,1,0,0:0:0:0:
215,190,54166,1,8,0:0:0:0:
218,190,54416,1,8,0:0:0:0:
219,190,54666,1,4,0:0:0:0:
192,183,55166,1,8,0:0:0:0:
192,183,55666,1,8,0:0:0:0:
129,156,55916,1,0,0:0:0:0:
172,162,56166,1,8,0:0:0:0:
206,192,56666,1,12,0:0:0:0:
240,229,57166,1,8,0:0:0:0:
240,229,57416,1,8,0:0:0:0:
240,229,57541,1,8,0:0:0:0:
240,229,57666,1,0,0:0:0:0:
240,229,57916,1,0,0:0:0:0:
240,229,58166,1,8,0:0:0:0:
240,229,58416,1,8,0:0:0:0:
240,229,58666,1,0,0:0:0:0:
235,224,58791,1,8,0:0:0:0:
240,229,58916,1,0,0:0:0:0:
240,229,59166,1,8,0:0:0:0:
240,229,59416,1,8,0:0:0:0:
240,229,59541,1,0,0:0:0:0:
240,229,59666,1,0,0:0:0:0:
240,229,59916,1,0,0:0:0:0:
240,229,60166,1,8,0:0:0:0:
240,229,60416,1,8,0:0:0:0:
206,107,60666,1,8,0:0:0:0:
196,176,60791,1,0,0:0:0:0:
197,133,61041,1,0,0:0:0:0:
206,107,61166,1,8,0:0:0:0:
197,133,61416,1,8,0:0:0:0:
200,134,61541,1,0,0:0:0:0:
228,111,61666,1,0,0:0:0:0:
228,111,61916,1,0,0:0:0:0:
228,111,62166,1,8,0:0:0:0:
228,111,62416,1,8,0:0:0:0:
231,111,62666,1,0,0:0:0:0:
231,111,62916,1,8,0:0:0:0:
231,111,63166,1,0,0:0:0:0:
231,112,63416,1,8,0:0:0:0:
192,183,63541,1,8,0:0:0:0:
231,111,63666,1,0,0:0:0:0:
183,188,63791,1,0,0:0:0:0:
222,197,63916,1,8,0:0:0:0:
231,111,64166,1,8,0:0:0:0:
231,112,64416,1,0,0:0:0:0:
231,111,64666,1,8,0:0:0:0:
250,270,65166,1,8,0:0:0:0:
250,270,65416,1,0,0:0:0:0:
250,270,65666,1,8,0:0:0:0:
250,270,65791,1,8,0:0:0:0:
250,270,65916,1,0,0:0:0:0:
250,270,66166,1,0,0:0:0:0:
250,270,66416,1,8,0:0:0:0:
250,270,66666,1,0,0:0:0:0:
250,270,66916,1,8,0:0:0:0:
171,182,67166,1,0,0:0:0:0:
187,199,67416,1,0,0:0:0:0:
187,199,67541,1,8,0:0:0:0:
187,199,67666,1,8,0:0:0:0:
187,199,67916,1,8,0:0:0:0:
191,199,68166,1,0,0:0:0:0:
195,200,68416,1,0,0:0:0:0:
196,200,68666,1,8,0:0:0:0:
200,201,69166,1,8,0:0:0:0:
200,201,69416,1,8,0:0:0:0:
200,201,69541,1,8,0:0:0:0:
202,201,69666,1,0,0:0:0:0:
203,201,69916,1,8,0:0:0:0:
204,201,70166,1,0,0:0:0:0:
204,201,70416,1,8,0:0:0:0:
222,179,70541,1,0,0:0:0:0:
202,201,70666,1,0,0:0:0:0:
203,201,70916,1,8,0:0:0:0:
204,201,71166,1,8,0:0:0:0:
204,201,71416,1,8,0:0:0:0:
208,201,71541,1,0,0:0:0:0:
140,158,71666,1,0,0:0:0:0:
181,167,71916,1,0,0:0:0:0:
181,167,72041,1,0,0:0:0:0:
181,167,72166,1,8,0:0:0:0:
181,167,72416,1,0,0:0:0:0:
173,152,72666,1,8,0:0:0:0:
163,152,73041,1,0,0:0:0:0:
187,157,73166,1,8,0:0:0:0:
188,157,73416,1,8,0:0:0:0:
191,157,73666,1,0,0:0:0:0:
159,167,74041,1,8,0:0:0:0:
191,157,74166,1,0,0:0:0:0:
191,157,74416,1,0,0:0:0:0:
191,157,74666,1,8,0:0:0:0:
186,157,75041,1,0,0:0:0:0:
166,151,75166,1,8,0:0:0:0:
166,151,75416,1,8,0:0:0:0:
169,151,75666,1,8,0:0:0:0:
190,157,75916,1,0,0:0:0:0:
190,157,76041,1,0,0:0:0:0:
171,151,76166,1,8,0:0:0:0:
171,150,76416,1,8,0:0:0:0:
172,150,76666,1,0,0:0:0:0:
205,158,77041,1,8,0:0:0:0:
201,158,77166,1,0,0:0:0:0:
205,158,77416,1,0,0:0:0:0:
98,141,77666,1,8,0:0:0:0:
101,141,78041,1,0,0:0:0:0:
133,141,78166,1,8,0:0:0:0:
139,140,78416,1,0,0:0:0:0:
141,139,78666,1,8,0:0:0:0:
145,139,79166,1,8,0:0:0:0:
146,139,79416,1,0,0:0:0:0:
148,139,79541,1,0,0:0:0:0:
148,139,79666,1,8,0:0:0:0:
150,139,79916,1,0,0:0:0:0:
151,138,80041,1,8,0:0:0:0:
151,138,80166,1,0,0:0:0:0:
152,138,80416,1,0,0:0:0:0:
154,138,80666,1,12,0:0:0:0:
241,132,81041,1,0,0:0:0:0:
244,133,81291,1,0,0:0:0:0:
244,133,81416,1,8,0:0:0:0:
245,133,81541,1,8,0:0:0:0:
245,133,81666,1,0,0:0:0:0:
182,160,81791,1,0,0:0:0:0:
245,133,81916,1,8,0:0:0:0:
244,133,82166,1,8,0:0:0:0:
245,137,82416,1,0,0:0:0:0:
247,138,82666,1,8,0:0:0:0:
247,138,82916,1,8,0:0:0:0:
247,138,83166,1,0,0:0:0:0:
245,137,83291,1,0,0:0:0:0:
247,139,83416,1,8,0:0:0:0:
247,138,83541,1,8,0:0:0:0:
247,138,83666,1,0,0:0:0:0:
247,138,83916,1,8,0:0:0:0:
247,138,84166,1,0,0:0:0:0:
79,159,84416,1,0,0:0:0:0:
158,157,84541,1,0,0:0:0:0:
158,157,84666,1,12,0:0:0:0:
158,157,85166,1,8,0:0:0:0:
158,157,85416,1,8,0:0:0:0:
133,138,85666,1,0,0:0:0:0:
168,141,85916,1,0,0:0:0:0:
223,137,86166,1,8,0:0:0:0:
145,140,86291,1,8,0:0:0:0:
448,34,86416,1,0,0:0:0:0:
168,141,86666,1,8,0:0:0:0:
168,141,86916,1,0,0:0:0:0:
168,141,87166,1,0,0:0:0:0:
168,141,87416,1,0,0:0:0:0:
168,141,87666,1,8,0:0:0:0:
168,141,87916,1,8,0:0:0:0:
168,141,88166,1,0,0:0:0:0:
168,141,88416,1,12,0:0:0:0:
