osu file format v14

[General]
AudioFilename: audio.mp3
AudioLeadIn: 0
PreviewTime: 182337
Countdown: 0
SampleSet: Soft
StackLeniency: 0.7
Mode: 0
LetterboxInBreaks: 0
WidescreenStoryboard: 1

[Editor]
Bookmarks: 27410,39562,51714,63866,88170,100322,112474,124626,136777,145891,158043,170195,182347,203613,216524,237789,307654
DistanceSpacing: 1.4
BeatDivisor: 4
GridSize: 4
TimelineZoom: 2.3

[Metadata]
Title:Yume no Naka no Watashi no Yume
TitleUnicode:ユメのなかノわたしのユメ
Artist:Itou Masumi
ArtistUnicode:伊藤真澄
Creator:RLC
Version:Coda
Source:人類は衰退しました
Tags:jinrui wa suitai shimashita humanity has declined ending ed anime japanese
BeatmapID:1414553
BeatmapSetID:668664

[Difficulty]
HPDrainRate:7
CircleSize:4
OverallDifficulty:7.5
ApproachRate:8.5
SliderMultiplier:1.6
SliderTickRate:2

[Events]
//Background and Video events
0,0,"irrelevant bg because a good relevant one is too hard to find.jpg",0,0
//Break Periods
2,112664,123868
//Storyboard Layer 0 (Background)
//Storyboard Layer 1 (Fail)
//Storyboard Layer 2 (Pass)
//Storyboard Layer 3 (Foreground)
//Storyboard Sound Samples

[TimingPoints]
59,379.746835443038,4,2,1,45,1,0
3096,-133.333333333333,4,2,1,45,0,0
6134,-100,4,2,1,45,0,0
38223,-100,4,2,1,25,0,0
38603,-100,4,2,1,35,0,0
38983,-100,4,2,1,45,0,0
39362,-100,4,3,1,45,0,0
39552,-100,4,3,1,50,0,0
51704,-100,4,2,1,55,0,0
63856,-89.2857142857143,4,2,1,60,0,1
74489,-100,4,1,0,60,0,1
76008,-100,4,2,1,60,0,1
82084,-200,4,2,1,60,0,0
87970,-200,4,2,1,5,0,0
88160,-89.2857142857143,4,2,1,60,0,0
100312,-100,4,2,1,60,0,1
100407,-100,4,2,1,60,0,0
124616,-200,4,2,1,40,0,0
136767,-100,4,2,1,45,0,0
143793,-100,4,2,1,30,0,0
143983,-100,4,2,1,45,0,0
144172,-100,4,2,1,40,0,0
144362,-100,4,2,1,45,0,0
144552,-100,4,2,1,50,0,0
144742,-100,4,2,1,45,0,0
144932,-100,4,2,1,60,0,0
145122,-100,4,2,1,45,0,0
145312,-100,4,2,1,70,0,0
145502,-100,4,2,1,45,0,0
145691,-100,4,2,1,80,0,0
145881,-100,4,2,1,45,0,0
156704,-100,4,2,1,25,0,0
157084,-100,4,2,1,35,0,0
157464,-100,4,2,1,45,0,0
158033,-100,4,3,1,50,0,0
170185,-100,4,2,1,55,0,0
181605,379.746835443038,4,2,1,55,1,0
182337,379.746835443038,4,2,1,60,1,1
182337,-89.2857142857143,4,2,1,60,0,1
192970,-89.2857142857143,4,1,0,60,0,1
194489,-89.2857142857143,4,2,1,60,0,1
200564,-200,4,2,1,60,0,0
203603,-100,4,1,1,40,0,0
212717,-100,4,1,1,40,0,0
216514,379.746835443038,4,2,1,60,1,1
216514,-83.3333333333333,4,2,1,60,0,1
227146,-83.3333333333333,4,1,0,60,0,1
228665,-83.3333333333333,4,2,1,60,0,1
234741,-200,4,2,1,60,0,0
243855,379.746835443038,6,2,1,40,1,0
252968,-89.2857142857143,6,2,1,60,0,0
271196,-83.3333333333333,6,2,1,60,0,0
286006,-83.3333333333333,6,2,1,45,0,0
286101,-83.3333333333333,6,2,1,60,0,0
288285,-83.3333333333333,6,2,1,30,0,0
288380,-83.3333333333333,6,2,1,60,0,0
289424,-100,6,2,1,60,0,0
291703,-100,6,2,1,50,0,0
295120,-100,6,2,1,40,0,0
297589,-100,6,2,1,40,0,0
298538,-133.333333333333,6,2,1,50,0,0
303095,-133.333333333333,6,2,1,40,0,0
305753,-133.333333333333,6,2,1,30,0,0
307842,-133.333333333333,6,2,1,20,0,0

[Colours]
Combo1 : 117,255,117
Combo2 : 255,197,138
Combo3 : 255,159,255
Combo4 : 155,255,255

[HitObjects]
64,184,3096,5,2,0:0:0:0:
64,184,3286,1,2,0:0:0:0:
202,130,3666,1,0,0:0:0:0:
280,79,3856,5,2,0:0:0:0:
280,79,4046,1,2,0:0:0:0:
358,180,4426,1,0,0:0:0:0:
444,224,4615,5,2,3:2:0:0:
444,224,4805,1,2,0:0:0:0:
444,224,4995,2,0,L|455:102,2,120.000004577637,0|0|0,3:0|0:0|0:0,0:0:0:0:
417,322,5945,5,0,0:0:0:0:
417,322,6040,1,0,0:0:0:0:
417,322,6134,2,0,P|471:320|514:311,1,80,4|0,1:0|0:0,0:0:0:0:
339,251,6514,2,0,P|285:253|242:262,1,80,0|0,3:0|3:0,0:0:0:0:
207,348,6894,2,0,P|149:364|39:310,1,160,0|0,0:3|3:0,0:0:0:0:
260,258,7464,2,0,L|305:277,2,40,0|0|0,0:0|0:0|1:2,0:0:0:0:
159,186,7843,6,2,P|154:235|140:285,1,80,0|2,0:0|0:0,0:0:0:0:
260,258,8223,1,0,1:0:0:0:
363,361,8413,2,2,P|363:303|391:169,1,160,0|2,0:0|1:2,0:0:0:0:
120,73,9172,5,4,1:0:0:0:
193,145,9362,1,0,0:0:0:0:
193,145,9457,1,0,0:0:0:0:
193,145,9552,1,0,3:0:0:0:
271,31,9742,1,0,3:0:0:0:
271,31,9932,2,0,L|375:44,1,80,2|2,0:0|0:0,0:0:0:0:
455,162,10312,2,0,L|351:149,1,80,4|4,0:3|0:3,0:0:0:0:
375,152,10597,1,0,0:0:0:0:
375,152,10691,1,0,1:0:0:0:
288,203,10881,6,2,P|279:150|286:104,1,80,0|2,0:0|0:0,0:0:0:0:
385,252,11261,1,0,1:0:0:0:
214,284,11451,2,2,P|186:241|169:144,1,120,0|0,0:2|0:0,0:0:0:0:
168,175,11831,1,2,1:2:0:0:
91,220,12021,1,0,1:0:0:0:
12,263,12210,6,0,P|13:318|3:371,1,80,4|0,1:0|0:0,0:0:0:0:
41,146,12590,1,0,3:0:0:0:
91,220,12780,1,0,3:0:0:0:
12,263,12970,5,2,0:2:0:0:
175,106,13350,2,0,L|202:188,1,80,2|0,3:2|3:3,0:3:0:0:
201,182,13634,1,0,0:0:0:0:
201,182,13729,6,0,L|340:164,1,120,0|0,1:0|0:2,0:0:0:0:
320,166,14109,1,2,0:2:0:0:
428,299,14299,1,0,1:0:0:0:
428,299,14489,2,2,P|377:274|249:276,1,160,0|2,0:0|1:2,0:0:0:0:
190,341,15059,5,0,0:0:0:0:
190,341,15153,1,0,0:0:0:0:
190,341,15248,1,4,1:0:0:0:
110,271,15438,2,0,L|14:283,2,80,0|0|0,0:0|3:0|3:0,0:0:0:0:
246,224,16008,1,2,0:0:0:0:
131,280,16198,1,2,0:2:0:0:
257,209,16388,2,0,P|261:166|270:94,1,80,4|4,0:3|0:3,0:0:0:0:
279,107,16672,1,0,0:0:0:0:
292,95,16767,5,0,1:0:0:0:
389,150,16957,1,0,0:0:0:0:
465,63,17147,1,2,0:2:0:0:
389,150,17337,1,0,1:0:0:0:
409,265,17527,2,0,L|419:321,2,40,0|0|2,0:0|0:0|0:2,0:0:0:0:
409,265,17907,1,0,1:0:0:0:
504,283,18097,1,0,1:0:0:0:
334,362,18286,6,0,L|315:217,1,120,2|2,1:3|0:2,0:0:0:0:
320,216,18666,2,0,B|284:242|284:242|237:239,1,80,0|0,3:0|3:0,0:0:0:0:
81,205,19046,2,0,L|-14:221,2,80,2|0|8,0:2|1:0|1:2,0:0:0:0:
185,311,19616,5,0,3:0:0:0:
185,311,19710,1,0,3:0:0:0:
185,311,19805,1,2,1:3:0:0:
248,247,19995,1,2,0:0:0:0:
162,218,20185,1,2,0:0:0:0:
228,342,20375,5,0,1:0:0:0:
232,184,20565,1,2,0:2:0:0:
140,309,20755,1,2,0:0:0:0:
292,262,20945,1,8,1:2:0:0:
292,262,21324,6,0,L|436:271,1,120,2|2,1:3|0:0,0:0:0:0:
442,302,21704,2,0,B|431:260|431:260|446:206,1,80,0|0,3:0|3:0,0:0:0:0:
403,90,22084,2,0,L|386:-4,2,80,2|0|8,2:0|1:0|1:2,0:0:0:0:
241,126,22653,5,0,3:0:0:0:
241,126,22748,1,0,3:0:0:0:
241,126,22843,1,2,1:3:0:0:
317,85,23033,1,2,0:0:0:0:
368,161,23223,1,2,0:0:0:0:
287,211,23413,5,0,1:0:0:0:
294,71,23603,1,2,0:2:0:0:
396,147,23793,1,2,0:0:0:0:
212,136,23983,2,0,P|210:80|225:35,1,80,8|0,1:2|1:0,0:0:0:0:
328,228,24362,5,4,1:1:0:0:
133,349,24742,1,0,1:0:0:0:
316,324,25122,5,0,1:0:0:0:
233,291,25312,1,2,0:2:0:0:
150,256,25502,1,0,1:0:0:0:
150,256,25597,1,0,0:0:0:0:
150,256,25691,1,2,0:2:0:0:
226,206,25881,6,0,P|268:197|315:165,1,80,0|0,3:0|0:0,0:0:0:0:
241,44,26261,2,0,P|199:53|152:85,1,80,0|0,3:0|0:0,0:0:0:0:
300,179,26641,2,0,B|407:154|372:217|492:185,1,160,0|2,3:0|1:2,0:0:0:0:
457,193,27400,6,0,B|451:253|451:253|470:294|470:294|461:373,1,160,4|0,1:0|3:2,0:0:0:0:
374,307,27970,1,0,1:0:0:0:
291,345,28159,1,0,3:0:0:0:
251,326,28254,1,0,3:0:0:0:
213,348,28349,1,0,1:0:0:0:
132,311,28540,1,8,1:0:0:0:
58,359,28728,1,2,0:0:0:0:
7,199,28919,6,0,B|70:205|70:205|100:228|100:228|164:233,1,160,0|0,1:0|3:0,0:0:0:0:
245,215,29488,1,0,1:0:0:0:
304,150,29678,1,0,3:0:0:0:
343,169,29773,1,0,3:0:0:0:
383,151,29868,1,0,1:0:0:0:
454,202,30058,1,8,1:0:0:0:
511,135,30248,1,2,0:0:0:0:
439,73,30438,6,0,P|391:57|306:59,1,120,0|0,1:0|0:3,0:0:0:0:
322,55,30817,1,0,3:1:0:0:
286,212,31007,1,0,1:3:0:0:
131,168,31198,2,2,P|181:144|304:131,1,160,0|8,0:2|1:1,0:0:0:0:
95,77,31767,1,0,0:2:0:0:
95,77,31862,1,0,0:2:0:0:
95,77,31957,6,0,P|57:109|29:147,1,80,0|2,1:0|0:2,0:0:0:0:
246,261,32337,2,0,P|241:202|232:163,1,80,0|0,3:3|1:3,0:0:0:0:
17,132,32717,2,2,P|22:191|31:230,1,80,0|2,0:0|0:0,0:0:0:0:
186,61,33096,1,8,1:1:0:0:
261,346,33475,5,4,1:2:0:0:
302,186,33666,2,0,P|311:247|312:285,1,80,0|2,1:2|0:2,0:2:0:0:
221,256,34046,1,0,1:0:0:0:
370,370,34236,2,0,P|400:289|414:197,1,160,2|8,0:2|1:0,0:0:0:0:
417,61,34805,1,0,0:0:0:0:
417,61,34900,1,0,0:0:0:0:
417,61,34995,1,4,1:1:0:0:
413,217,35185,6,0,P|414:282|438:359,1,120,0|0,1:0|0:0,0:0:0:0:
427,334,35564,1,0,1:0:0:0:
264,208,35754,2,2,P|264:287|251:366,1,160,2|8,0:2|1:1,0:0:0:0:
0,129,36514,6,0,L|95:155,1,80,4|0,1:2|0:0,0:0:0:0:
192,120,36893,1,2,3:2:0:0:
314,256,37084,1,0,1:0:0:0:
314,256,37274,2,0,P|261:262|156:214,1,160,2|8,0:0|1:0,0:0:0:0:
351,135,37843,2,0,L|414:128,2,40,0|0|0,3:0|3:0|3:0,0:0:0:0:
262,101,38223,6,0,P|258:141|267:180,1,80,2|2,0:0|3:2,0:0:0:0:
349,211,38602,1,2,3:2:0:0:
289,86,38792,1,2,3:2:0:0:
369,125,38982,1,2,3:2:0:0:
224,145,39171,1,8,1:1:0:0:
296,288,39362,5,0,0:0:0:0:
296,288,39457,1,0,0:0:0:0:
296,288,39552,2,0,L|457:288,1,160,0|8,0:0|0:2,0:0:0:0:
209,336,40122,1,4,0:3:0:0:
244,206,40312,1,0,0:0:0:0:
213,341,40502,1,4,0:0:0:0:
103,249,40691,2,0,L|84:164,1,80,8|2,1:0|2:0,0:0:0:0:
122,338,41071,5,2,0:2:0:0:
175,163,41261,2,0,P|220:148|270:140,1,80,0|8,0:0|0:2,0:0:0:0:
390,338,41641,1,4,0:0:0:0:
372,242,41831,2,0,P|298:228|194:246,1,160,0|8,0:0|1:0,0:0:0:0:
256,64,42400,5,0,0:0:0:0:
256,64,42495,1,0,0:0:0:0:
256,64,42590,1,0,0:3:0:0:
169,114,42780,2,0,L|72:97,1,80,0|8,0:0|0:2,0:0:0:0:
256,160,43160,1,8,0:0:0:0:
343,114,43350,2,0,L|440:97,1,80,0|8,0:0|0:0,0:0:0:0:
492,39,43729,1,8,1:0:0:0:
506,130,43919,1,2,2:0:0:0:
421,100,44109,5,2,2:0:0:0:
438,221,44299,2,0,P|441:272|428:321,1,80,0|8,0:0|0:2,0:0:0:0:
421,100,44679,1,8,0:0:0:0:
326,168,44869,2,0,P|315:111|335:3,1,160,0|8,0:0|1:0,0:0:0:0:
317,283,45628,6,0,L|413:297,2,80,0|0|8,0:0|0:0|0:2,0:0:0:0:
257,348,46198,1,4,0:0:0:0:
230,264,46388,1,0,0:0:0:0:
203,179,46578,1,4,0:0:0:0:
149,252,46767,2,0,P|89:250|32:269,1,120,8|0,1:0|2:0,0:0:0:0:
32,269,47147,6,0,P|38:308|43:358,2,80,2|0|8,2:0|0:0|0:2,0:0:0:0:
106,159,47717,1,4,0:0:0:0:
216,248,47907,2,0,P|206:195|204:73,1,160,0|8,0:0|1:0,0:0:0:0:
323,33,48476,1,0,0:0:0:0:
323,33,48571,1,0,0:0:0:0:
323,33,48666,1,0,0:0:0:0:
406,192,49046,5,4,0:3:0:0:
406,192,49236,1,4,0:3:0:0:
326,229,49426,1,8,0:3:0:0:
326,229,49616,1,8,0:3:0:0:
451,263,49805,1,8,1:0:0:0:
123,287,50185,6,0,P|98:326|74:349,1,80,2|0,3:1|2:0,2:0:0:0:
208,228,50565,1,2,3:2:0:0:
249,334,50755,1,2,3:2:0:0:
276,152,50945,2,0,P|274:128|270:99,3,40,2|0|2|0,0:1|0:0|0:2|0:0,0:0:0:0:
278,35,51324,1,2,0:1:0:0:
307,22,51419,1,0,0:1:0:0:
338,24,51514,1,2,0:2:0:0:
363,43,51609,1,0,0:1:0:0:
376,72,51704,6,0,P|416:88|475:95,1,80,0|0,1:1|0:0,0:0:0:0:
470,234,52084,2,0,P|448:202|398:171,1,80,0|0,3:0|3:0,0:0:0:0:
309,173,52464,1,0,1:0:0:0:
365,252,52653,1,0,3:0:0:0:
238,326,52843,1,8,1:0:0:0:
446,348,53033,5,0,0:0:0:0:
446,348,53128,1,0,0:0:0:0:
446,348,53223,2,0,P|393:334|307:351,1,120,0|0,1:0|0:0,0:0:0:0:
329,341,53603,1,0,3:0:0:0:
201,255,53793,2,0,P|126:283|47:277,1,160,0|0,1:0|1:0,0:0:0:0:
148,32,54362,2,0,P|135:83|145:155,1,120,8|0,1:0|0:0,0:0:0:0:
153,173,54742,6,0,L|60:203,1,80,0|0,1:0|0:0,0:0:0:0:
76,197,55027,1,0,0:0:0:0:
76,197,55122,1,0,3:0:0:0:
275,207,55312,2,0,P|270:158|265:123,1,80,0|0,1:0|0:0,0:0:0:0:
254,29,55691,1,0,3:0:0:0:
386,52,55881,2,0,B|375:97|369:133|369:133|386:175|411:209,1,160,8|0,1:0|0:0,0:0:0:0:
281,331,56451,5,2,0:0:0:0:
208,234,56641,1,0,1:0:0:0:
342,267,56831,1,2,1:2:0:0:
198,320,57021,1,2,0:0:0:0:
283,198,57210,1,2,1:2:0:0:
297,355,57400,1,8,1:1:0:0:
184,216,57590,1,2,3:2:0:0:
184,216,57685,1,0,3:0:0:0:
184,216,57780,1,0,3:0:0:0:
437,207,58160,6,0,L|453:297,1,80,0|0,3:0|3:0,0:0:0:0:
371,121,58540,2,0,L|359:67,2,40,0|0|0,1:0|0:0|3:0,0:0:0:0:
309,196,58919,1,8,1:0:0:0:
371,121,59109,1,2,2:0:0:0:
309,196,59299,6,0,P|260:200|160:149,1,160,0|0,1:0|3:0,0:0:0:0:
131,233,59869,2,0,L|160:66,1,160,0|0,1:0|3:0,0:0:0:0:
309,196,60438,1,8,1:0:0:0:
116,73,60628,5,2,2:0:0:0:
116,73,60723,1,0,0:0:0:0:
116,73,60818,2,0,P|161:49|205:49,1,80,0|0,1:0|0:0,1:0:0:0:
310,42,61198,1,2,0:0:0:0:
428,223,61388,2,0,P|349:223|277:190,1,160,0|0,1:0|3:0,0:0:0:0:
168,316,61957,2,0,P|175:276|181:237,1,80,8|2,1:0|2:0,0:0:0:0:
126,51,62337,5,2,1:1:0:0:
388,109,62717,1,2,1:1:0:0:
162,127,63097,5,0,3:0:0:0:
332,48,63286,1,8,1:0:0:0:
332,48,63476,1,8,1:0:0:0:
272,358,63856,6,0,P|286:303|276:210,1,134.400001640625,0|0,1:0|0:0,0:0:0:0:
280,226,64236,1,2,0:2:0:0:
159,137,64426,2,0,P|150:180|155:225,1,89.60000109375,8|0,1:0|0:2,0:0:0:0:
367,208,64805,1,2,3:2:0:0:
367,208,64995,2,0,L|220:182,1,134.400001640625,0|0,3:0|0:0,0:0:0:0:
238,106,65375,6,0,L|326:122,1,89.60000109375,0|0,1:0|0:0,0:0:0:0:
144,17,65755,1,2,0:2:0:0:
238,106,65945,1,8,1:0:0:0:
119,162,66135,2,0,L|67:172,2,44.800000546875,0|0|2,0:0|0:0|3:2,0:0:0:0:
197,342,66514,2,0,P|208:275|200:209,1,134.400001640625,0|0,3:0|0:0,0:0:0:0:
119,162,66894,5,2,1:3:0:0:
247,77,67084,1,0,0:0:0:0:
141,53,67274,1,2,0:1:0:0:
226,183,67464,1,8,1:0:0:0:
317,30,67653,5,8,0:2:0:0:
317,30,67748,1,0,0:0:0:0:
317,30,67843,1,0,3:0:0:0:
184,119,68033,1,2,3:1:0:0:
319,192,68223,1,0,0:0:0:0:
396,81,68413,6,0,L|496:59,1,89.60000109375,2|0,1:3|0:0,0:0:0:0:
375,264,68793,2,0,L|404:356,1,89.60000109375,2|8,0:1|1:0,0:0:0:0:
465,182,69172,2,0,L|507:202,2,44.800000546875,8|0|0,0:2|0:0|3:0,0:0:0:0:
353,141,69552,1,2,3:1:0:0:
461,277,69742,1,0,0:0:0:0:
461,277,69837,1,0,0:0:0:0:
461,277,69932,6,0,P|401:263|295:289,1,134.400001640625,0|0,1:0|0:0,0:0:0:0:
329,272,70312,1,2,0:2:0:0:
223,162,70502,2,0,L|241:265,1,89.60000109375,8|0,1:0|0:0,0:0:0:0:
122,361,70881,1,2,3:2:0:0:
122,361,71071,2,0,L|105:220,1,134.400001640625,0|0,3:0|0:0,0:0:0:0:
49,145,71451,6,0,P|37:192|8:230,1,89.60000109375,0|0,1:0|0:0,0:0:0:0:
64,48,71831,1,2,0:2:0:0:
137,107,72021,1,8,1:0:0:0:
213,44,72210,1,0,0:2:0:0:
232,84,72305,1,0,0:0:0:0:
227,128,72400,1,2,3:2:0:0:
310,20,72590,2,0,P|326:76|327:112,1,89.60000109375,0|0,3:0|0:0,0:0:0:0:
414,160,72970,6,0,L|444:58,1,89.60000109375,2|0,1:3|0:0,0:0:0:0:
333,285,73350,2,0,L|303:387,1,89.60000109375,2|8,0:1|1:0,0:0:0:0:
431,251,73729,2,0,L|488:263,2,44.800000546875,2|0|0,0:3|0:0|3:0,0:0:0:0:
431,251,74109,1,2,3:1:0:0:
208,355,74299,5,0,0:0:0:0:
208,355,74394,1,0,0:0:0:0:
208,355,74489,2,2,B|191:303|191:303|212:190,1,160,0|6,0:1|0:1,0:1:0:0:
256,192,74964,12,0,76008,1:0:0:0:
435,260,76198,5,0,0:0:0:0:
435,260,76293,1,0,0:0:0:0:
435,260,76388,1,2,0:2:0:0:
378,179,76578,2,0,P|326:174|295:162,1,80,8|0,1:0|0:0,0:0:0:0:
222,226,76957,1,2,3:2:0:0:
303,368,77147,2,0,P|320:313|300:228,1,120,0|0,3:0|0:0,0:0:0:0:
300,164,77527,6,0,P|295:113|305:67,1,80,0|0,1:0|0:0,0:0:0:0:
395,246,77907,1,2,0:2:0:0:
300,164,78097,1,8,1:0:0:0:
233,270,78286,2,0,L|218:315,2,40,0|0|2,0:0|0:0|3:2,0:0:0:0:
159,173,78666,2,0,P|105:166|24:190,1,120,0|0,3:0|0:0,0:0:0:0:
23,265,79046,5,2,1:3:0:0:
162,336,79236,1,0,0:0:0:0:
159,173,79426,1,2,0:1:0:0:
114,255,79616,1,8,1:0:0:0:
260,187,79805,5,8,0:2:0:0:
260,187,79900,1,0,0:0:0:0:
260,187,79995,1,0,3:0:0:0:
159,173,80185,1,2,3:1:0:0:
353,199,80375,1,0,0:0:0:0:
319,342,80565,5,2,1:3:0:0:
319,342,80755,1,0,0:0:0:0:
319,342,80945,2,0,P|308:300|295:257,1,80,2|8,0:1|1:0,0:0:0:0:
413,139,81324,2,0,L|422:100,2,40,8|0|0,0:2|0:0|3:0,0:0:0:0:
419,296,81704,1,2,3:1:0:0:
483,86,82084,6,0,P|426:58|363:67,1,120,4|0,1:0|0:0,0:0:0:0:
311,120,82843,2,0,L|231:113,1,80,4|0,1:0|0:0,0:0:0:0:
95,55,83603,5,4,1:0:0:0:
196,211,84362,1,4,1:0:0:0:
40,330,85122,1,4,1:0:0:0:
256,192,85312,12,0,87970,0:0:0:0:
442,98,88160,6,0,L|409:14,1,89.60000109375,0|0,1:0|0:0,0:0:0:0:
354,184,88540,2,0,L|282:253,1,89.60000109375,0|8,1:0|0:1,0:0:0:0:
317,88,88919,2,0,L|270:61,2,44.800000546875,0|0|0,1:0|0:0|3:0,0:0:0:0:
289,245,89299,5,0,1:1:0:0:
247,170,89489,1,2,0:2:0:0:
216,301,89679,1,0,1:1:0:0:
162,177,89869,1,2,0:2:0:0:
138,351,90058,5,0,1:1:0:0:
38,297,90248,2,0,P|38:242|61:195,1,89.60000109375,8|0,0:1|1:0,0:0:0:0:
50,210,90533,1,0,0:0:0:0:
50,210,90628,1,2,3:2:0:0:
218,141,90818,1,0,1:0:0:0:
93,47,91008,1,2,0:2:0:0:
93,47,91103,1,0,0:0:0:0:
93,47,91198,6,0,P|101:117|120:145,1,89.60000109375,0|0,1:0|0:0,0:0:0:0:
177,209,91578,1,0,1:0:0:0:
201,66,91767,1,8,0:1:0:0:
316,137,91957,2,0,L|278:115,2,44.800000546875,0|0|0,1:0|0:0|3:0,0:0:0:0:
408,225,92337,5,0,1:0:0:0:
461,155,92527,1,2,0:2:0:0:
376,182,92717,1,0,1:0:0:0:
463,203,92907,1,2,0:2:0:0:
406,137,93097,1,0,1:0:0:0:
369,266,93286,5,8,0:1:0:0:
487,113,93476,1,0,1:2:0:0:
487,113,93571,1,0,0:0:0:0:
487,113,93666,1,2,0:2:0:0:
369,266,93856,1,0,1:2:0:0:
369,266,93951,1,0,0:0:0:0:
369,266,94046,1,2,0:2:0:0:
418,176,94236,5,0,1:0:0:0:
418,176,94426,2,0,P|432:256|402:378,2,179.2000021875,0|8|0,1:0|1:1|1:0,0:0:0:0:
387,81,95375,5,0,1:0:0:0:
480,99,95565,1,2,0:2:0:0:
418,176,95755,1,0,1:0:0:0:
387,81,95945,2,0,P|342:53|305:22,1,89.60000109375,2|0,1:2|0:0,0:0:0:0:
313,29,96324,1,8,1:1:0:0:
225,219,96514,2,0,P|270:196|320:196,1,89.60000109375,0|2,1:0|3:2,0:0:0:0:
470,265,96894,2,0,P|425:288|375:288,1,89.60000109375,0|2,1:0|0:2,0:0:0:0:
225,219,97274,5,0,1:0:0:0:
300,162,97464,2,0,P|313:204|314:249,1,89.60000109375,2|0,0:2|0:0,0:0:0:0:
249,309,97843,1,8,1:1:0:0:
103,251,98033,6,0,L|54:277,2,44.800000546875,2|0|0,0:2|0:0|3:0,0:0:0:0:
103,251,98413,1,0,1:0:0:0:
249,309,98603,1,2,0:2:0:0:
171,180,98793,1,0,1:0:0:0:
171,180,98983,2,0,P|115:163|10:237,1,179.2000021875,0|8,1:0|0:1,0:0:0:0:
49,337,99552,5,0,1:0:0:0:
49,337,99647,1,0,0:0:0:0:
49,337,99742,1,2,0:2:0:0:
130,267,99932,2,0,L|139:368,1,89.60000109375,0|2,1:0|0:2,0:0:0:0:
342,252,100312,6,0,L|481:262,1,120,4|0,1:0|0:0,0:0:0:0:
461,260,100691,1,0,1:0:0:0:
367,170,100881,1,2,1:2:0:0:
465,183,101071,2,0,L|518:188,2,40,0|2|2,3:0|0:0|0:0,0:0:0:0:
243,246,101451,2,0,P|234:288|259:385,1,120,2|0,3:2|0:0,0:0:0:0:
298,178,101831,6,0,P|294:133|280:100,1,80,2|0,0:1|0:0,0:0:0:0:
280,101,102116,1,0,0:0:0:0:
280,101,102210,1,0,1:0:0:0:
213,161,102400,1,2,1:2:0:0:
174,79,102590,1,0,3:0:0:0:
246,25,102780,1,2,0:2:0:0:
213,161,102970,2,0,L|78:170,1,120,2|0,3:2|0:0,0:0:0:0:
73,160,103350,5,4,3:2:0:0:
144,252,103540,1,0,3:0:0:0:
144,252,103635,1,0,3:0:0:0:
144,252,103729,1,0,1:0:0:0:
213,161,103919,1,0,1:0:0:0:
310,206,104109,1,0,3:0:0:0:
310,206,104204,1,0,3:0:0:0:
310,206,104299,1,0,3:0:0:0:
304,301,104489,1,0,1:0:0:0:
400,283,104679,1,0,3:0:0:0:
400,283,104774,1,0,3:0:0:0:
400,283,104869,5,0,3:0:0:0:
462,211,105059,2,0,P|464:168|453:126,1,80,8|0,0:2|1:0,0:0:0:0:
396,65,105438,1,8,1:2:0:0:
176,63,105628,2,0,P|174:106|185:148,1,80,8|0,3:2|0:0,0:0:0:0:
274,177,106008,1,8,3:2:0:0:
299,81,106198,1,0,0:0:0:0:
379,142,106388,6,0,P|388:186|360:307,1,160,4|0,0:2|1:0,0:0:0:0:
184,230,106957,1,2,1:2:0:0:
268,286,107147,1,0,3:0:0:0:
268,286,107242,1,2,0:2:0:0:
268,286,107337,1,2,0:2:0:0:
203,140,107527,2,0,P|166:124|82:125,1,120,2|0,3:2|0:0,0:0:0:0:
281,190,107907,6,0,P|327:181|360:159,1,80,2|0,0:1|0:0,0:0:0:0:
354,163,108191,1,0,0:0:0:0:
354,163,108286,1,0,1:0:0:0:
343,80,108476,1,2,1:2:0:0:
429,106,108666,1,0,3:0:0:0:
363,252,108856,1,2,0:2:0:0:
488,325,109046,2,0,P|499:279|498:234,1,80,2|0,3:2|0:2,0:0:0:0:
237,193,109426,6,0,P|226:239|227:284,1,80,4|0,0:2|0:0,0:0:0:0:
225,271,109710,1,0,0:0:0:0:
225,271,109805,1,0,1:0:0:0:
168,140,109995,1,2,1:2:0:0:
145,224,110185,1,0,3:0:0:0:
110,73,110375,1,2,0:2:0:0:
57,209,110565,2,0,L|41:127,1,80,2|0,3:2|0:0,0:0:0:0:
215,33,110945,6,0,L|295:80,1,80,4|8,0:2|0:2,0:0:0:0:
283,73,111229,1,0,0:0:0:0:
283,73,111324,2,0,L|269:152,1,80,2|8,1:2|1:2,0:0:0:0:
324,234,111704,1,8,3:2:0:0:
199,364,111894,1,2,0:2:0:0:
363,316,112084,1,8,3:2:0:0:
269,151,112274,1,2,0:2:0:0:
269,151,112369,1,0,0:0:0:0:
269,151,112464,1,4,0:1:0:0:
105,343,124616,6,0,P|131:328|221:312,1,120,0|0,3:0|0:0,0:0:0:0:
258,307,125375,2,0,P|289:335|338:354,1,80
363,343,125945,1,0,0:0:0:0:
431,229,126135,5,2,0:2:0:0:
431,229,126324,2,0,L|420:273,1,40
363,343,126704,1,0,0:0:0:0:
336,256,126894,2,0,P|333:215|346:162,1,80
300,77,127464,1,0,0:0:0:0:
300,77,127653,6,0,P|266:87|143:56,1,160,0|0,3:0|0:0,0:0:0:0:
59,255,128793,1,0,0:0:0:0:
90,230,128983,1,0,0:0:0:0:
105,193,129172,1,2,0:2:0:0:
25,182,129362,5,0,0:0:0:0:
59,255,129552,1,0,0:0:0:0:
137,268,129742,1,0,0:0:0:0:
190,207,129932,2,0,P|200:175|207:113,1,80,0|0,3:0|0:0,0:0:0:0:
206,129,130691,5,0,3:0:0:0:
424,189,131071,1,0,0:0:0:0:
349,219,131261,1,0,0:0:0:0:
414,268,131451,2,0,P|449:271|496:285,2,80,0|0|2,0:0|0:0|0:2,0:0:0:0:
349,219,132400,1,0,0:0:0:0:
324,138,132590,1,0,0:0:0:0:
381,80,132780,1,0,0:0:0:0:
406,155,132970,5,0,0:0:0:0:
359,163,133160,1,0,0:0:0:0:
324,138,133350,1,0,0:0:0:0:
304,99,133540,1,0,0:0:0:0:
245,165,133729,6,0,B|163:156|173:191|85:184,1,160,0|0,3:0|0:0,0:0:0:0:
285,326,135059,5,0,3:0:0:0:
204,291,135248,2,0,P|196:331|180:382,1,80,0|0,3:2|0:0,0:0:0:0:
92,365,135818,1,0,3:0:0:0:
92,365,136008,1,0,0:0:0:0:
61,278,136198,1,0,1:0:0:0:
61,278,136293,1,0,1:0:0:0:
61,278,136388,1,0,1:0:0:0:
323,346,136767,6,0,P|329:276|339:176,1,160,4|0,1:0|3:0,0:0:0:0:
251,272,137337,2,0,P|302:275|420:286,1,160,0|0,1:0|3:0,0:0:0:0:
426,123,137907,2,0,P|421:173|419:216,1,80,0|0,1:0|2:0,0:0:0:0:
419,202,138286,5,2,3:2:0:0:
331,94,138476,2,0,L|287:103,2,40,2|0|0,0:2|0:0|0:0,0:0:0:0:
287,200,138856,1,0,3:0:0:0:
210,99,139046,2,0,P|213:48|235:10,1,80,0|2,0:0|0:0,0:0:0:0:
463,108,139426,2,0,P|460:159|438:197,1,80,0|0,3:0|0:0,0:0:0:0:
447,184,139710,1,0,0:0:0:0:
447,184,139805,6,0,P|325:196|280:202,1,160,0|0,1:0|3:0,0:0:0:0:
308,115,140375,2,0,P|315:167|330:283,1,160,0|2,1:0|3:2,0:0:0:0:
160,308,140945,2,0,P|207:300|242:295,1,80,0|0,1:0|0:0,0:0:0:0:
209,118,141324,5,2,3:2:0:0:
230,206,141514,1,2,0:2:0:0:
143,227,141704,1,0,0:0:0:0:
127,144,141894,2,0,B|227:134|186:179|319:157,1,160,0|2,3:0|0:0,0:0:0:0:
284,161,142369,1,0,0:0:0:0:
284,161,142464,2,0,P|289:120|294:80,1,80,0|0,3:0|0:0,0:0:0:0:
365,11,142843,5,4,1:0:0:0:
490,203,143223,1,0,1:0:0:0:
286,139,143603,5,0,1:0:0:0:
286,139,143793,1,2,0:0:0:0:
374,109,143983,1,0,1:0:0:0:
374,109,144172,1,2,0:0:0:0:
459,78,144362,5,0,1:0:0:0:
417,191,144552,1,2,0:0:0:0:
417,191,144647,1,2,0:0:0:0:
417,191,144742,1,0,1:0:0:0:
306,62,144932,1,2,0:0:0:0:
306,62,145122,2,0,P|282:101|276:141,1,80,0|2,1:0|0:0,0:0:0:0:
160,15,145502,2,0,P|161:54|173:92,1,80,0|2,1:0|0:0,0:0:0:0:
131,225,145881,6,0,P|86:239|37:239,2,80,4|0|0,1:0|0:0|3:0,0:0:0:0:
131,225,146451,1,0,1:0:0:0:
199,163,146641,1,0,3:0:0:0:
221,196,146736,1,0,3:0:0:0:
222,236,146831,1,0,1:0:0:0:
310,204,147021,2,0,P|311:244|301:283,1,80,8|2,1:0|2:0,0:0:0:0:
376,351,147400,6,0,L|458:340,2,80,0|0|0,1:0|0:0|3:0,0:0:0:0:
376,351,147970,1,0,1:0:0:0:
291,327,148160,1,0,3:0:0:0:
309,291,148255,1,0,3:0:0:0:
345,273,148350,1,0,1:0:0:0:
218,287,148540,2,0,P|244:242|279:213,1,80,8|2,1:0|2:0,0:0:0:0:
245,86,148919,6,0,P|199:98|108:86,1,120,0|0,1:0|0:0,0:0:0:0:
127,92,149299,1,0,3:0:0:0:
151,275,149489,1,0,1:0:0:0:
6,202,149679,2,2,P|56:188|174:191,1,160,2|8,0:0|1:0,0:0:0:0:
296,153,150248,1,0,0:0:0:0:
296,153,150343,1,0,0:0:0:0:
296,153,150438,6,0,P|308:193|323:237,1,80,0|2,1:0|0:0,0:0:0:0:
212,111,150818,2,0,P|171:101|125:92,1,80,0|0,3:0|1:0,0:0:0:0:
294,64,151198,2,2,P|322:33|353:-1,1,80,0|2,0:0|0:0,0:0:0:0:
286,255,151577,2,0,P|246:231|150:231,1,120,8|0,1:0|0:0,1:0:0:0:
95,237,151957,6,0,P|88:196|79:150,1,80,4|0,1:2|0:0,1:0:0:0:
219,307,152337,1,0,3:2:0:0:
95,237,152527,1,0,1:0:0:0:
235,148,152717,2,0,L|218:324,1,160,2|8,0:0|1:0,0:0:0:0:
434,245,153286,5,0,0:0:0:0:
434,245,153381,1,0,0:0:0:0:
434,245,153476,1,4,1:0:0:0:
330,253,153666,2,0,P|337:207|364:154,1,80,0|2,1:0|0:2,0:0:0:0:
385,336,154046,1,0,1:0:0:0:
266,354,154236,2,2,P|245:315|227:183,1,160,0|8,0:0|1:0,0:0:0:0:
225,202,154995,6,0,P|219:257|213:304,1,80,4|0,1:2|0:0,0:0:0:0:
153,353,155375,1,0,3:0:0:0:
153,353,155565,1,0,1:0:0:0:
70,316,155755,1,2,0:0:0:0:
215,281,155945,1,0,3:0:0:0:
77,221,156135,2,0,P|83:166|89:119,1,80,8|0,1:0|3:0,0:0:0:0:
86,141,156419,1,0,3:0:0:0:
86,141,156514,1,0,3:0:0:0:
119,47,156704,5,2,3:2:0:0:
229,157,156894,1,2,3:2:0:0:
251,23,157084,1,2,3:2:0:0:
182,165,157274,1,2,3:2:0:0:
274,147,157464,2,0,L|358:132,1,80,2|8,3:2|1:0,0:0:0:0:
449,111,157843,1,0,3:0:0:0:
386,306,158033,6,0,P|321:274|213:278,1,160,4|8,1:0|0:2,0:0:0:0:
106,373,158603,1,4,0:0:0:0:
106,373,158793,2,0,B|151:363|181:345|181:345|220:356|268:353,2,160,0|8|2,0:0|0:1|0:2,0:0:0:0:
235,272,159742,6,0,L|286:257,2,40,0|0|8,0:0|0:0|0:2,0:0:0:0:
114,245,160122,1,4,0:0:0:0:
232,190,160312,1,0,0:0:0:0:
86,174,160502,1,4,0:0:0:0:
232,112,160691,1,8,0:1:0:0:
52,105,160881,1,0,0:0:0:0:
52,105,160976,1,0,0:0:0:0:
52,104,161071,6,0,B|124:35|131:97|189:30,1,160,0|8,0:0|0:2,0:0:0:0:
320,30,161641,1,4,0:0:0:0:
320,30,161831,2,0,B|379:97|386:35|458:105,2,160,2|8|0,0:2|0:1|0:0,0:0:0:0:
355,242,162780,5,0,0:0:0:0:
394,246,162875,1,0,0:0:0:0:
431,231,162970,1,8,0:2:0:0:
383,156,163160,1,4,0:0:0:0:
285,176,163350,2,0,P|268:222|309:330,1,160,0|8,0:0|0:1,0:0:0:0:
71,265,163919,1,2,0:2:0:0:
71,265,164014,1,0,0:0:0:0:
71,265,164109,6,0,L|36:366,2,80,2|0|8,0:2|0:0|0:2,0:0:0:0:
122,155,164679,1,4,0:0:0:0:
61,75,164869,1,0,0:0:0:0:
3,161,165059,1,4,0:0:0:0:
3,161,165248,2,0,L|153:154,1,120,8|0,0:1|0:0,0:0:0:0:
196,101,165628,6,0,P|194:59|178:16,2,80,2|0|8,0:2|0:0|0:2,0:0:0:0:
269,163,166198,1,4,0:0:0:0:
316,84,166388,1,0,0:0:0:0:
316,84,166483,1,0,0:0:0:0:
316,84,166578,1,4,0:0:0:0:
389,137,166767,1,8,0:1:0:0:
461,78,166957,1,0,0:0:0:0:
381,13,167147,6,0,P|337:1|286:1,1,80,2|0,0:2|0:0,0:0:0:0:
275,163,167527,2,0,P|319:175|370:175,1,80,4|4,0:0|0:0,0:0:0:0:
470,193,167907,2,0,P|410:176|329:181,1,120,8|0,0:0|0:0,0:0:0:0:
196,175,168286,2,0,P|235:170|274:162,1,80,8|0,0:1|0:0,0:0:0:0:
436,71,168666,5,0,0:0:0:0:
470,193,168856,1,2,0:2:0:0:
364,270,169046,2,0,P|322:273|274:265,1,80,2|0,0:2|2:0,0:0:0:0:
77,319,169426,5,0,0:0:0:0:
158,198,169616,1,2,0:2:0:0:
284,267,169805,2,0,P|307:309|311:355,1,80,2|0,0:2|1:0,0:0:0:0:
234,336,170090,1,0,1:0:0:0:
234,336,170185,6,0,L|140:326,1,80,0|0,1:0|0:0,0:0:0:0:
16,238,170565,2,0,L|110:248,1,80,0|0,3:0|1:0,0:0:0:0:
246,200,170945,1,0,3:0:0:0:
203,112,171135,2,0,L|187:73,2,40,0|0|0,1:0|1:0|1:0,1:0:0:0:
246,200,171514,1,2,0:0:0:0:
304,125,171704,5,0,1:0:0:0:
370,244,171894,1,0,0:0:0:0:
370,244,171989,1,0,0:0:0:0:
370,244,172084,1,0,3:0:0:0:
246,200,172274,1,0,1:0:0:0:
155,244,172464,2,0,L|109:266,2,40,0|0|0,0:0|0:0|3:0,0:0:0:0:
246,200,172843,2,0,L|259:336,1,120,8|0,1:0|0:0,0:0:0:0:
261,348,173223,6,0,B|306:328|336:318|336:318|383:328|421:343,1,160,0|0,1:0|3:0,0:0:0:0:
502,132,173793,2,0,B|459:157|389:139|389:139|347:104,1,160,0|0,1:0|1:0,0:0:0:0:
356,111,174267,1,0,1:0:0:0:
356,111,174362,2,0,L|371:26,2,80,8|2|0,1:0|0:0|0:0,0:0:0:0:
321,205,174932,5,2,0:0:0:0:
188,205,175122,1,0,3:2:0:0:
247,81,175311,1,2,1:2:0:0:
243,216,175501,1,2,0:0:0:0:
121,162,175691,1,2,3:2:0:0:
256,157,175881,1,8,1:0:0:0:
201,283,176071,1,2,0:0:0:0:
201,283,176166,1,0,0:0:0:0:
201,283,176261,6,0,P|151:266|40:278,1,160,0|0,1:0|3:0,0:0:0:0:
87,354,176831,1,0,1:0:0:0:
121,162,177021,2,0,P|156:143|221:127,1,80,0|0,0:0|1:0,0:0:0:0:
194,130,177305,1,0,1:0:0:0:
194,130,177400,2,0,P|198:84|212:34,1,80,8|2,1:0|0:0,0:0:0:0:
304,22,177780,6,0,P|288:82|286:197,1,160,0|0,1:0|3:0,0:0:0:0:
354,367,178350,2,0,P|370:307|372:192,1,160,0|0,1:0|3:0,0:0:0:0:
304,22,178919,1,8,1:0:0:0:
283,179,179109,1,2,0:0:0:0:
439,149,179299,6,0,P|399:126|335:116,1,80,0|0,1:0|0:0,0:0:0:0:
268,94,179679,1,0,3:0:0:0:
224,255,179869,2,0,P|257:234|389:211,1,160,0|0,1:0|3:0,0:0:0:0:
224,255,180438,1,8,1:0:0:0:
319,342,180628,5,2,0:0:0:0:
319,342,180723,1,0,0:0:0:0:
319,342,180818,1,0,1:0:0:0:
193,42,181198,1,0,1:0:0:0:
224,255,181605,5,0,3:0:0:0:
288,129,181794,1,0,1:0:0:0:
381,253,181984,1,0,1:0:0:0:
381,253,182079,1,0,1:0:0:0:
381,253,182174,1,0,1:0:0:0:
140,275,182337,6,0,L|295:268,1,134.400001640625,0|0,1:0|0:0,0:0:0:0:
290,282,182717,2,0,P|291:232|303:185,1,89.60000109375,2|8,0:2|1:0,0:0:0:0:
301,88,183097,1,0,0:2:0:0:
210,133,183286,1,2,3:2:0:0:
180,36,183476,1,0,3:2:0:0:
380,42,183666,5,2,0:2:0:0:
380,42,183761,1,0,0:0:0:0:
380,42,183856,2,0,P|378:104|363:147,1,89.60000109375,0|0,1:2|0:0,0:0:0:0:
342,236,184236,1,2,0:2:0:0:
436,268,184426,1,8,1:0:0:0:
468,164,184616,5,0,0:0:0:0:
342,236,184805,1,2,3:2:0:0:
276,104,184995,1,0,3:2:0:0:
152,176,185185,5,2,0:2:0:0:
152,176,185280,1,0,0:0:0:0:
152,176,185375,1,2,1:3:0:0:
88,104,185565,2,0,L|60:68,2,44.800000546875,0|0|2,0:0|0:0|0:1,0:0:0:0:
152,176,185945,1,8,1:0:0:0:
91,306,186135,1,8,0:2:0:0:
188,334,186324,1,0,3:0:0:0:
152,176,186514,1,2,3:1:0:0:
266,247,186704,5,0,0:0:0:0:
266,247,186799,1,0,0:0:0:0:
266,247,186894,2,0,L|359:230,1,89.60000109375,2|0,1:3|0:0,0:0:0:0:
354,230,187274,1,2,0:1:0:0:
152,176,187464,1,8,1:0:0:0:
213,46,187653,1,8,0:2:0:0:
116,18,187842,1,2,3:2:0:0:
152,176,188032,1,2,3:1:0:0:
334,77,188223,5,2,0:2:0:0:
334,77,188318,1,0,0:0:0:0:
334,77,188413,2,0,L|314:212,1,134.400001640625,0|0,1:0|0:0,0:0:0:0:
319,230,188793,2,0,P|256:228|219:235,1,89.60000109375,2|8,0:2|1:0,0:0:0:0:
137,271,189172,1,0,0:0:0:0:
309,362,189362,1,0,3:0:0:0:
309,362,189552,2,0,P|323:316|315:217,1,134.400001640625,0|0,3:0|0:0,0:0:0:0:
330,48,189932,6,0,P|325:95|338:157,1,89.60000109375,0|0,1:0|0:0,0:0:0:0:
415,199,190312,1,2,0:2:0:0:
238,161,190502,1,8,1:0:0:0:
331,136,190691,1,0,0:0:0:0:
325,180,190786,1,0,0:0:0:0:
320,224,190881,1,2,3:2:0:0:
175,95,191071,2,0,P|218:72|264:69,1,89.60000109375,0|2,3:0|0:2,0:0:0:0:
221,233,191451,6,0,P|174:261|131:265,1,89.60000109375,2|0,1:3|0:0,0:0:0:0:
123,223,191736,1,0,0:0:0:0:
110,179,191831,2,0,P|68:169|19:136,1,89.60000109375,2|8,0:1|1:0,0:0:0:0:
49,259,192210,2,0,L|37:307,2,44.800000546875,2|0|0,0:3|0:0|3:0,0:0:0:0:
100,83,192590,1,2,3:1:0:0:
302,205,192780,5,0,0:0:0:0:
302,205,192875,1,0,0:0:0:0:
302,205,192970,2,2,B|322:156|322:156|300:26,1,179.2000021875,0|6,1:0|1:1,0:0:0:0:
256,192,193445,12,0,194489,1:0:0:0:
392,270,194679,5,2,0:2:0:0:
401,180,194869,2,0,L|389:296,1,89.60000109375,4|8,0:2|1:0,0:0:0:0:
300,171,195248,1,0,0:0:0:0:
199,202,195438,1,2,3:2:0:0:
290,260,195628,2,0,L|302:144,1,89.60000109375,0|2,3:0|0:2,0:0:0:0:
75,117,196008,5,0,1:0:0:0:
163,101,196198,1,2,0:2:0:0:
75,117,196388,2,0,L|173:100,1,89.60000109375,4|8,0:2|1:0,0:0:0:0:
57,212,196767,2,0,L|5:221,2,44.800000546875,0|0|2,0:0|0:0|3:2,0:0:0:0:
210,183,197147,1,0,3:0:0:0:
152,268,197337,1,2,0:2:0:0:
152,268,197432,1,0,0:0:0:0:
152,268,197527,6,0,L|174:372,1,89.60000109375,2|0,1:3|0:0,0:0:0:0:
210,183,197907,2,0,L|299:127,1,89.60000109375,2|8,0:1|1:0,0:0:0:0:
264,275,198286,2,0,L|300:323,2,44.800000546875,8|0|0,0:2|0:0|3:0,0:0:0:0:
285,135,198666,1,2,3:1:0:0:
264,275,198856,1,0,0:0:0:0:
363,90,199046,5,2,1:3:0:0:
349,194,199236,1,0,0:2:0:0:
433,145,199426,5,2,0:1:0:0:
416,315,199616,2,0,P|416:276|435:219,1,89.60000109375,8|8,1:0|0:2,0:0:0:0:
430,227,199900,1,0,0:0:0:0:
430,227,199995,1,0,3:0:0:0:
366,14,200185,2,0,P|366:53|347:110,1,89.60000109375,2|0,3:1|0:0,0:0:0:0:
351,101,200469,1,0,0:0:0:0:
351,101,200564,5,4,1:0:0:0:
110,350,201324,2,0,L|99:262,1,80,4|0,1:0|0:0,0:0:0:0:
36,188,202084,5,4,1:0:0:0:
346,244,202843,1,4,1:0:0:0:
449,24,203603,6,0,L|432:203,1,160,4|2,1:1|0:1,0:0:0:0:
286,356,204362,2,0,L|303:177,1,160,0|2,0:0|0:1,0:0:0:0:
149,340,204932,1,0,0:0:0:0:
212,266,205122,6,0,B|316:261|272:300|383:290,1,160,0|2,0:0|0:2,0:0:0:0:
496,157,205881,2,0,B|392:152|436:191|325:181,1,160,4|0,0:2|0:3,0:0:0:0:
354,321,206451,1,0,0:0:0:0:
411,252,206641,6,0,P|422:202|401:85,1,160,0|2,0:0|0:1,0:0:0:0:
169,118,207400,2,0,P|156:156|151:207,1,80
240,182,207780,2,0,P|234:221|221:259,1,80,2|0,0:1|0:0,0:0:0:0:
87,289,208160,6,0,P|70:240|74:122,2,160,0|2|4,0:0|0:2|0:2,0:0:0:0:
87,289,209299,2,0,P|85:342|78:383,1,80
65,201,209679,5,0,1:0:0:0:
146,168,209869,2,0,L|158:113,2,40,0|0|2,0:0|0:0|0:3,0:0:0:0:
215,221,210248,1,4,0:3:0:0:
215,221,210438,1,0,0:0:0:0:
298,190,210628,1,4,0:3:0:0:
298,190,210818,1,2,1:3:0:0:
363,242,211008,1,0,0:0:0:0:
415,170,211198,5,0,1:0:0:0:
341,115,211388,2,0,L|335:70,2,40,0|0|2,0:0|0:0|0:3,0:0:0:0:
363,242,211767,1,4,0:3:0:0:
429,123,211957,1,0,0:0:0:0:
363,242,212147,1,4,0:3:0:0:
332,62,212337,1,2,0:3:0:0:
452,246,212527,5,0,0:0:0:0:
452,246,212622,1,0,0:0:0:0:
452,246,212717,2,0,B|390:246|390:246|357:261|357:261|278:261,1,160,4|4,0:3|0:3,0:0:0:0:
295,261,213286,1,0,0:0:0:0:
209,178,213476,6,0,P|269:144|387:130,1,160,4|4,0:2|0:2,0:0:0:0:
217,334,214046,5,0,0:0:0:0:
217,334,214141,1,0,0:0:0:0:
217,334,214236,2,0,B|233:278|233:278|204:156,1,160,4|4,0:3|0:3,0:0:0:0:
209,178,214805,1,0,0:0:0:0:
347,25,214995,5,4,0:2:0:0:
189,102,215185,1,4,0:2:0:0:
323,102,215375,1,4,0:2:0:0:
165,25,215565,1,4,0:2:0:0:
256,44,215945,6,0,L|256:13,3,26.6666666666667,4|4|0|8,3:3|3:3|0:0|0:0,0:0:0:0:
240,316,216514,6,0,P|204:294|93:308,1,143.999995605469,0|0,1:0|0:0,0:0:0:0:
105,300,216893,1,2,0:2:0:0:
35,233,217083,2,0,P|91:215|137:196,1,95.9999970703126,8|0,1:0|0:0,0:0:0:0:
125,201,217368,1,0,0:0:0:0:
125,201,217463,1,2,3:2:0:0:
285,124,217653,2,0,P|233:110|150:50,1,143.999995605469,0|0,3:0|0:0,0:0:0:0:
216,239,218032,6,0,P|216:185|198:134,1,95.9999970703126,0|0,1:0|0:0,0:0:0:0:
160,60,218412,1,2,0:2:0:0:
111,136,218602,1,8,1:0:0:0:
203,145,218792,2,0,L|259:152,2,47.9999985351563,0|0|2,0:2|0:0|3:2,0:0:0:0:
52,311,219172,2,0,L|212:323,1,143.999995605469,0|0,3:0|0:0,0:0:0:0:
272,346,219551,5,2,1:3:0:0:
362,224,219741,2,0,L|397:170,2,47.9999985351563,0|0|2,0:0|0:0|0:1,0:0:0:0:
272,346,220121,1,8,1:0:0:0:
278,192,220311,5,8,0:2:0:0:
278,192,220406,1,0,0:0:0:0:
278,192,220501,1,0,3:0:0:0:
390,311,220691,2,0,L|486:281,1,95.9999970703126,2|0,3:1|0:0,0:0:0:0:
313,267,221070,5,2,1:3:0:0:
172,230,221260,2,0,L|113:215,2,47.9999985351563,0|0|2,0:0|0:0|0:1,0:0:0:0:
313,267,221640,1,8,1:0:0:0:
232,314,221830,1,8,0:2:0:0:
232,314,221925,1,0,0:0:0:0:
232,314,222020,1,0,3:0:0:0:
203,159,222210,2,0,L|157:66,1,95.9999970703126,2|0,3:1|0:0,0:0:0:0:
160,72,222495,1,0,0:0:0:0:
160,72,222589,6,0,P|230:76|321:42,1,143.999995605469,0|0,1:0|0:0,0:0:0:0:
300,54,222969,1,2,0:2:0:0:
493,121,223159,1,8,1:0:0:0:
380,4,223349,1,0,0:2:0:0:
428,196,223539,1,2,3:2:0:0:
428,196,223729,2,0,P|394:268|388:362,1,143.999995605469,0|0,3:0|0:0,0:0:0:0:
303,368,224108,6,0,P|297:314|289:234,1,95.9999970703126,0|0,1:0|0:0,0:0:0:0:
223,166,224488,1,2,0:2:0:0:
344,95,224678,1,8,1:0:0:0:
321,191,224868,1,0,0:2:0:0:
247,71,225058,1,2,3:2:0:0:
292,272,225248,2,0,P|298:326|306:406,1,95.9999970703126,0|0,3:0|0:0,0:0:0:0:
110,327,225627,6,0,L|-9:317,1,95.9999970703126,2|0,1:3|0:0,0:0:0:0:
289,181,226007,2,0,P|341:189|376:223,1,95.9999970703126,2|8,0:1|1:0,0:0:0:0:
132,162,226387,2,0,L|114:101,2,47.9999985351563,2|0|0,0:3|0:0|3:0,0:0:0:0:
305,276,226767,1,2,3:1:0:0:
119,354,226957,5,0,0:0:0:0:
119,354,227051,1,0,0:0:0:0:
119,354,227146,2,2,L|133:155,1,191.999994140625,0|6,1:0|1:0,0:0:0:0:
256,192,227621,12,0,228665,1:0:0:0:
456,245,228855,5,0,0:0:0:0:
456,245,228950,1,0,0:0:0:0:
456,245,229045,1,2,0:2:0:0:
372,200,229235,2,0,P|363:147|371:97,1,95.9999970703126,8|0,1:0|0:0,0:0:0:0:
364,10,229615,2,0,P|373:63|365:113,1,95.9999970703126,2|0,3:2|3:0,0:0:0:0:
367,104,229995,1,0,0:0:0:0:
281,64,230184,6,0,P|214:41|142:41,1,143.999995605469,0|0,1:0|0:0,0:0:0:0:
142,41,230564,1,2,0:2:0:0:
111,217,230754,1,8,1:0:0:0:
193,147,230944,2,0,L|253:154,2,47.9999985351563,0|0|2,0:0|0:0|3:2,0:0:0:0:
23,168,231324,2,0,P|70:138|117:125,1,95.9999970703126,0|0,3:0|0:0,0:0:0:0:
194,275,231703,5,2,1:3:0:0:
59,272,231893,2,0,L|16:300,2,47.9999985351563,0|0|2,0:0|0:0|0:1,0:0:0:0:
108,126,232273,1,8,1:0:0:0:
194,275,232463,5,8,0:2:0:0:
220,184,232653,1,0,3:0:0:0:
282,309,232843,1,2,3:1:0:0:
315,170,233032,1,0,0:0:0:0:
371,347,233222,6,0,P|425:328|477:330,2,95.9999970703126,2|0|2,1:3|0:0|0:1,0:0:0:0:
371,347,233792,1,8,1:0:0:0:
415,190,233982,1,8,0:2:0:0:
458,192,234077,1,0,0:0:0:0:
491,219,234172,1,0,3:0:0:0:
366,259,234362,2,0,P|315:252|268:219,1,95.9999970703126,2|0,3:1|0:0,0:0:0:0:
265,122,234741,5,4,1:0:0:0:
329,58,235501,2,0,L|416:67,1,80,4|0,1:0|0:0,0:0:0:0:
454,154,236260,1,4,1:0:0:0:
411,257,237020,2,0,L|276:246,1,120,4|0,1:0|0:0,0:0:0:0:
227,303,237779,5,4,1:0:0:0:
256,192,237969,12,0,240817,1:0:0:0:
6,151,243855,6,0,P|71:164|163:148,1,160,0|0,1:0|1:0,0:0:0:0:
235,85,244424,1,2,0:0:0:0:
162,148,244614,1,0,1:0:0:0:
235,85,244804,2,0,P|276:81|328:99,1,80,2|0,0:0|1:0,0:0:0:0:
375,235,245184,6,0,L|399:285,2,40,0|0|0,1:0|0:0|0:0,0:0:0:0:
261,334,245563,2,0,B|254:234|281:267|267:165,1,160,2|0,1:2|1:0,0:0:0:0:
44,248,246133,6,0,P|94:243|128:234,1,80,0|0,1:0|0:0,0:0:0:0:
154,262,246418,1,0,0:0:0:0:
154,262,246513,2,0,P|204:267|238:276,1,80,0|2,1:0|0:2,0:0:0:0:
311,234,246892,1,0,1:0:0:0:
391,269,247082,1,2,0:0:0:0:
446,200,247272,2,0,P|439:156|460:33,2,160,0|0|0,1:0|1:0|1:0,0:0:0:0:
243,133,248411,6,0,P|194:155|73:152,1,160,0|0,1:0|1:0,0:0:0:0:
161,247,248981,1,2,0:2:0:0:
161,247,249171,2,0,P|169:195|148:82,1,160,0|0,1:0|1:0,0:0:0:0:
58,62,249741,1,0,0:0:0:0:
151,89,249930,5,0,1:0:0:0:
80,158,250120,1,2,0:2:0:0:
58,62,250310,1,0,1:0:0:0:
237,41,250500,1,2,0:0:0:0:
237,41,250690,6,0,P|245:86|241:125,1,80,0|0,1:0|0:0,0:0:0:0:
252,163,250975,1,0,0:0:0:0:
252,163,251070,2,0,P|291:152|333:148,1,80,0|2,1:0|0:2,0:0:0:0:
389,212,251449,1,0,1:0:0:0:
462,162,251639,1,0,0:0:0:0:
470,249,251829,6,0,P|420:237|310:242,1,160,0|0,1:0|1:0,0:0:0:0:
323,341,252399,1,2,0:2:0:0:
228,312,252589,1,2,1:2:0:0:
209,318,252684,1,2,0:0:0:0:
190,324,252779,1,2,0:0:0:0:
171,330,252873,1,2,0:0:0:0:
151,336,252968,6,0,L|4:326,1,134.400001640625,0|0,1:0|0:0,0:0:0:0:
16,326,253348,1,0,1:0:0:0:
179,232,253538,1,8,0:1:0:0:
130,68,253728,2,0,P|125:128|72:240,1,179.2000021875,2|0,1:2|1:0,0:0:0:0:
246,62,254298,5,2,0:2:0:0:
246,62,254392,1,0,0:0:0:0:
246,62,254487,2,0,P|282:99|329:132,1,89.60000109375,8|2,1:0|0:2,0:0:0:0:
399,307,254867,2,0,P|366:262|288:202,1,134.400001640625,2|0,1:2|0:0,0:0:0:0:
305,212,255247,6,0,P|360:195|399:177,1,89.60000109375,0|0,1:0|0:0,0:0:0:0:
390,183,255532,1,0,0:0:0:0:
390,183,255627,1,0,1:0:0:0:
268,309,255817,1,8,0:1:0:0:
220,162,256006,2,0,P|176:129|48:117,1,179.2000021875,2|0,1:2|1:0,0:0:0:0:
149,229,256576,1,2,0:2:0:0:
246,62,256766,2,0,P|283:96|310:131,1,89.60000109375,8|2,1:1|0:2,0:0:0:0:
368,191,257146,2,0,P|334:161|306:126,1,89.60000109375,2|0,1:2|0:0,0:0:0:0:
306,126,257430,1,0,0:0:0:0:
306,126,257525,5,0,1:0:0:0:
459,199,257715,2,0,L|514:184,2,44.800000546875,0|0|0,0:0|0:0|1:0,0:0:0:0:
337,280,258095,1,8,0:1:0:0:
443,113,258285,2,0,L|424:313,1,179.2000021875,2|0,1:2|1:0,0:0:0:0:
230,345,258855,2,0,L|332:333,1,89.60000109375,0|8,0:0|1:1,0:0:0:0:
93,286,259234,2,0,L|4:296,1,89.60000109375,2|2,0:2|1:2,0:0:0:0:
143,368,259614,1,0,0:0:0:0:
195,256,259804,6,0,P|205:211|201:162,2,89.60000109375,0|0|0,1:0|0:0|1:0,0:0:0:0:
195,256,260373,1,8,0:1:0:0:
119,207,260563,1,2,1:2:0:0:
136,120,260753,1,0,0:0:0:0:
51,150,260943,2,0,P|32:195|32:245,1,89.60000109375,0|0,1:0|0:0,0:0:0:0:
91,306,261323,2,0,P|62:348|28:372,1,89.60000109375,8|0,1:1|0:0,0:0:0:0:
197,338,261703,2,0,P|251:321|308:325,1,89.60000109375,2|0,1:2|0:0,0:0:0:0:
445,249,262082,6,0,L|298:230,1,134.400001640625,0|0,1:0|0:0,0:0:0:0:
300,237,262462,2,0,P|297:177|289:140,1,89.60000109375,0|8,1:0|0:1,0:0:0:0:
413,69,262842,2,0,P|405:113|404:157,1,89.60000109375,2|0,1:2|0:0,0:0:0:0:
196,208,263222,1,0,1:0:0:0:
320,71,263411,1,2,0:2:0:0:
300,237,263601,1,8,1:1:0:0:
178,109,263791,1,2,0:2:0:0:
178,109,263981,2,0,P|166:165|180:294,1,179.2000021875,2|0,1:2|1:0,0:0:0:0:
293,137,264551,6,0,L|351:131,2,44.800000546875,0|0|0,0:0|0:0|1:0,0:0:0:0:
427,133,264930,1,8,0:1:0:0:
461,42,265120,2,0,P|414:49|367:47,1,89.60000109375,2|0,1:2|0:0,0:0:0:0:
293,137,265500,1,0,1:0:0:0:
263,46,265690,1,2,0:2:0:0:
319,229,265880,2,0,P|385:217|507:226,2,179.2000021875,8|2|0,1:1|1:2|1:0,0:0:0:0:
207,249,266829,6,0,P|149:235|98:232,1,89.60000109375,0|0,0:0|1:0,0:0:0:0:
17,216,267209,1,8,0:1:0:0:
126,63,267399,2,0,P|145:115|104:252,1,179.2000021875,2|0,1:2|1:0,0:0:0:0:
49,113,267968,1,2,0:2:0:0:
250,152,268158,2,0,P|322:153|429:91,1,179.2000021875,8|2,1:1|1:2,0:0:0:0:
415,105,268918,6,0,P|417:161|428:204,1,89.60000109375,0|0,1:0|0:0,0:0:0:0:
459,215,269203,1,0,0:0:0:0:
459,215,269298,2,0,P|457:271|446:314,1,89.60000109375,0|8,1:0|0:1,0:0:0:0:
378,357,269677,1,2,1:2:0:0:
326,283,269867,1,0,0:0:0:0:
246,324,270057,2,0,L|151:323,1,89.60000109375,0|2,1:0|0:2,0:0:0:0:
83,140,270437,2,0,L|96:243,1,89.60000109375,8|2,1:1|0:2,0:0:0:0:
281,234,270817,1,2,1:2:0:0:
258,233,270911,1,2,0:2:0:0:
235,233,271006,1,2,0:2:0:0:
212,233,271101,1,2,0:2:0:0:
187,233,271196,5,0,1:0:0:0:
219,129,271386,2,0,B|265:38|313:101|365:13,2,191.999994140625,2|10|8,1:1|1:1|1:2,0:0:0:0:
275,267,272336,1,0,1:0:0:0:
219,129,272525,1,8,0:2:0:0:
318,166,272715,2,0,B|385:199|464:174|464:174,1,143.999995605469,8|0,1:1|0:0,0:0:0:0:
274,65,273095,2,0,B|230:38|179:57|179:57,1,95.9999970703126,2|2,1:2|0:2,0:0:0:0:
66,151,273475,5,0,1:0:0:0:
197,196,273665,1,2,1:1:0:0:
197,196,273760,1,0,0:0:0:0:
197,196,273855,1,0,0:0:0:0:
95,300,274044,1,10,1:1:0:0:
258,260,274234,1,0,0:0:0:0:
205,103,274424,1,8,1:2:0:0:
173,273,274614,2,0,B|163:328|182:373|182:373,1,95.9999970703126,0|8,1:0|0:2,0:0:0:0:
354,358,274994,2,0,B|379:289|348:210|348:210,1,143.999995605469,8|0,1:1|0:0,0:0:0:0:
350,217,275373,1,2,1:2:0:0:
470,129,275563,1,2,0:2:0:0:
368,114,275753,5,0,1:0:0:0:
457,230,275943,1,2,1:1:0:0:
457,230,276038,1,0,0:0:0:0:
457,230,276133,1,0,0:0:0:0:
368,114,276323,2,0,B|321:131|268:130|268:130,1,95.9999970703126,10|0,1:1|0:0,0:0:0:0:
220,337,276703,2,0,B|267:320|320:321|320:321,1,95.9999970703126,8|0,1:2|1:0,0:0:0:0:
288,224,277082,1,8,0:2:0:0:
138,268,277272,2,0,B|81:178|141:71|141:71,2,191.999994140625,8|2|0,1:1|1:2|1:0,0:0:0:0:
322,255,278222,5,2,1:1:0:0:
360,235,278317,1,0,0:0:0:0:
402,238,278411,1,0,0:0:0:0:
379,328,278601,1,10,1:1:0:0:
476,308,278791,1,0,0:0:0:0:
476,308,278981,2,0,B|500:268|489:208|489:208,2,95.9999970703126,8|0|8,1:2|1:0|0:2,0:0:0:0:
337,9,279551,2,0,B|376:69|371:150|371:150,1,143.999995605469,4|0,1:2|0:0,0:0:0:0:
449,155,279930,2,0,B|377:152|310:198|310:198,1,143.999995605469,4|0,1:2|0:0,0:0:0:0:
238,232,280310,6,0,L|127:219,1,95.9999970703126,0|2,1:3|1:1,0:0:0:0:
47,234,280690,1,0,0:0:0:0:
132,361,280880,1,10,1:1:0:0:
142,220,281070,1,0,0:3:0:0:
44,325,281260,1,8,1:2:0:0:
52,156,281449,2,0,B|115:57|223:109|223:109,2,191.999994140625,2|8|2,1:3|1:1|1:2,0:0:0:0:
227,219,282399,5,2,0:2:0:0:
227,219,282494,1,0,0:0:0:0:
227,219,282589,1,0,1:0:0:0:
326,332,282779,1,2,1:1:0:0:
178,366,282968,1,0,0:0:0:0:
226,217,283158,2,0,B|218:177|215:122|215:122,1,95.9999970703126,10|0,1:1|0:0,0:0:0:0:
214,121,283538,1,8,1:2:0:0:
252,317,283728,1,2,1:3:0:0:
155,289,283918,1,8,0:2:0:0:
321,243,284108,2,0,B|434:278|366:314|485:350,2,191.999994140625,8|2|0,1:1|1:2|1:0,0:0:0:0:
327,131,285057,6,0,B|381:126|417:102|417:102,1,95.9999970703126,2|0,1:1|0:0,0:0:0:0:
342,35,285437,1,10,1:1:0:0:
263,210,285627,2,0,B|202:128|243:10|243:10,1,191.999994140625,0|2,1:0|1:3,0:0:0:0:
378,226,286196,2,0,P|418:205|429:198,2,47.9999985351563,8|0|8,0:2|0:0|1:1,0:0:0:0:
270,307,286576,1,0,0:0:0:0:
170,238,286766,2,0,B|152:196|147:141|147:141,1,95.9999970703126,2|2,1:2|0:2,0:0:0:0:
147,145,287051,1,0,0:0:0:0:
147,145,287146,6,0,B|160:252|101:334|101:334,1,191.999994140625,0|0,1:0|1:0,0:0:0:0:
26,116,287715,1,10,0:1:0:0:
49,209,287905,2,0,B|144:220|253:211|253:211,1,191.999994140625,0|2,1:0|1:3,0:0:0:0:
395,180,288475,1,8,0:2:0:0:
283,290,288665,1,8,1:1:0:0:
239,129,288855,1,0,0:0:0:0:
395,180,289044,2,0,B|444:173|498:180|498:180,1,95.9999970703126,2|2,1:2|0:2,0:0:0:0:
490,179,289329,1,0,0:0:0:0:
490,179,289424,5,0,1:0:0:0:
445,262,289614,1,0,0:1:0:0:
395,180,289804,1,0,0:0:0:0:
345,265,289994,1,0,1:1:0:0:
443,102,290184,1,0,0:0:0:0:
445,262,290373,1,8,0:2:0:0:
341,105,290563,2,0,L|254:98,1,80,0|8,0:0|0:2,0:0:0:0:
207,34,290943,2,0,L|164:122,1,80,0|0,1:0|0:0,0:0:0:0:
136,177,291323,2,0,L|179:89,1,80,2|0,1:2|0:2,0:0:0:0:
292,170,291703,5,0,0:0:0:0:
401,206,291892,2,0,L|412:258,2,40,0|0|0,0:1|0:0|0:0,0:0:0:0:
492,118,292272,1,0,1:1:0:0:
492,118,292462,2,0,B|424:42|346:93|346:93,1,160
278,143,293032,1,8,0:2:0:0:
278,143,293222,1,0,1:0:0:0:
166,14,293411,1,0,0:0:0:0:
166,14,293601,2,0,B|186:122|186:122|170:184,1,160,2|0,1:2|0:0,0:0:0:0:
245,235,294171,5,0,0:1:0:0:
331,246,294361,1,0,0:0:0:0:
173,170,294551,1,0,1:1:0:0:
87,159,294741,2,0,B|56:233|84:320|84:320,1,160
185,356,295310,1,8,0:2:0:0:
302,327,295500,1,0,1:0:0:0:
185,356,295690,1,0,0:0:0:0:
302,327,295880,2,0,L|472:327,1,160,2|0,1:2|0:0,0:0:0:0:
497,244,296449,6,0,L|415:244,1,80
333,244,296829,1,0,1:0:0:0:
333,244,297019,2,0,B|300:164|335:65|335:65,1,160
250,45,297589,1,2,0:0:0:0:
250,45,297779,2,0,B|236:90|236:135|236:135,1,80,2|2,0:0|0:0,0:0:0:0:
166,178,298158,2,0,L|75:178,1,80,2|2,0:0|0:0,0:0:0:0:
84,349,298538,5,0,0:2:0:0:
122,320,298728,1,0,0:0:0:0:
170,319,298918,1,0,0:0:0:0:
215,335,299108,2,0,P|256:331|292:329,1,60.0000022888184,2|0,0:2|0:0,0:0:0:0:
355,355,299487,1,0,0:2:0:0:
443,321,299677,1,2,0:0:0:0:
358,267,299867,1,0,0:2:0:0:
451,235,300057,1,2,0:0:0:0:
451,235,300437,6,0,L|468:107,1,120.000004577637
466,116,301006,1,2,0:0:0:0:
374,31,301196,2,0,L|357:159,2,120.000004577637,2|0|0,0:0|0:0|0:0,0:0:0:0:
374,31,302146,1,2,0:0:0:0:
287,72,302336,2,0,B|253:68|229:50|229:50,1,60.0000022888184,2|0,0:0|0:0,0:0:0:0:
163,107,302715,2,0,B|146:76|146:49|146:49,1,60.0000022888184,2|0,0:0|0:0,0:0:0:0:
233,160,303095,5,0,0:0:0:0:
197,191,303285,1,0,0:0:0:0:
149,195,303475,1,2,0:0:0:0:
105,174,303665,2,0,L|94:303,1,120.000004577637,2|0,0:0|0:0,0:0:0:0:
94,293,304234,2,0,L|20:301,2,60.0000022888184,2|0|2,0:0|0:0|0:0,0:0:0:0:
264,340,304994,2,0,B|315:337|315:337|340:347|340:347|396:345,1,120.000004577637,2|0,0:0|0:0,0:0:0:0:
381,345,305563,1,0,0:0:0:0:
428,276,305753,5,0,0:0:0:0:
428,276,305943,2,0,B|441:212|406:152|406:152,1,120.000004577637
328,144,306513,2,0,B|310:84|337:23|337:23,1,120.000004577637,2|2,0:0|0:0,0:0:0:0:
417,46,307082,1,0,0:0:0:0:
495,77,307272,2,0,B|513:137|486:198|486:198,1,120.000004577637,2|2,0:0|0:0,0:0:0:0:
256,192,307842,12,0,316766,0:0:0:0:
