osu file format v14

[General]
AudioFilename: fake me.mp3
AudioLeadIn: 0
PreviewTime: 67499
Countdown: 1
SampleSet: None
StackLeniency: 0.7
Mode: 0
LetterboxInBreaks: 0
WidescreenStoryboard: 1

[Editor]
DistanceSpacing: 0.1
BeatDivisor: 4
GridSize: 8
TimelineZoom: 0.8000001

[Metadata]
Title:fake me
TitleUnicode:fake me
Artist:Itou Kanako
ArtistUnicode:Itou Kanako
Creator:yiyoooou
Version:Easy
Source:
Tags:
BeatmapID:1347626
BeatmapSetID:631122

[Difficulty]
HPDrainRate:4
CircleSize:3
OverallDifficulty:5
ApproachRate:5
SliderMultiplier:0.8
SliderTickRate:1

[Events]
//Background and Video events
0,0,"Chaos-Head-chaos-head-9115846-1024-819.jpg",0,0
//Break Periods
//Storyboard Layer 0 (Background)
//Storyboard Layer 1 (Fail)
//Storyboard Layer 2 (Pass)
//Storyboard Layer 3 (Foreground)
//Storyboard Sound Samples

[TimingPoints]
1722,405.405405405405,4,2,0,63,1,0
3343,-100,4,2,0,25,0,0
9830,-100,4,2,0,25,0,1
16113,-100,4,3,0,30,0,0
68208,-100,4,1,0,40,0,1
73951,-100,4,1,0,40,0,1
74390,-100,4,1,0,40,0,1
74492,-100,4,1,0,40,0,0
77938,-100,4,1,0,40,0,1
79965,-100,4,1,0,40,0,1
80066,-100,4,1,0,40,0,1
80370,-100,4,1,0,40,0,0
80573,-100,4,1,0,40,0,0
81181,-100,4,1,0,40,0,1
86857,-100,4,1,0,40,0,1
87262,-100,4,1,0,40,0,0
87465,-100,4,1,0,40,0,0
90100,-100,4,1,0,50,0,0
90911,-100,4,1,0,40,0,1
92938,-100,4,1,0,40,0,1
93546,-100,4,1,0,40,0,1
97397,-100,4,1,0,40,0,0
98005,-100,4,2,0,40,0,0
99221,-100,4,2,0,40,0,0
102262,-100,4,2,0,40,0,0

[Colours]
Combo1 : 0,0,255
Combo2 : 0,0,0
Combo3 : 0,0,64
Combo4 : 0,0,128

[HitObjects]
256,192,1722,5,2,0:0:0:0:
256,192,2532,1,2,0:0:0:0:
56,128,3343,6,0,P|120:72|352:96,2,320
208,184,7296,1,0,0:0:0:0:
144,248,7701,1,0,0:0:0:0:
40,232,8208,6,0,P|120:288|192:304,2,160,0|0|4,0:0|0:0|0:0,0:0:0:0:
16,144,10134,1,0,0:0:0:0:
104,144,10438,2,0,L|152:176,1,40,0|4,0:0|0:0,0:0:0:0:
264,72,11147,2,0,B|408:144,1,150
304,184,12262,2,4,B|368:216|368:216|368:248|368:248|432:280,2,160,4|0|4,0:0|0:0|0:0,0:0:0:0:
184,184,14289,1,0,0:0:0:0:
240,288,14694,2,0,P|320:312|384:376,1,160,0|4,0:0|0:0,0:0:0:0:
128,120,16316,6,0,P|216:96|288:120,1,160
272,200,17532,2,0,L|328:216,1,40
392,240,18140,2,0,B|368:336,1,80
288,336,18951,2,0,B|208:336|160:288|160:288|96:312,1,200
0,160,20978,6,0,B|168:184|168:184|192:112,1,240
200,80,22397,2,0,B|280:152|232:264,1,200
440,208,24019,6,0,L|392:208,1,40
352,304,24627,2,0,L|376:352,2,40
248,344,25438,2,0,P|176:320|112:216,1,200
56,104,26755,6,0,L|96:88,2,40
184,88,27465,2,0,B|272:88|272:88|280:72|352:72,1,160
392,192,28681,5,0,0:0:0:0:
360,304,29086,2,0,P|280:328|168:296,1,200
136,192,30505,2,0,B|176:216|176:216,1,40
208,96,31113,2,0,L|256:120,2,40
320,64,31924,2,0,P|400:168|376:256,2,220
64,80,35573,6,0,L|64:128,1,40
144,96,36181,1,0,0:0:0:0:
136,176,36586,1,0,0:0:0:0:
160,248,36992,2,0,L|200:224,1,40
232,296,37600,2,0,L|280:264,2,40
128,296,38411,6,0,B|128:248|128:248|96:248|56:216,1,120
128,168,39424,2,0,L|168:168,1,40
240,208,40032,2,0,L|240:152,2,40
216,88,41147,6,0,P|256:48|312:40,1,100
432,72,42059,2,0,P|456:168|440:312,1,240
312,296,43681,2,0,P|352:200|336:56,1,240
216,40,45303,2,0,B|216:80|216:80|100:38|52:126,1,220
56,280,46924,2,0,P|120:240|248:224,1,200
32,120,48546,6,0,P|112:72|256:64,1,240
360,88,50167,2,0,L|376:104,2,20
384,192,50776,2,0,P|352:240|264:272,1,140
168,272,51992,6,0,B|152:192|184:152|184:152|104:168|88:216,1,240
24,160,53613,2,0,P|80:88|224:72,1,240
256,144,55235,2,0,P|256:224|160:296,1,200
176,208,56654,2,0,B|256:160|328:192|328:192|344:152|344:152|320:112,1,240
256,80,58276,2,0,P|104:80|64:152,1,240
72,224,59897,2,0,B|136:272|136:272|296:216,1,240
328,152,61519,2,0,P|328:208|352:280,2,120
272,96,63140,2,0,P|216:64|56:128,1,240
64,200,64762,2,0,P|64:232|72:280,2,80
88,128,65978,2,0,L|112:96,2,40
72,184,67600,6,0,L|120:200,3,40
112,104,68613,1,0,0:0:0:0:
192,64,69019,2,0,P|264:128|296:136,1,120
376,120,70032,2,0,P|352:160|352:208,1,80
416,256,70843,2,0,B|368:312|272:344|272:344|272:304,2,200
352,192,73276,2,0,L|320:224,3,40
248,168,74492,6,0,P|216:216|152:232,2,120
160,128,76113,2,0,P|192:79|249:63,2,120
88,320,77938,6,0,L|136:336,3,40
216,336,78951,2,0,B|272:320|320:336|320:336|336:280|336:280|360:256|384:288,1,220
360,160,80573,6,0,P|440:192|456:192,2,100
256,104,81992,2,0,L|264:160,3,40
176,80,83005,2,0,P|128:72|112:104,1,80
48,168,83816,6,0,P|104:232|48:288,1,120
176,320,84830,2,0,P|216:352|352:312,1,200
344,224,86249,2,0,L|312:192,3,40
72,120,87465,6,0,B|72:240|72:240|120:240|120:240|120:312,1,240
216,312,89086,2,0,B|256:312|256:312|288:352|288:352|312:312|312:312|352:312|384:304|400:256,1,240
352,184,90911,6,0,P|384:144|328:56,2,160
200,56,93546,6,0,L|112:56,1,80
72,136,94357,2,0,L|160:135,1,80
200,216,95167,2,0,L|111:216,1,80
80,296,95978,1,0,0:0:0:0:
176,304,96384,2,0,P|224:272|264:320,1,120
264,224,97397,1,0,0:0:0:0:
80,112,98005,6,0,B|88:152|120:168|120:168|192:112,1,160
240,208,99221,2,0,P|344:144|360:16,1,260
256,192,100843,12,0,102262,0:0:0:0:
