osu file format v14

[General]
AudioFilename: sora no mukou de sakimasu youni.mp3
AudioLeadIn: 0
PreviewTime: 54259
Countdown: 1
SampleSet: Normal
StackLeniency: 0.7
Mode: 1
LetterboxInBreaks: 1
WidescreenStoryboard: 0

[Editor]
DistanceSpacing: 1.6
BeatDivisor: 4
GridSize: 4
TimelineZoom: 1.4

[Metadata]
Title:The Moon is Not Alone (Game Size)
TitleUnicode:The Moon is Not Alone(ゲームサイズ)
Artist:Itou Kanako
ArtistUnicode:いとうかなこ
Creator:kanpakyin
Version:Inner Oni
Source:`&'-空の向こうで咲きますように-
Tags:Sora no Mukou de Sakimasu Youni
BeatmapID:724616
BeatmapSetID:326293

[Difficulty]
HPDrainRate:6
CircleSize:5
OverallDifficulty:5.5
ApproachRate:5
SliderMultiplier:1.4
SliderTickRate:1

[Events]
//Background and Video events
0,0,"BG.jpg",0,0
//Break Periods
//Storyboard Layer 0 (Background)
//Storyboard Layer 1 (Fail)
//Storyboard Layer 2 (Pass)
//Storyboard Layer 3 (Foreground)
//Storyboard Layer 4 (Overlay)
//Storyboard Sound Samples

[TimingPoints]
513,368.098159509202,4,1,0,100,1,0
513,-117.647058823529,4,1,0,55,0,0
4378,-116.279069767442,4,1,0,55,0,0
4562,-113.636363636364,4,1,0,55,0,0
4746,-111.111111111111,4,1,0,55,0,0
5114,-105.263157894737,4,1,0,55,0,0
5482,-103.092783505155,4,1,0,55,0,0
5666,-100,4,1,0,75,0,0
6402,-100,4,1,0,85,0,0
12292,-98.0392156862745,4,1,0,85,0,0
12476,-94.3396226415094,4,1,0,85,0,0
12660,-90.9090909090909,4,1,0,85,0,0
12844,-87.719298245614,4,1,0,85,0,0
13028,-84.7457627118644,4,1,0,85,0,0
13212,-81.9672131147541,4,1,0,85,0,0
13396,-79.3650793650794,4,1,0,85,0,0
13580,-76.9230769230769,4,1,0,85,0,0
13948,-80,4,1,0,85,0,0
14132,-81.9672131147541,4,1,0,85,0,0
14316,-84.7457627118644,4,1,0,85,0,0
14500,-87.719298245614,4,1,0,85,0,0
14684,-90.9090909090909,4,1,0,85,0,0
14776,-91.743119266055,4,1,0,85,0,0
14868,-92.5925925925926,4,1,0,85,0,0
15236,-111.111111111111,4,1,0,50,0,0
24991,-111.111111111111,4,1,0,75,0,0
25083,-109.89010989011,4,1,0,75,0,0
25175,-108.695652173913,4,1,0,75,0,0
25359,-106.382978723404,4,1,0,75,0,0
25451,-105.263157894737,4,1,0,75,0,0
25543,-104.166666666667,4,1,0,75,0,0
25727,-103.092783505155,4,1,0,75,0,0
25911,-102.040816326531,4,1,0,75,0,0
26095,-101.010101010101,4,1,0,75,0,0
26279,-100,4,1,0,75,0,0
27016,-95.2380952380952,4,1,0,80,0,0
38059,-80,4,1,0,80,0,0
38243,-86.9565217391304,4,1,0,80,0,0
38611,-90.9090909090909,4,1,0,80,0,0
38979,-95.2380952380952,4,1,0,80,0,0
43948,-80,4,1,0,80,0,0
44132,-86.9565217391304,4,1,0,80,0,0
44500,-90.9090909090909,4,1,0,80,0,0
44868,-95.2380952380952,4,1,0,80,0,0
52046,-90.9090909090909,4,1,0,80,0,0
52230,-86.9565217391304,4,1,0,80,0,0
52414,-83.3333333333333,4,1,0,80,0,0
52598,-80,4,1,0,80,0,0
52782,-76.9230769230769,4,1,0,80,0,0
52966,-74.0740740740741,4,1,0,80,0,0
53151,-71.4285714285714,4,1,0,80,0,0
53335,-68.9655172413793,4,1,0,80,0,0
54255,-117.647058823529,4,1,0,75,0,0
54623,-100,4,1,0,75,0,0
54991,-86.9565217391304,4,1,0,85,0,1
65850,-86.9565217391304,4,1,0,85,0,0
66770,-86.9565217391304,4,1,0,85,0,1
77813,-87.719298245614,4,1,0,85,0,1
77905,-88.4955752212389,4,1,0,85,0,1
77997,-89.2857142857143,4,1,0,85,0,1
78089,-90.0900900900901,4,1,0,85,0,1
78181,-90.9090909090909,4,1,0,85,0,1
78273,-91.743119266055,4,1,0,85,0,1
78365,-92.5925925925926,4,1,0,85,0,1
78457,-93.4579439252336,4,1,0,85,0,1
78549,-94.3396226415094,4,1,0,85,0,0
79101,-111.111111111111,4,1,0,85,0,0
81126,-109.89010989011,4,1,0,85,0,0
81218,-108.695652173913,4,1,0,85,0,0
81310,-107.52688172043,4,1,0,85,0,0
81402,-106.382978723404,4,1,0,85,0,0
81494,-105.263157894737,4,1,0,85,0,0
81678,-100,4,1,0,85,0,0
81862,-95.2380952380952,4,1,0,85,0,0
82046,-90.9090909090909,4,1,0,85,0,0
82230,-86.9565217391304,4,1,0,85,0,0
82414,-83.3333333333333,4,1,0,85,0,0
82598,-80,4,1,0,85,0,0
82782,-76.9230769230769,4,1,0,85,0,0
82966,-74.0740740740741,4,1,0,85,0,0
84439,-117.647058823529,4,1,0,55,0,0
88304,-116.279069767442,4,1,0,55,0,0
88488,-113.636363636364,4,1,0,55,0,0
88672,-111.111111111111,4,1,0,55,0,0
89040,-105.263157894737,4,1,0,55,0,0
89408,-103.092783505155,4,1,0,55,0,0
89592,-100,4,1,0,75,0,0
90328,-95.2380952380952,4,1,0,85,0,0
96218,-90.9090909090909,4,1,0,80,0,0
96402,-86.9565217391304,4,1,0,80,0,0
96586,-83.3333333333333,4,1,0,80,0,0
96770,-80,4,1,0,80,0,0
96954,-76.9230769230769,4,1,0,80,0,0
97138,-74.0740740740741,4,1,0,80,0,0
97323,-71.4285714285714,4,1,0,80,0,0
97507,-68.9655172413793,4,1,0,80,0,0
97874,-83.3333333333333,4,1,0,80,0,0
98059,-86.9565217391304,4,1,0,80,0,0
98243,-90.9090909090909,4,1,0,80,0,0
98427,-95.2380952380952,4,1,0,80,0,0
98611,-100,4,1,0,80,0,0
98703,-101.010101010101,4,1,0,80,0,0
98795,-102.040816326531,4,1,0,80,0,0
99163,-117.647058823529,4,1,0,75,0,0
101924,-90.9090909090909,4,1,0,75,0,0

[HitObjects]
404,120,513,5,0,0:0:0:0:
404,120,697,1,8,0:0:0:0:
404,120,881,1,8,0:0:0:0:
404,120,1065,1,0,0:0:0:0:
404,120,1433,1,0,0:0:0:0:
404,120,1617,1,8,0:0:0:0:
404,120,1985,1,8,0:0:0:0:
404,120,2169,1,0,0:0:0:0:
404,120,2353,1,8,0:0:0:0:
404,120,2537,1,8,0:0:0:0:
404,120,2905,1,8,0:0:0:0:
404,120,3089,1,0,0:0:0:0:
404,120,3457,1,0,0:0:0:0:
404,120,3641,1,8,0:0:0:0:
404,120,3825,1,8,0:0:0:0:
404,120,4009,1,0,0:0:0:0:
389,120,4193,1,8,0:0:0:0:
404,120,4378,1,0,0:0:0:0:
404,120,4562,1,8,0:0:0:0:
404,120,4746,1,0,0:0:0:0:
404,120,5114,1,0,0:0:0:0:
404,120,5482,1,0,0:0:0:0:
245,109,5666,1,12,0:0:0:0:
245,109,5850,1,0,0:0:0:0:
245,109,5942,1,0,0:0:0:0:
245,109,6034,1,8,0:0:0:0:
236,103,6218,1,0,0:0:0:0:
225,111,6402,1,8,0:0:0:0:
234,103,6586,1,8,0:0:0:0:
225,101,6770,1,0,0:0:0:0:
225,101,6954,1,8,0:0:0:0:
225,101,7046,1,0,0:0:0:0:
229,109,7138,1,8,0:0:0:0:
225,101,7322,1,0,0:0:0:0:
196,95,7414,1,0,0:0:0:0:
225,101,7506,1,8,0:0:0:0:
233,114,7690,1,8,0:0:0:0:
225,101,7874,1,0,0:0:0:0:
231,106,8059,1,8,0:0:0:0:
225,101,8243,1,8,0:0:0:0:
225,101,8427,1,0,0:0:0:0:
229,109,8611,1,8,0:0:0:0:
238,107,8795,1,0,0:0:0:0:
238,106,8887,1,0,0:0:0:0:
240,105,8979,1,8,0:0:0:0:
246,98,9163,1,8,0:0:0:0:
251,100,9255,1,0,0:0:0:0:
254,99,9347,1,0,0:0:0:0:
259,98,9531,1,8,0:0:0:0:
245,100,9715,1,0,0:0:0:0:
225,101,9899,1,8,0:0:0:0:
252,95,10083,1,8,0:0:0:0:
251,97,10267,1,0,0:0:0:0:
251,97,10359,1,8,0:0:0:0:
252,97,10451,1,0,0:0:0:0:
251,101,10635,1,8,0:0:0:0:
239,84,10819,1,0,0:0:0:0:
241,100,11003,1,8,0:0:0:0:
250,88,11187,1,0,0:0:0:0:
225,101,11371,1,0,0:0:0:0:
250,88,11555,1,8,0:0:0:0:
225,101,11647,1,8,0:0:0:0:
232,101,11739,1,0,0:0:0:0:
232,102,11832,1,0,0:0:0:0:
250,88,11924,1,0,0:0:0:0:
251,88,12108,1,0,0:0:0:0:
251,88,12292,1,12,0:0:0:0:
240,94,12476,1,8,0:0:0:0:
241,94,12660,1,0,0:0:0:0:
241,100,12844,1,0,0:0:0:0:
241,94,13028,1,12,0:0:0:0:
241,94,13212,1,12,0:0:0:0:
241,94,13396,1,12,0:0:0:0:
241,94,13580,5,4,0:0:0:0:
422,137,13948,1,0,0:0:0:0:
422,137,14132,1,8,0:0:0:0:
424,137,14316,1,8,0:0:0:0:
424,137,14500,1,0,0:0:0:0:
421,129,14684,1,8,0:0:0:0:
412,129,14776,1,8,0:0:0:0:
424,137,14868,1,0,0:0:0:0:
424,137,15236,1,4,0:0:0:0:
422,137,15605,1,0,0:0:0:0:
422,137,15789,1,0,0:0:0:0:
422,137,15973,1,8,0:0:0:0:
424,137,16157,1,0,0:0:0:0:
424,137,16341,1,0,0:0:0:0:
424,137,16525,1,8,0:0:0:0:
424,137,16709,1,0,0:0:0:0:
424,137,16893,1,0,0:0:0:0:
424,137,16985,1,0,0:0:0:0:
424,137,17077,1,8,0:0:0:0:
422,137,17261,1,0,0:0:0:0:
422,137,17445,1,8,0:0:0:0:
403,139,17629,1,0,0:0:0:0:
403,139,17721,1,8,0:0:0:0:
404,138,17813,1,0,0:0:0:0:
404,138,17905,1,0,0:0:0:0:
404,138,17997,1,8,0:0:0:0:
404,138,18181,1,0,0:0:0:0:
424,137,18365,1,8,0:0:0:0:
424,137,18457,1,0,0:0:0:0:
424,137,18549,1,0,0:0:0:0:
419,146,18733,1,0,0:0:0:0:
422,137,18917,1,8,0:0:0:0:
419,146,19101,1,0,0:0:0:0:
404,138,19193,1,8,0:0:0:0:
419,146,19286,1,8,0:0:0:0:
419,146,19470,1,8,0:0:0:0:
419,146,19562,1,0,0:0:0:0:
419,146,19654,1,0,0:0:0:0:
419,133,19746,1,8,0:0:0:0:
411,131,19838,1,0,0:0:0:0:
404,138,20022,1,8,0:0:0:0:
399,140,20206,1,0,0:0:0:0:
399,140,20390,1,8,0:0:0:0:
391,139,20574,1,0,0:0:0:0:
391,139,20666,1,8,0:0:0:0:
391,139,20758,1,8,0:0:0:0:
391,139,20942,1,0,0:0:0:0:
391,139,21126,1,0,0:0:0:0:
414,123,21310,1,8,0:0:0:0:
391,153,21494,1,8,0:0:0:0:
391,153,21678,1,0,0:0:0:0:
389,147,21862,1,0,0:0:0:0:
388,148,22046,1,0,0:0:0:0:
388,148,22138,1,8,0:0:0:0:
388,148,22230,1,8,0:0:0:0:
388,148,22414,1,8,0:0:0:0:
388,149,22598,1,0,0:0:0:0:
388,141,22690,1,8,0:0:0:0:
388,149,22782,1,0,0:0:0:0:
402,135,22966,1,8,0:0:0:0:
402,135,23151,1,0,0:0:0:0:
402,135,23243,1,0,0:0:0:0:
402,135,23335,1,8,0:0:0:0:
395,133,23519,1,0,0:0:0:0:
376,121,23611,1,8,0:0:0:0:
394,133,23703,1,8,0:0:0:0:
395,133,23887,1,8,0:0:0:0:
395,133,24071,1,0,0:0:0:0:
393,135,24255,1,8,0:0:0:0:
393,135,24439,1,8,0:0:0:0:
367,138,24623,1,0,0:0:0:0:
393,135,24807,1,8,0:0:0:0:
366,138,24991,1,0,0:0:0:0:
395,133,25083,1,8,0:0:0:0:
393,135,25175,1,8,0:0:0:0:
370,135,25359,1,8,0:0:0:0:
371,136,25451,1,0,0:0:0:0:
395,133,25543,1,8,0:0:0:0:
384,129,25727,1,0,0:0:0:0:
384,129,25911,1,0,0:0:0:0:
386,128,26095,1,12,0:0:0:0:
389,128,26279,1,0,0:0:0:0:
386,127,26371,1,8,0:0:0:0:
386,127,26463,1,0,0:0:0:0:
386,127,26555,1,0,0:0:0:0:
386,127,26647,1,8,0:0:0:0:
380,142,27016,1,12,0:0:0:0:
389,134,27200,1,0,0:0:0:0:
395,133,27384,1,8,0:0:0:0:
373,133,27568,1,0,0:0:0:0:
373,133,27660,1,8,0:0:0:0:
363,130,27752,1,0,0:0:0:0:
363,130,27936,1,0,0:0:0:0:
363,130,28028,1,0,0:0:0:0:
361,130,28120,1,0,0:0:0:0:
362,129,28304,1,8,0:0:0:0:
361,131,28488,1,0,0:0:0:0:
363,130,28672,1,0,0:0:0:0:
366,130,28856,1,8,0:0:0:0:
342,121,29040,1,0,0:0:0:0:
342,121,29132,1,8,0:0:0:0:
342,121,29224,1,0,0:0:0:0:
345,116,29408,1,0,0:0:0:0:
349,119,29592,1,8,0:0:0:0:
363,130,29776,1,0,0:0:0:0:
361,130,29868,1,0,0:0:0:0:
361,130,29960,1,0,0:0:0:0:
362,129,30144,1,0,0:0:0:0:
363,130,30328,1,8,0:0:0:0:
349,131,30512,1,0,0:0:0:0:
348,130,30605,1,0,0:0:0:0:
349,131,30697,1,0,0:0:0:0:
345,130,30881,1,0,0:0:0:0:
345,130,31065,1,0,0:0:0:0:
345,130,31249,1,8,0:0:0:0:
322,117,31433,1,0,0:0:0:0:
322,117,31617,1,0,0:0:0:0:
322,117,31801,1,8,0:0:0:0:
320,121,31985,1,0,0:0:0:0:
320,121,32077,1,8,0:0:0:0:
320,121,32169,1,0,0:0:0:0:
315,117,32353,1,0,0:0:0:0:
322,117,32537,1,8,0:0:0:0:
308,120,32721,1,0,0:0:0:0:
308,120,32813,1,0,0:0:0:0:
308,120,32905,1,0,0:0:0:0:
308,120,33089,1,0,0:0:0:0:
308,120,33273,1,8,0:0:0:0:
308,120,33457,1,0,0:0:0:0:
308,120,33549,1,8,0:0:0:0:
308,120,33641,1,0,0:0:0:0:
306,124,33825,1,0,0:0:0:0:
306,124,34009,1,0,0:0:0:0:
306,124,34193,1,8,0:0:0:0:
308,112,34378,1,0,0:0:0:0:
308,112,34562,1,0,0:0:0:0:
308,112,34654,1,0,0:0:0:0:
308,112,34746,1,8,0:0:0:0:
299,110,34930,1,0,0:0:0:0:
306,124,35022,1,8,0:0:0:0:
299,110,35114,1,0,0:0:0:0:
312,122,35298,1,0,0:0:0:0:
312,122,35390,1,0,0:0:0:0:
312,122,35482,1,8,0:0:0:0:
298,126,35574,1,8,0:0:0:0:
298,126,35666,1,0,0:0:0:0:
298,126,35850,1,0,0:0:0:0:
321,141,36034,1,0,0:0:0:0:
308,112,36126,1,0,0:0:0:0:
309,117,36218,1,8,0:0:0:0:
307,118,36402,1,0,0:0:0:0:
307,118,36494,1,8,0:0:0:0:
307,118,36586,1,0,0:0:0:0:
302,119,36770,1,0,0:0:0:0:
302,119,36954,1,8,0:0:0:0:
302,119,37138,1,4,0:0:0:0:
298,105,37506,1,0,0:0:0:0:
298,105,37690,1,8,0:0:0:0:
298,105,37874,1,0,0:0:0:0:
298,105,38059,1,12,0:0:0:0:
296,109,38243,1,4,0:0:0:0:
317,126,38611,1,4,0:0:0:0:
311,137,38979,1,0,0:0:0:0:
311,137,39163,1,8,0:0:0:0:
312,137,39347,1,0,0:0:0:0:
316,151,39439,1,8,0:0:0:0:
308,143,39531,1,0,0:0:0:0:
308,143,39715,1,0,0:0:0:0:
308,143,39807,1,0,0:0:0:0:
308,143,39899,1,8,0:0:0:0:
294,138,40083,1,0,0:0:0:0:
294,138,40267,1,0,0:0:0:0:
299,141,40451,1,0,0:0:0:0:
301,141,40635,1,8,0:0:0:0:
304,140,40727,1,0,0:0:0:0:
304,140,40911,1,8,0:0:0:0:
304,140,41003,1,0,0:0:0:0:
304,140,41095,1,8,0:0:0:0:
304,140,41187,1,0,0:0:0:0:
308,143,41371,1,8,0:0:0:0:
308,143,41555,1,0,0:0:0:0:
303,134,41924,1,0,0:0:0:0:
307,133,42016,1,0,0:0:0:0:
308,133,42108,1,8,0:0:0:0:
291,129,42292,1,0,0:0:0:0:
294,128,42476,1,8,0:0:0:0:
295,128,42660,1,0,0:0:0:0:
295,128,42752,1,8,0:0:0:0:
295,128,42844,1,8,0:0:0:0:
295,128,43028,1,4,0:0:0:0:
299,132,43396,1,0,0:0:0:0:
299,135,43580,1,8,0:0:0:0:
303,134,43764,1,0,0:0:0:0:
301,131,43948,1,12,0:0:0:0:
301,131,44132,1,4,0:0:0:0:
295,136,44500,1,12,0:0:0:0:
286,131,44868,1,0,0:0:0:0:
289,129,45052,1,8,0:0:0:0:
290,129,45236,1,0,0:0:0:0:
302,141,45328,1,8,0:0:0:0:
302,141,45420,1,0,0:0:0:0:
302,141,45605,1,0,0:0:0:0:
302,141,45789,1,8,0:0:0:0:
281,139,45973,1,0,0:0:0:0:
269,146,46157,1,0,0:0:0:0:
289,146,46341,1,0,0:0:0:0:
296,126,46525,1,8,0:0:0:0:
289,129,46709,1,0,0:0:0:0:
289,129,46801,1,8,0:0:0:0:
290,129,46893,1,0,0:0:0:0:
290,129,46985,1,8,0:0:0:0:
286,132,47077,1,0,0:0:0:0:
292,131,47261,1,8,0:0:0:0:
292,131,47445,1,4,0:0:0:0:
282,122,47813,1,0,0:0:0:0:
282,122,47997,1,8,0:0:0:0:
308,119,48181,1,0,0:0:0:0:
308,119,48273,1,8,0:0:0:0:
308,119,48365,1,0,0:0:0:0:
305,121,48549,1,0,0:0:0:0:
302,122,48733,1,8,0:0:0:0:
310,119,48917,1,0,0:0:0:0:
310,119,49009,1,0,0:0:0:0:
310,119,49101,1,0,0:0:0:0:
294,109,49286,1,0,0:0:0:0:
294,109,49470,1,8,0:0:0:0:
294,109,49562,1,0,0:0:0:0:
294,109,49746,1,8,0:0:0:0:
294,109,49838,1,0,0:0:0:0:
294,109,49930,1,8,0:0:0:0:
294,109,50022,1,8,0:0:0:0:
293,114,50114,1,0,0:0:0:0:
293,114,50206,1,8,0:0:0:0:
299,118,50390,1,0,0:0:0:0:
292,113,50574,1,12,0:0:0:0:
297,120,50942,1,8,0:0:0:0:
297,120,51126,1,0,0:0:0:0:
297,120,51310,1,8,0:0:0:0:
297,120,51494,1,0,0:0:0:0:
297,120,51678,1,8,0:0:0:0:
297,120,51862,1,0,0:0:0:0:
297,120,52046,1,12,0:0:0:0:
299,118,52230,1,0,0:0:0:0:
297,120,52414,1,4,0:0:0:0:
297,120,52598,1,4,0:0:0:0:
297,120,52782,1,4,0:0:0:0:
297,120,52966,1,4,0:0:0:0:
297,120,53151,1,4,0:0:0:0:
297,120,53335,1,12,0:0:0:0:
286,122,54255,1,0,0:0:0:0:
286,122,54623,1,0,0:0:0:0:
286,122,54991,1,12,0:0:0:0:
299,125,55175,1,0,0:0:0:0:
305,123,55359,1,8,0:0:0:0:
293,119,55543,1,0,0:0:0:0:
293,119,55635,1,0,0:0:0:0:
293,120,55727,1,0,0:0:0:0:
293,119,55911,1,0,0:0:0:0:
294,120,56095,1,8,0:0:0:0:
281,137,56279,1,0,0:0:0:0:
281,137,56463,1,0,0:0:0:0:
269,139,56647,1,0,0:0:0:0:
270,139,56739,1,0,0:0:0:0:
283,138,56832,1,8,0:0:0:0:
274,137,57016,1,0,0:0:0:0:
274,137,57108,1,8,0:0:0:0:
274,137,57200,1,0,0:0:0:0:
270,135,57292,1,0,0:0:0:0:
272,134,57384,1,8,0:0:0:0:
277,142,57568,1,8,0:0:0:0:
283,140,57752,1,8,0:0:0:0:
275,142,57844,1,8,0:0:0:0:
275,142,57936,1,0,0:0:0:0:
282,145,58120,1,0,0:0:0:0:
282,145,58304,1,8,0:0:0:0:
269,170,58488,1,0,0:0:0:0:
271,169,58580,1,8,0:0:0:0:
272,168,58672,1,0,0:0:0:0:
273,157,58856,1,8,0:0:0:0:
267,153,59040,1,8,0:0:0:0:
281,165,59224,1,0,0:0:0:0:
281,165,59316,1,0,0:0:0:0:
281,165,59408,1,0,0:0:0:0:
281,165,59592,1,0,0:0:0:0:
274,152,59776,1,8,0:0:0:0:
273,153,59960,1,0,0:0:0:0:
273,153,60052,1,0,0:0:0:0:
274,153,60144,1,0,0:0:0:0:
278,152,60236,1,0,0:0:0:0:
278,151,60328,1,8,0:0:0:0:
277,157,60512,1,8,0:0:0:0:
252,170,60697,1,0,0:0:0:0:
272,158,60881,1,0,0:0:0:0:
270,153,61249,1,8,0:0:0:0:
269,162,61433,1,0,0:0:0:0:
265,162,61525,1,8,0:0:0:0:
265,162,61617,1,0,0:0:0:0:
265,162,61709,1,8,0:0:0:0:
265,162,61801,1,0,0:0:0:0:
265,162,61985,1,8,0:0:0:0:
248,146,62169,1,0,0:0:0:0:
244,142,62261,1,0,0:0:0:0:
248,146,62353,1,8,0:0:0:0:
242,145,62445,1,0,0:0:0:0:
242,146,62629,1,0,0:0:0:0:
242,146,62721,1,8,0:0:0:0:
252,140,62905,1,0,0:0:0:0:
239,142,62997,1,8,0:0:0:0:
239,142,63089,1,0,0:0:0:0:
243,141,63181,1,8,0:0:0:0:
243,141,63273,1,0,0:0:0:0:
244,139,63457,1,8,0:0:0:0:
237,131,63641,1,0,0:0:0:0:
229,129,63733,1,0,0:0:0:0:
244,139,63825,1,0,0:0:0:0:
252,140,64009,1,0,0:0:0:0:
235,132,64101,1,0,0:0:0:0:
235,132,64193,1,8,0:0:0:0:
235,132,64378,1,0,0:0:0:0:
235,130,64562,1,0,0:0:0:0:
237,128,64746,1,0,0:0:0:0:
238,128,64930,1,8,0:0:0:0:
237,131,65114,1,8,0:0:0:0:
244,139,65206,1,0,0:0:0:0:
237,131,65298,1,8,0:0:0:0:
227,124,65482,1,0,0:0:0:0:
224,122,65666,1,0,0:0:0:0:
231,122,65850,1,12,0:0:0:0:
240,124,66218,1,0,0:0:0:0:
240,123,66402,1,8,0:0:0:0:
238,128,66586,1,8,0:0:0:0:
238,128,66678,1,8,0:0:0:0:
238,128,66770,1,0,0:0:0:0:
243,128,66954,1,8,0:0:0:0:
243,128,67138,1,8,0:0:0:0:
241,124,67322,1,0,0:0:0:0:
213,103,67506,1,0,0:0:0:0:
233,111,67690,1,0,0:0:0:0:
234,110,67874,1,8,0:0:0:0:
228,87,68059,1,0,0:0:0:0:
228,87,68243,1,0,0:0:0:0:
228,87,68427,1,0,0:0:0:0:
228,87,68519,1,0,0:0:0:0:
228,87,68611,1,8,0:0:0:0:
245,97,68795,1,0,0:0:0:0:
245,97,68887,1,8,0:0:0:0:
234,97,68979,1,0,0:0:0:0:
245,97,69071,1,8,0:0:0:0:
245,97,69163,1,0,0:0:0:0:
261,96,69347,1,8,0:0:0:0:
243,103,69531,1,8,0:0:0:0:
243,103,69623,1,8,0:0:0:0:
243,103,69715,1,0,0:0:0:0:
238,100,69899,1,0,0:0:0:0:
238,100,70083,1,8,0:0:0:0:
235,99,70267,1,0,0:0:0:0:
235,99,70359,1,8,0:0:0:0:
235,99,70451,1,0,0:0:0:0:
235,99,70543,1,0,0:0:0:0:
235,99,70635,1,8,0:0:0:0:
235,99,70819,1,8,0:0:0:0:
227,100,71003,1,0,0:0:0:0:
228,99,71371,1,0,0:0:0:0:
228,99,71555,1,8,0:0:0:0:
235,99,71739,1,0,0:0:0:0:
214,82,71832,1,8,0:0:0:0:
236,108,71924,1,0,0:0:0:0:
236,108,72016,1,0,0:0:0:0:
236,108,72108,1,8,0:0:0:0:
236,108,72200,1,0,0:0:0:0:
236,108,72292,1,8,0:0:0:0:
236,108,72476,1,8,0:0:0:0:
236,107,72568,1,8,0:0:0:0:
237,108,72660,1,0,0:0:0:0:
235,112,73028,1,8,0:0:0:0:
235,112,73304,1,8,0:0:0:0:
235,112,73396,1,0,0:0:0:0:
235,112,73580,1,0,0:0:0:0:
236,108,73764,1,8,0:0:0:0:
236,108,73948,1,0,0:0:0:0:
228,109,74040,1,8,0:0:0:0:
228,109,74132,1,0,0:0:0:0:
228,109,74316,1,0,0:0:0:0:
228,109,74500,1,8,0:0:0:0:
228,109,74684,1,8,0:0:0:0:
228,117,74776,1,0,0:0:0:0:
228,117,74868,1,0,0:0:0:0:
228,117,74960,1,8,0:0:0:0:
228,117,75052,1,0,0:0:0:0:
228,117,75236,1,8,0:0:0:0:
227,112,75420,1,8,0:0:0:0:
227,112,75512,1,8,0:0:0:0:
227,112,75605,1,0,0:0:0:0:
230,108,75789,1,0,0:0:0:0:
228,109,75973,1,8,0:0:0:0:
228,109,76157,1,0,0:0:0:0:
266,138,76249,1,8,0:0:0:0:
228,109,76341,1,0,0:0:0:0:
228,109,76525,1,0,0:0:0:0:
221,106,76709,1,8,0:0:0:0:
233,109,76893,1,0,0:0:0:0:
246,119,77077,1,0,0:0:0:0:
233,109,77261,1,0,0:0:0:0:
233,109,77353,1,0,0:0:0:0:
230,108,77445,1,8,0:0:0:0:
230,108,77629,1,0,0:0:0:0:
234,110,77813,1,8,0:0:0:0:
235,110,77905,1,8,0:0:0:0:
235,110,77997,1,0,0:0:0:0:
235,110,78089,1,0,0:0:0:0:
235,110,78181,1,8,0:0:0:0:
235,110,78273,1,8,0:0:0:0:
235,110,78365,1,0,0:0:0:0:
235,110,78457,1,0,0:0:0:0:
235,110,78549,1,8,0:0:0:0:
219,105,79101,1,0,0:0:0:0:
219,105,79286,1,0,0:0:0:0:
219,105,79654,1,8,0:0:0:0:
219,105,79838,1,0,0:0:0:0:
212,104,80206,1,0,0:0:0:0:
212,104,80574,1,0,0:0:0:0:
219,105,80758,1,0,0:0:0:0:
219,105,81126,1,8,0:0:0:0:
219,105,81218,1,0,0:0:0:0:
219,105,81310,1,0,0:0:0:0:
219,105,81402,1,0,0:0:0:0:
219,105,81494,1,8,0:0:0:0:
219,105,81678,1,0,0:0:0:0:
222,104,81862,1,12,0:0:0:0:
222,104,82046,1,12,0:0:0:0:
222,104,82230,1,4,0:0:0:0:
222,104,82414,1,4,0:0:0:0:
219,105,82598,1,12,0:0:0:0:
219,105,82782,1,12,0:0:0:0:
219,105,82966,1,4,0:0:0:0:
219,105,84439,1,0,0:0:0:0:
219,105,84623,1,8,0:0:0:0:
219,105,84807,1,8,0:0:0:0:
219,105,84991,1,0,0:0:0:0:
219,105,85359,1,0,0:0:0:0:
219,105,85543,1,8,0:0:0:0:
219,105,85911,1,0,0:0:0:0:
219,105,86095,1,8,0:0:0:0:
219,105,86279,1,0,0:0:0:0:
219,105,86463,1,8,0:0:0:0:
219,105,86832,1,8,0:0:0:0:
219,105,87016,1,0,0:0:0:0:
219,105,87384,1,0,0:0:0:0:
219,105,87568,1,8,0:0:0:0:
219,105,87752,1,8,0:0:0:0:
219,105,87936,1,0,0:0:0:0:
242,144,88120,1,8,0:0:0:0:
219,105,88304,1,0,0:0:0:0:
219,105,88488,1,8,0:0:0:0:
219,105,88672,1,0,0:0:0:0:
219,105,89040,1,8,0:0:0:0:
219,105,89408,1,0,0:0:0:0:
219,105,89592,1,8,0:0:0:0:
219,105,89776,1,0,0:0:0:0:
220,119,89868,1,0,0:0:0:0:
219,105,89960,1,8,0:0:0:0:
225,111,90328,1,4,0:0:0:0:
234,103,90512,1,8,0:0:0:0:
225,101,90605,1,8,0:0:0:0:
225,101,90697,1,0,0:0:0:0:
225,101,90881,1,8,0:0:0:0:
229,109,91065,1,8,0:0:0:0:
225,101,91249,1,0,0:0:0:0:
229,100,91341,1,8,0:0:0:0:
225,101,91433,1,0,0:0:0:0:
233,114,91617,1,8,0:0:0:0:
225,101,91801,1,0,0:0:0:0:
226,90,91893,1,0,0:0:0:0:
231,106,91985,1,8,0:0:0:0:
225,101,92169,1,0,0:0:0:0:
225,101,92353,1,0,0:0:0:0:
229,109,92537,1,8,0:0:0:0:
238,107,92721,1,0,0:0:0:0:
238,106,92813,1,0,0:0:0:0:
240,105,92905,1,8,0:0:0:0:
246,98,93089,1,8,0:0:0:0:
254,99,93273,1,0,0:0:0:0:
259,98,93457,1,8,0:0:0:0:
245,100,93641,1,0,0:0:0:0:
225,101,93825,1,0,0:0:0:0:
252,95,94009,1,8,0:0:0:0:
251,97,94193,1,0,0:0:0:0:
251,97,94286,1,8,0:0:0:0:
252,97,94378,1,0,0:0:0:0:
251,101,94562,1,8,0:0:0:0:
239,84,94746,1,0,0:0:0:0:
241,100,94930,1,8,0:0:0:0:
250,88,95114,1,0,0:0:0:0:
225,101,95298,1,0,0:0:0:0:
250,88,95482,1,8,0:0:0:0:
225,101,95574,1,0,0:0:0:0:
250,88,95758,1,0,0:0:0:0:
250,88,95850,1,0,0:0:0:0:
251,88,96034,1,0,0:0:0:0:
251,88,96218,1,8,0:0:0:0:
240,94,96402,1,8,0:0:0:0:
241,94,96586,1,0,0:0:0:0:
241,100,96770,1,0,0:0:0:0:
241,94,96954,1,12,0:0:0:0:
241,94,97138,1,12,0:0:0:0:
241,94,97322,1,12,0:0:0:0:
241,94,97506,1,4,0:0:0:0:
250,104,97874,1,0,0:0:0:0:
250,104,98059,1,8,0:0:0:0:
250,104,98243,1,8,0:0:0:0:
250,104,98427,1,0,0:0:0:0:
250,104,98611,1,8,0:0:0:0:
248,102,98703,1,8,0:0:0:0:
250,104,98795,1,0,0:0:0:0:
253,103,99163,1,0,0:0:0:0:
250,104,99531,1,0,0:0:0:0:
250,104,99715,1,8,0:0:0:0:
250,104,99899,1,0,0:0:0:0:
250,104,100267,1,0,0:0:0:0:
250,104,100451,1,8,0:0:0:0:
250,104,100635,1,0,0:0:0:0:
253,103,101003,1,0,0:0:0:0:
250,104,101187,1,8,0:0:0:0:
250,104,101371,1,0,0:0:0:0:
246,99,101555,1,8,0:0:0:0:
246,99,101647,1,8,0:0:0:0:
246,99,101739,1,0,0:0:0:0:
246,99,101924,1,12,0:0:0:0:
