osu file format v14

[General]
AudioFilename: sora no mukou de sakimasu youni.mp3
AudioLeadIn: 0
PreviewTime: 54259
Countdown: 1
SampleSet: Soft
StackLeniency: 0
Mode: 0
LetterboxInBreaks: 0
WidescreenStoryboard: 1

[Editor]
DistanceSpacing: 0.4
BeatDivisor: 4
GridSize: 4
TimelineZoom: 1.4

[Metadata]
Title:The Moon is Not Alone (Game Size)
TitleUnicode:The Moon is Not Alone(ゲームサイズ)
Artist:Itou Kanako
ArtistUnicode:いとうかなこ
Creator:kanpakyin
Version:Aozora
Source:`&'-空の向こうで咲きますように-
Tags:Sora no Mukou de Sakimasu Youni
BeatmapID:3043699
BeatmapSetID:326293

[Difficulty]
HPDrainRate:6.6
CircleSize:4.3
OverallDifficulty:7.7
ApproachRate:8.9
SliderMultiplier:1.6
SliderTickRate:1

[Events]
//Background and Video events
0,0,"BG.jpg",0,0
//Break Periods
2,8258,12755
2,13780,64657
//Storyboard Layer 0 (Background)
//Storyboard Layer 1 (Fail)
//Storyboard Layer 2 (Pass)
//Storyboard Layer 3 (Foreground)
//Storyboard Layer 4 (Overlay)
//Storyboard Sound Samples

[TimingPoints]
513,368.098159509202,4,2,0,20,1,0
513,-133.333333333333,4,2,0,20,0,0
5666,-83.3333333333333,4,2,0,20,0,0
6034,-66.6666666666667,4,2,0,20,0,0
6402,-100,4,2,0,20,0,0

[Colours]
Combo1 : 223,121,190
Combo2 : 94,168,230
Combo3 : 189,237,141

[HitObjects]
30,256,513,6,0,P|61:245|91:240,1,60.0000022888184
198,152,881,1,0,0:0:0:0:
62,314,1065,2,0,P|33:280|48:190,1,120.000004577637
161,270,1617,1,0,0:0:0:0:
161,270,1985,6,0,P|203:265|237:252,1,60.0000022888184
295,137,2353,1,0,0:0:0:0:
140,209,2537,2,0,L|175:345,1,120.000004577637
230,183,3089,1,0,0:0:0:0:
230,183,3457,6,0,P|268:188|301:200,1,60.0000022888184
378,329,3825,1,0,0:0:0:0:
240,247,4009,2,0,L|218:106,1,120.000004577637
355,68,4562,1,0,0:0:0:0:
158,224,4746,2,0,B|132:222|106:235|106:235|32:203,1,120.000004577637
200,48,5298,2,0,P|232:56|286:69,1,60.0000022888184
406,223,5666,6,0,P|374:229|355:235,1,47.9999985351563
185,316,5850,2,0,P|214:324|233:333,1,47.9999985351563
289,194,6034,6,0,B|261:136|304:78|304:78|283:44|255:64,1,180.000006866455
132,143,6402,6,0,P|97:149|44:135,1,80
173,6,6770,1,0,0:0:0:0:
200,198,6954,2,0,L|212:293,1,80
394,147,7322,2,0,P|417:141|432:133,1,40
461,62,7506,1,0,0:0:0:0:
332,212,7690,6,0,P|334:226|347:258,1,40
401,301,7874,2,0,L|484:315,1,80
123,142,13396,5,0,0:0:0:0:
436,260,13580,1,0,0:0:0:0:
316,167,65298,6,0,P|329:171|357:185,1,40
388,276,65482,1,0,0:0:0:0:
234,169,65666,1,0,0:0:0:0:
451,8,65850,2,0,B|466:39|466:39|426:176,1,160
249,82,66402,6,0,L|159:98,1,80
26,252,66770,1,0,0:0:0:0:
153,348,66954,1,0,0:0:0:0:
185,167,67138,1,0,0:0:0:0:
73,337,67322,5,0,0:0:0:0:
73,337,67414,1,0,0:0:0:0:
73,337,67506,2,0,L|153:348,1,80
331,207,67874,1,0,0:0:0:0:
238,370,68059,2,0,B|231:322|264:261|264:261|240:234|246:190,1,160
141,108,68611,2,0,L|53:127,1,80
11,71,68887,5,0,0:0:0:0:
21,59,68979,2,0,P|26:39|28:4,1,40
107,188,69163,2,0,P|115:214|115:236,1,40
174,39,69347,2,0,B|221:67|271:36|271:36|307:65,1,120
349,95,69715,2,0,P|332:110|268:120,1,80
468,221,70083,1,0,0:0:0:0:
367,374,70267,2,0,L|392:224,1,120
395,174,70635,5,0,0:0:0:0:
291,323,70819,1,0,0:0:0:0:
141,260,71003,2,0,P|187:268|246:198,1,120
214,152,71371,1,0,0:0:0:0:
95,331,71555,6,0,L|74:185,1,120
31,151,71924,2,0,P|21:156|-11:164,1,40
115,71,72108,2,0,P|138:76|162:90,1,40
153,237,72292,2,0,P|181:237|242:206,1,80
283,160,72568,1,0,0:0:0:0:
283,160,72660,2,0,L|269:296,1,120
366,213,73028,2,0,P|409:217|470:145,1,120
438,96,73396,1,0,0:0:0:0:
390,297,73580,1,0,0:0:0:0:
468,91,73764,6,0,P|425:81|378:4,1,120
452,0,74132,1,0,0:0:0:0:
318,149,74316,2,0,P|297:147|268:137,1,40
221,80,74500,2,0,P|210:64|204:30,1,40
303,4,74684,6,0,P|295:22|270:48,1,40
150,109,74868,2,0,P|131:105|97:86,1,40
192,6,75052,6,0,P|201:23|201:60,1,40
101,179,75236,2,0,P|62:185|20:167,1,80
152,359,75605,2,0,L|168:209,1,120
101,179,75973,1,0,0:0:0:0:
240,295,76157,1,0,0:0:0:0:
257,285,76249,1,0,0:0:0:0:
268,268,76341,2,0,P|283:239|287:175,1,80
80,313,76709,1,0,0:0:0:0:
