osu file format v14

[General]
AudioFilename: audio.mp3
AudioLeadIn: 0
PreviewTime: 62731
Countdown: 1
SampleSet: Soft
StackLeniency: 0.7
Mode: 0
LetterboxInBreaks: 0
WidescreenStoryboard: 0

[Editor]
DistanceSpacing: 0.6
BeatDivisor: 3
GridSize: 8
TimelineZoom: 1

[Metadata]
Title:Skyclad No Kansokusha
TitleUnicode:Skyclad No Kansokusha
Artist:Itou Kanako
ArtistUnicode:Itou Kanako
Creator:Animechan2001
Version:Normal
Source:Steins;Gate
Tags:5pb nitroplus xbox360 シュタインズゲート Nasya N_a_s_y_a KSHR Homura- ShiraKai KaCha Haruru Guy
BeatmapID:1790962
BeatmapSetID:857186

[Difficulty]
HPDrainRate:4
CircleSize:3.8
OverallDifficulty:5
ApproachRate:9
SliderMultiplier:1.1
SliderTickRate:1

[Events]
//Background and Video events
Video,0,"video.avi"
0,0,"f0542d577b2ae949f397ec5f5037217b5ce0c527_hq.jpg",0,0
//Break Periods
//Storyboard Layer 0 (Background)
//Storyboard Layer 1 (Fail)
//Storyboard Layer 2 (Pass)
//Storyboard Layer 3 (Foreground)
//Storyboard Sound Samples

[TimingPoints]
2870,359.281437125748,4,2,11,60,1,0
3408,-100,4,2,11,50,0,0
3588,-100,4,2,11,60,0,0
5025,-100,4,2,11,50,0,0
5384,-100,4,2,11,60,0,0
6283,-100,4,2,11,50,0,0
6462,-100,4,2,11,60,0,0
7899,-100,4,2,11,50,0,0
8079,-100,4,2,11,60,0,0
9157,-100,4,2,11,50,0,0
9875,-100,4,2,11,60,0,0
10414,-100,4,2,11,50,0,0
11313,-100,4,2,11,60,0,0
13109,-100,4,2,11,50,0,0
13648,-100,4,2,11,60,0,0
14187,-100,4,2,11,50,0,0
15085,-100,4,2,11,60,0,0
15624,-100,4,2,11,50,0,0
16343,-100,4,2,11,40,0,0
16881,-100,4,2,11,50,0,0
17780,-100,4,2,11,55,0,0
18319,-100,4,2,11,60,0,0
18678,-100,4,2,11,50,0,0
19396,-100,4,2,11,60,0,0
19935,-100,4,2,11,50,0,0
20654,-100,4,2,11,45,0,0
21013,-100,4,2,11,55,0,0
21732,-100,4,2,11,50,0,0
22091,-100,4,2,11,60,0,0
22810,-100,4,2,11,45,0,0
23169,-100,4,2,11,30,0,0
25684,-100,4,2,11,50,0,0
28378,-100,4,2,11,40,0,0
28558,-100,4,2,11,50,0,0
31432,-100,4,2,2,50,0,0
34307,-100,4,2,2,60,0,0
37540,-100,4,2,1,60,0,0
37899,-100,4,2,2,60,0,0
38259,-100,4,2,1,60,0,0
54965,-100,4,2,12,50,0,0
55145,-100,4,2,1,60,0,0
56402,-100,4,2,12,50,0,0
56582,-100,4,2,1,60,0,0
61792,-100,4,2,1,70,0,1
65744,-100,4,2,12,60,0,1
65923,-100,4,2,1,70,0,1
68618,-100,4,2,12,60,0,1
68798,-100,4,2,1,70,0,1
70774,-100,4,2,12,60,0,1
71133,-100,4,2,1,70,0,1
77241,-100,4,2,12,60,0,1
77420,-100,4,2,1,70,0,1
82271,-100,4,2,12,60,0,1
82450,-100,4,2,1,70,0,1
83708,-100,4,2,12,60,0,1
83887,-100,4,2,1,70,0,1
89456,-100,4,2,12,50,0,1
89636,-100,4,2,1,60,0,1
90534,-100,4,2,1,60,0,0
92331,-100,4,2,12,50,0,0
92510,-100,4,2,1,60,0,0
93768,-100,4,2,12,50,0,0
93947,-100,4,2,1,60,0,0
95205,-100,4,2,12,50,0,0
95384,-100,4,2,1,60,0,0
98079,-100,4,2,12,50,0,0
98259,-100,4,2,1,60,0,0
100235,-100,4,2,1,50,0,0
100953,-100,4,2,12,40,0,0
101133,-100,4,2,1,50,0,0
103828,-100,4,2,12,40,0,0
104007,-100,4,2,1,50,0,0
107780,-100,4,2,1,40,0,0
109217,-100,4,2,1,30,0,0
110654,-100,4,2,1,35,0,0
111013,-100,4,2,1,40,0,0
111372,-100,4,2,1,50,0,0
111732,-100,4,2,1,55,0,0
112091,-100,4,2,1,5,0,0

[Colours]
Combo1 : 226,168,124
Combo2 : 231,171,243
Combo3 : 126,167,207
Combo4 : 131,220,159

[HitObjects]
123,289,2870,6,0,P|69:228|76:202,1,110
58,116,3588,1,0,0:0:0:0:
58,116,3947,2,0,P|116:74|166:88,1,110
259,99,4666,1,0,0:0:0:0:
259,99,5025,1,0,0:0:0:0:
372,68,5744,6,0,P|434:124|428:137,1,110
443,209,6462,1,0,0:0:0:0:
443,209,6822,2,0,P|427:272|379:280,1,110
305,306,7540,1,0,0:0:0:0:
198,307,7899,1,0,0:0:0:0:
97,299,8618,6,0,B|100:257|100:257|76:228|76:228|111:180,1,110
167,168,9337,6,0,B|170:126|170:126|146:97|146:97|181:49,1,110
351,169,10055,6,0,B|354:127|354:127|330:98|330:98|365:50,1,110
436,305,10774,6,0,B|439:263|439:263|415:234|415:234|450:186,1,110
428,262,11492,6,0,P|358:306|214:268,1,220
168,258,12570,1,0,0:0:0:0:
92,197,12929,1,0,0:0:0:0:
167,124,13289,1,0,0:0:0:0:
87,68,13648,1,0,0:0:0:0:
154,73,14367,6,0,B|202:51|202:51|281:72,1,110
271,126,15085,1,0,0:0:0:0:
360,127,15444,1,0,0:0:0:0:
370,264,15804,6,0,B|343:230|343:230|260:266,1,110
237,299,16522,1,0,0:0:0:0:
118,299,16881,1,0,0:0:0:0:
115,191,17241,6,0,P|72:149|106:121,1,110
206,84,17959,1,0,0:0:0:0:
206,84,18319,1,0,0:0:0:0:
326,78,18678,6,0,P|364:113|332:155,1,110
266,229,19396,1,0,0:0:0:0:
266,229,19756,1,0,0:0:0:0:
154,229,20115,6,0,P|79:174|81:158,1,110
81,80,20834,1,0,0:0:0:0:
81,80,21193,1,0,0:0:0:0:
203,78,21552,6,0,P|248:117|395:53,1,220
450,133,22630,1,0,0:0:0:0:
256,192,22989,12,0,25624,0:0:0:0:
138,109,25864,5,0,0:0:0:0:
138,109,26223,2,0,P|219:75|263:95,1,110
333,84,26941,2,0,L|379:82,3,36.6666666666667
419,152,27660,1,0,0:0:0:0:
419,152,28019,2,0,P|460:222|435:271,1,110
355,278,28738,5,0,0:0:0:0:
355,278,29097,1,0,0:0:0:0:
355,278,29456,2,0,P|284:326|250:311,1,110
168,269,30175,1,0,0:0:0:0:
94,202,30534,2,0,L|50:202,3,36.6666666666667
126,107,31612,6,0,P|199:70|239:84,1,110
208,149,32331,2,0,P|268:182|306:170,1,110
290,97,33049,2,0,P|349:71|397:90,1,110
368,159,33768,2,0,P|423:175|466:137,1,110
388,309,34486,5,0,0:0:0:0:
388,309,34846,1,0,0:0:0:0:
388,309,35205,2,0,P|327:258|292:293,1,110
246,317,35923,2,0,L|190:317,3,36.6666666666667
172,68,37001,5,0,0:0:0:0:
172,68,37361,2,0,P|219:37|252:84,1,110
375,69,38079,2,0,P|419:95|392:158,1,110
312,144,38798,2,0,P|261:168|267:142,2,110
310,73,39875,1,0,0:0:0:0:
157,70,40235,5,0,0:0:0:0:
157,70,40594,2,0,P|114:111|158:131,1,110
251,136,41313,1,0,0:0:0:0:
351,134,41672,2,0,L|397:131,3,36.6666666666667
318,269,42390,1,0,0:0:0:0:
318,269,42750,1,0,0:0:0:0:
157,275,43109,5,0,0:0:0:0:
157,275,43468,2,0,P|112:237|145:206,1,110
137,126,44187,1,0,0:0:0:0:
133,42,44546,2,0,L|185:42,3,36.6666666666667
323,41,45265,1,0,0:0:0:0:
437,118,45624,1,0,0:0:0:0:
256,192,45983,12,0,47420,0:0:0:0:
172,316,47780,5,0,0:0:0:0:
172,316,48140,2,0,P|219:347|252:300,1,110
375,315,48858,2,0,P|419:289|392:226,1,110
312,240,49577,2,0,P|261:216|267:242,2,110
310,311,50654,1,0,0:0:0:0:
157,314,51014,5,0,0:0:0:0:
157,314,51373,2,0,P|114:273|158:253,1,110
251,248,52092,1,0,0:0:0:0:
351,250,52451,2,0,L|397:253,3,36.6666666666667
318,115,53169,1,0,0:0:0:0:
318,115,53529,1,0,0:0:0:0:
157,109,53888,5,0,0:0:0:0:
157,109,54247,1,0,0:0:0:0:
160,229,54606,6,0,P|197:272|245:235,1,110
216,192,55325,2,0,P|269:170|324:191,1,110
304,245,56043,2,0,P|349:262|402:228,1,110
346,178,56762,2,0,P|397:157|442:187,1,110
426,319,57480,6,0,L|312:319,1,110
232,306,57959,1,0,0:0:0:0:
232,306,58079,1,0,0:0:0:0:
232,306,58199,2,0,P|184:271|203:236,1,110
86,65,58917,6,0,L|196:64,1,110
280,78,59396,1,0,0:0:0:0:
280,78,59516,1,0,0:0:0:0:
280,78,59636,2,0,P|328:113|309:148,1,110
255,194,60355,1,0,0:0:0:0:
256,192,60714,12,0,61432,0:0:0:0:
87,99,61792,6,0,P|155:169|170:161,1,110
247,151,62510,1,0,0:0:0:0:
247,151,62869,2,0,P|290:188|263:240,1,110
172,257,63588,1,0,0:0:0:0:
68,196,63947,1,0,0:0:0:0:
68,196,64307,2,0,P|114:141|162:130,1,110
242,137,65025,5,0,0:0:0:0:
370,135,65384,2,0,P|415:141|419:147,3,36.6666666666667
429,224,66103,1,0,0:0:0:0:
429,224,66462,2,0,P|376:278|328:288,1,110
212,288,67181,1,0,0:0:0:0:
123,225,67540,6,0,P|65:175|68:140,1,110
64,80,68259,1,0,0:0:0:0:
158,74,68618,2,0,P|208:47|257:71,1,110
265,78,69337,1,0,0:0:0:0:
370,77,69696,2,0,P|408:120|376:171,2,110
323,277,70774,5,0,0:0:0:0:
253,209,71133,1,0,0:0:0:0:
188,278,71492,1,0,0:0:0:0:
253,209,71852,1,0,0:0:0:0:
77,119,72211,5,0,0:0:0:0:
77,119,72570,2,0,L|131:116,1,36.6666666666667
212,115,72929,1,0,0:0:0:0:
87,99,73289,6,0,P|155:169|170:161,1,110
247,151,74007,1,0,0:0:0:0:
247,151,74366,2,0,P|290:188|263:240,1,110
172,257,75085,1,0,0:0:0:0:
68,196,75444,1,0,0:0:0:0:
68,196,75804,2,0,P|114:141|162:130,1,110
242,137,76522,5,0,0:0:0:0:
370,135,76881,2,0,P|415:141|419:147,3,36.6666666666667
429,224,77600,1,0,0:0:0:0:
429,224,77959,2,0,P|376:278|328:288,1,110
212,288,78678,1,0,0:0:0:0:
123,225,79037,6,0,P|65:175|68:140,1,110
64,80,79756,1,0,0:0:0:0:
158,74,80115,2,0,P|208:47|257:71,1,110
265,78,80834,1,0,0:0:0:0:
370,77,81193,2,0,P|408:120|376:171,2,110
290,56,82271,1,0,0:0:0:0:
180,51,82630,2,0,B|158:89|150:97|150:97|183:118|183:118|183:146,1,110
261,44,83349,5,0,0:0:0:0:
261,44,83708,1,0,0:0:0:0:
261,44,84067,1,0,0:0:0:0:
263,69,84786,6,0,L|306:68,1,36.6666666666667
374,81,85145,2,0,P|419:124|388:173,1,110
330,241,85864,1,0,0:0:0:0:
330,241,86223,2,0,P|263:212|215:239,1,110
192,271,86941,1,0,0:0:0:0:
80,275,87301,1,0,0:0:0:0:
207,145,87660,5,0,0:0:0:0:
207,145,88019,2,0,P|272:134|279:112,3,73.3333333333333
207,145,88858,1,0,0:0:0:0:
90,109,90534,6,0,P|136:142|179:109,1,110
175,116,91253,2,0,P|216:153|119:242,1,220
86,204,92331,1,0,0:0:0:0:
39,135,92690,1,0,0:0:0:0:
94,75,93049,1,0,0:0:0:0:
34,21,93408,1,0,0:0:0:0:
146,23,93768,2,0,P|206:35|237:73,1,110
252,135,94486,2,0,P|305:171|379:175,1,110
425,197,95205,6,0,P|372:232|307:239,1,110
246,251,95923,1,0,0:0:0:0:
246,251,96283,2,0,P|169:208|176:165,1,110
163,116,97001,1,0,0:0:0:0:
266,75,97361,1,0,0:0:0:0:
368,111,97720,1,0,0:0:0:0:
461,55,98079,1,0,0:0:0:0:
461,55,98438,1,0,0:0:0:0:
462,156,98798,5,0,0:0:0:0:
462,156,99157,1,0,0:0:0:0:
467,249,99516,6,0,P|417:280|352:275,1,110
370,281,100235,2,0,P|306:238|321:203,1,110
270,116,100953,1,0,0:0:0:0:
270,116,101313,1,0,0:0:0:0:
137,115,101672,1,0,0:0:0:0:
137,115,102031,1,0,0:0:0:0:
250,111,102390,2,0,P|341:153|441:91,1,220
452,188,103468,1,0,0:0:0:0:
452,188,103828,6,0,P|412:240|338:249,1,110
268,254,104546,2,0,P|208:217|183:182,1,110
162,93,105265,2,0,P|212:60|276:37,1,110
340,42,105983,2,0,P|408:71|455:116,1,110
256,192,106702,12,0,112091,0:0:0:0:
