osu file format v14

[General]
AudioFilename: audio.mp3
AudioLeadIn: 0
PreviewTime: 62877
Countdown: 1
SampleSet: Soft
StackLeniency: 0.7
Mode: 0
LetterboxInBreaks: 0
WidescreenStoryboard: 0

[Editor]
Bookmarks: 362,1852,7815,13778,22722,25703,34647,37442,43591,49368,55330,58312,62970,73778,74896,86821
DistanceSpacing: 0.5
BeatDivisor: 4
GridSize: 4
TimelineZoom: 1.4

[Metadata]
Title:Hacking to the Gate (TV size)
TitleUnicode:Hacking to the Gate (TV size)
Artist:Itou Kanako
ArtistUnicode:いとうかなこ
Creator:SeaRasp
Version:Flashback
Source:Steins;Gate
Tags:Anime 5pb nitroplus nitroplus OP 1st opening Linada
BeatmapID:1181312
BeatmapSetID:558479

[Difficulty]
HPDrainRate:6
CircleSize:4
OverallDifficulty:7.5
ApproachRate:9
SliderMultiplier:1.7
SliderTickRate:1

[Events]
//Background and Video events
0,0,"BG.jpg",0,0
//Break Periods
//Storyboard Layer 0 (Background)
//Storyboard Layer 1 (Fail)
//Storyboard Layer 2 (Pass)
//Storyboard Layer 3 (Foreground)
//Storyboard Sound Samples

[TimingPoints]
362,372.670807453416,4,2,1,30,1,0
362,-133.333333333333,4,2,1,30,0,0
921,-90.9090909090909,4,2,1,60,0,0
1293,-100,4,2,1,70,0,0
1852,-111.111111111111,4,2,1,60,0,0
7815,-100,4,2,1,60,0,0
10424,-86.9565217391304,4,2,1,60,0,0
10796,-100,4,2,1,60,0,0
13778,-111.111111111111,4,2,1,55,0,0
22722,-111.111111111111,4,2,1,70,0,0
25330,-76.9230769230769,4,2,1,70,0,0
25703,-111.111111111111,4,2,1,55,0,0
34647,-111.111111111111,4,2,1,70,0,0
35393,-76.9230769230769,4,2,1,70,0,0
37070,-200,4,2,1,50,0,0
37349,-200,4,2,1,5,0,0
37442,-100,4,2,1,60,0,0
43591,-100,4,2,1,65,0,0
48063,-100,4,2,1,75,0,0
48995,-200,4,2,1,50,0,0
49275,-200,4,2,1,5,0,0
49368,-100,4,2,1,60,0,0
55330,-100,4,2,1,65,0,0
58312,-90.9090909090909,4,2,1,75,0,0
59057,-80,4,2,1,75,0,0
62225,-66.6666666666667,4,2,1,60,0,0
62877,-66.6666666666667,4,2,1,5,0,0
62970,-90.9090909090909,4,2,1,80,0,1
73778,-90.9090909090909,4,2,1,70,0,0
74896,-90.9090909090909,4,2,1,80,0,1
86821,-90.9090909090909,4,2,1,70,0,0

[Colours]
Combo1 : 218,218,218
Combo2 : 255,146,36
Combo3 : 0,0,176
Combo4 : 96,48,0

[HitObjects]
84,136,362,6,0,B|148:128|148:128|160:124|160:124|236:116,1,127.500004863739,2|0,0:0|0:0,0:0:0:0:
300,48,921,6,0,P|320:108|316:160,1,93.5000028533936,0|2,0:0|0:0,0:0:0:0:
408,252,1293,6,0,P|341:176|245:206,1,212.5,10|0,0:0|0:0,0:0:0:0:
246,205,1852,6,0,L|252:296,1,76.4999976654053,2|0,0:0|0:0,0:0:0:0:
260,380,2225,1,2,0:0:0:0:
156,312,2411,2,0,L|160:140,1,152.999995330811,2|0,0:0|0:0,0:0:0:0:
16,128,2970,1,2,0:0:0:0:
68,212,3157,1,2,0:0:0:0:
100,76,3343,6,0,L|96:-8,1,76.4999976654053,2|0,0:0|0:0,0:0:0:0:
159,159,3716,1,2,0:0:0:0:
344,68,3902,2,0,P|273:43|204:71,2,152.999995330811,2|2|2,0:0|0:0|0:0,0:0:0:0:
284,228,4834,6,0,L|277:151,1,76.4999976654053,2|0,0:0|0:0,0:0:0:0:
384,280,5206,2,0,L|390:203,1,76.4999976654053,2|0,0:0|0:0,0:0:0:0:
292,332,5579,5,0,0:0:0:0:
456,348,5765,1,2,0:0:0:0:
300,344,5952,5,0,0:0:0:0:
464,360,6138,1,2,0:0:0:0:
397,128,6324,5,10,0:0:0:0:
384,280,6511,1,0,0:0:0:0:
304,52,6697,1,8,0:0:0:0:
468,32,6883,1,2,0:0:0:0:
280,168,7070,5,10,0:0:0:0:
208,0,7256,1,10,0:0:0:0:
172,216,7442,1,10,0:0:0:0:
397,128,7629,2,0,L|340:124,1,38.2499988327027,8|8,0:0|0:0,0:0:0:0:
188,104,7815,6,0,B|128:88|60:104|60:104|84:112|116:136,1,170,14|8,0:0|0:0,0:0:0:0:
208,0,8374,5,2,0:0:0:0:
52,96,8560,2,0,P|96:88|160:88,1,85,2|0,0:0|0:0,0:0:0:0:
0,8,8933,1,10,0:0:0:0:
112,192,9119,1,0,0:0:0:0:
112,192,9212,1,0,0:0:0:0:
112,192,9306,6,0,L|108:300,1,85,0|2,0:0|0:0,0:0:0:0:
8,384,9678,2,0,L|4:299,1,85,8|2,0:0|0:0,0:0:0:0:
114,160,10051,1,2,0:0:0:0:
108,304,10237,1,2,0:0:0:0:
232,232,10424,6,0,P|312:208|376:240,1,146.62500279665,8|0,0:0|0:0,0:0:0:0:
380,216,10796,6,0,L|380:272,1,42.5,2|0,0:0|0:0,0:0:0:0:
460,184,10983,2,0,L|460:240,1,42.5,2|0,0:0|0:0,0:0:0:0:
456,316,11169,5,8,0:0:0:0:
512,108,11355,1,2,0:0:0:0:
304,164,11542,1,0,0:0:0:0:
388,56,11728,1,2,0:0:0:0:
192,112,11914,1,8,0:0:0:0:
182,142,12007,1,0,3:0:0:0:
179,173,12100,1,0,3:0:0:0:
184,205,12194,1,0,3:0:0:0:
200,232,12287,6,0,P|208:187|210:141,1,85,2|0,0:0|0:0,0:0:0:0:
60,48,12660,2,0,P|62:90|70:132,1,85,10|0,0:0|0:0,0:0:0:0:
216,16,13032,5,8,0:0:0:0:
216,16,13219,1,10,0:0:0:0:
469,69,13405,1,10,0:0:0:0:
430,52,13498,1,0,0:0:0:0:
388,56,13591,1,8,0:0:0:0:
353,79,13684,1,8,0:0:0:0:
334,117,13778,6,0,L|340:216,1,76.4999976654053,2|0,0:0|0:0,0:0:0:0:
460,276,14150,1,0,0:0:0:0:
464,199,14337,2,0,L|460:276,1,76.4999976654053,2|0,0:0|0:0,0:0:0:0:
256,288,14709,1,2,0:0:0:0:
338,193,14896,1,0,0:0:0:0:
336,380,15082,1,2,0:0:0:0:
336,380,15175,1,0,3:0:0:0:
336,380,15268,5,0,0:0:0:0:
156,295,15455,1,2,0:0:0:0:
256,288,15641,2,0,L|352:284,1,76.4999976654053,2|0,0:0|0:0,0:0:0:0:
204,376,16014,1,0,3:0:0:0:
176,384,16107,1,0,0:0:0:0:
147,386,16200,1,0,3:0:0:0:
119,382,16293,1,0,3:0:0:0:
92,372,16386,1,2,0:0:0:0:
68,232,16573,1,2,0:0:0:0:
188,105,16759,6,0,L|180:189,1,76.4999976654053,2|0,0:0|0:0,0:0:0:0:
40,48,17132,1,0,0:0:0:0:
60,155,17318,1,2,0:0:0:0:
60,155,17411,1,0,3:0:0:0:
60,155,17504,2,0,L|68:239,1,76.4999976654053
208,0,17877,1,2,0:0:0:0:
323,78,18063,6,0,P|249:64|187:106,1,152.999995330811,2|0,0:0|0:0,0:0:0:0:
368,168,18622,1,0,0:0:0:0:
435,49,18809,2,0,L|432:88,1,38.2499988327027,0|0,3:0|3:0,3:0:0:0:
368,168,18995,1,0,3:0:0:0:
371,196,19088,1,0,0:0:0:0:
374,225,19181,1,0,3:0:0:0:
377,253,19274,1,0,0:0:0:0:
381,282,19368,2,0,P|424:268|472:272,1,76.4999976654053,2|0,0:0|0:0,0:0:0:0:
324,384,19740,6,0,L|228:380,1,76.4999976654053,2|0,0:0|0:0,0:0:0:0:
168,248,20113,1,0,0:0:0:0:
120,372,20299,1,2,0:0:0:0:
120,372,20393,1,0,0:0:0:0:
120,372,20486,2,0,L|140:320,1,38.2499988327027,0|0,3:0|0:0,3:0:0:0:
208,161,20672,1,0,3:0:0:0:
264,284,20858,1,2,0:0:0:0:
68,224,21045,1,2,0:0:0:0:
292,104,21231,6,0,P|229:63|156:78,1,152.999995330811,2|0,0:0|0:0,0:0:0:0:
336,28,21790,1,0,3:0:0:0:
336,66,21883,1,0,0:0:0:0:
337,104,21976,1,0,3:0:0:0:
338,142,22069,1,0,3:0:0:0:
339,180,22162,1,0,0:0:0:0:
432,68,22349,2,0,L|436:144,1,76.4999976654053,6|0,0:0|0:0,0:0:0:0:
256,232,22722,5,8,0:0:0:0:
436,144,22908,1,8,0:0:0:0:
244,352,23094,5,8,0:0:0:0:
156,172,23281,1,8,0:0:0:0:
156,172,23653,5,10,0:0:0:0:
244,352,23840,1,8,0:0:0:0:
440,148,24026,1,8,0:0:0:0:
444,136,24118,5,2,0:0:0:0:
371,159,24212,1,2,0:0:0:0:
371,236,24306,1,2,0:0:0:0:
444,260,24398,1,2,0:0:0:0:
488,198,24492,1,2,0:0:0:0:
480,32,24771,5,14,0:0:0:0:
460,36,24865,1,0,0:0:0:0:
440,40,24958,1,2,0:0:0:0:
420,44,25051,1,0,0:0:0:0:
400,48,25144,1,2,0:0:0:0:
380,52,25237,1,0,0:0:0:0:
360,56,25330,6,0,L|272:52,1,55.2499974708558,2|2,0:0|0:0,0:0:0:0:
210,144,25517,2,0,L|155:147,1,55.2499974708558,2|2,0:0|0:0,0:0:0:0:
32,40,25703,5,6,0:0:0:0:
32,244,25889,1,0,0:0:0:0:
210,144,26076,1,0,0:0:0:0:
76,148,26262,2,0,L|0:148,1,76.4999976654053,2|0,0:0|0:0,0:0:0:0:
0,344,26635,1,2,0:0:0:0:
32,244,26821,1,0,0:0:0:0:
108,328,27007,1,2,0:0:0:0:
108,328,27101,1,0,3:0:0:0:
108,328,27194,6,0,P|144:332|184:328,1,76.4999976654053,2|0,0:0|0:0,0:0:0:0:
284,268,27566,2,0,P|321:264|359:268,1,76.4999976654053,2|0,0:0|0:0,0:0:0:0:
468,324,27939,1,0,0:0:0:0:
468,324,28125,1,0,0:0:0:0:
412,164,28312,1,2,0:0:0:0:
359,268,28498,1,2,0:0:0:0:
508,228,28684,6,0,P|524:176|524:136,1,76.4999976654053,2|0,0:0|0:0,0:0:0:0:
396,40,29057,1,0,0:0:0:0:
308,112,29243,1,2,0:0:0:0:
308,112,29337,1,0,0:0:0:0:
308,112,29430,2,0,L|240:116,1,38.2499988327027,0|0,3:0|0:0,0:0:0:0:
164,124,29616,1,2,3:0:0:0:
208,36,29802,1,0,0:0:0:0:
224,200,29989,1,2,0:0:0:0:
60,88,30175,6,0,L|67:164,1,76.4999976654053,2|0,0:0|0:0,0:0:0:0:
80,272,30548,1,0,0:0:0:0:
80,272,30734,1,0,0:0:0:0:
192,304,30921,2,0,P|240:304|277:295,1,76.4999976654053,2|0,0:0|0:0,0:0:0:0:
408,376,31293,2,0,P|370:369|332:370,1,76.4999976654053,2|0,0:0|0:0,0:0:0:0:
384,180,31666,6,0,L|380:276,1,76.4999976654053,2|0,0:0|0:0,0:0:0:0:
312,100,32039,1,0,0:0:0:0:
464,120,32225,2,0,P|488:76|492:40,1,76.4999976654053,2|0,0:0|0:0,0:0:0:0:
304,8,32598,1,0,0:0:0:0:
312,100,32784,1,2,0:0:0:0:
396,48,32970,1,2,0:0:0:0:
216,64,33157,6,0,B|100:64|100:64|152:40,1,152.999995330811,2|0,0:0|0:0,0:0:0:0:
32,0,33716,2,0,P|2:68|32:136,1,152.999995330811,2|0,0:0|0:0,0:0:0:0:
204,156,34275,1,2,0:0:0:0:
133,48,34461,1,2,0:0:0:0:
116,248,34647,5,8,0:0:0:0:
328,200,34834,1,8,0:0:0:0:
36,336,35020,5,8,0:0:0:0:
253,346,35207,1,8,0:0:0:0:
253,346,35299,1,0,0:0:0:0:
253,346,35393,6,0,L|336:348,1,55.2499974708558,2|2,0:0|0:0,0:0:0:0:
328,200,35579,2,0,L|383:198,1,55.2499974708558,2|2,0:0|0:0,0:0:0:0:
424,337,35765,2,0,L|504:340,1,55.2499974708558,2|2,0:0|0:0,0:0:0:0:
512,192,35952,5,2,0:0:0:0:
204,156,36324,5,8,0:0:0:0:
512,192,36511,1,8,0:0:0:0:
224,60,36883,5,2,0:0:0:0:
136,28,37070,2,0,P|132:60|140:100,1,63.75,8|0,0:0|0:0,0:0:0:0:
204,156,37442,6,0,L|400:148,1,170,6|0,0:0|0:0,0:0:0:0:
252,252,38001,2,0,L|352:252,1,85,2|0,0:0|0:0,0:0:0:0:
472,100,38374,1,10,0:0:0:0:
373,149,38560,2,0,P|361:93|373:41,1,85,2|0,0:0|0:0,0:0:0:0:
476,204,38933,6,0,B|488:312|488:312|476:380,1,170,2|8,0:0|0:0,0:0:0:0:
340,340,39492,2,0,B|304:336|304:336|255:347,1,85,2|0,0:0|0:0,0:0:0:0:
105,272,39865,2,0,P|165:228|265:268,1,170,10|0,0:0|0:0,0:0:0:0:
120,364,40424,1,2,0:0:0:0:
24,228,40610,6,0,L|16:52,1,170,2|0,0:0|0:0,0:0:0:0:
236,96,41169,1,0,0:0:0:0:
64,128,41355,1,10,0:0:0:0:
316,176,41542,1,8,0:0:0:0:
296,0,41728,1,2,0:0:0:0:
208,204,41914,6,0,P|296:204|340:292,1,170,2|8,0:0|0:0,0:0:0:0:
332,368,42473,1,0,3:0:0:0:
332,368,42846,5,10,0:0:0:0:
464,324,43032,1,0,0:0:0:0:
252,280,43219,1,0,0:0:0:0:
452,212,43405,1,2,0:0:0:0:
452,212,43498,1,0,0:0:0:0:
452,212,43591,6,0,L|456:112,1,85,2|0,0:0|0:0,0:0:0:0:
340,36,43964,2,0,L|343:120,1,85,8|0,0:0|0:0,0:0:0:0:
236,176,44337,2,0,P|176:168|132:176,1,85
28,192,44709,1,10,0:0:0:0:
64,92,44896,6,0,L|68:296,1,170,2|0,0:0|0:0,0:0:0:0:
19,374,45455,2,0,L|104:368,1,85,10|0,0:0|0:0,0:0:0:0:
232,312,45827,1,0,0:0:0:0:
232,312,46014,1,0,0:0:0:0:
67,261,46200,1,10,0:0:0:0:
120,364,46386,1,2,0:0:0:0:
176,200,46573,6,0,P|264:188|332:244,1,170,2|8,0:0|0:0,0:0:0:0:
432,320,47132,2,0,L|440:236,1,85,2|0,0:0|0:0,0:0:0:0:
317,149,47504,1,0,0:0:0:0:
317,149,47691,2,0,L|325:233,1,85,10|0,0:0|0:0,0:0:0:0:
424,44,48063,5,8,0:0:0:0:
180,100,48250,1,8,0:0:0:0:
504,140,48436,1,8,0:0:0:0:
300,30,48809,5,2,0:0:0:0:
311,132,48995,2,0,L|318:212,1,63.75,8|0,0:0|0:0,0:0:0:0:
252,272,49368,6,0,P|336:240|414:268,1,170,6|0,0:0|0:0,0:0:0:0:
288,368,49927,2,0,L|188:364,1,85,2|0,0:0|0:0,0:0:0:0:
44,288,50299,1,10,0:0:0:0:
148,264,50486,1,2,0:0:0:0:
72,384,50672,1,0,0:0:0:0:
0,196,50858,1,2,0:0:0:0:
0,196,50952,1,0,0:0:0:0:
0,196,51045,6,0,P|-4:128|8:88,1,85,2|8,0:0|0:0,0:0:0:0:
168,48,51417,1,0,0:0:0:0:
60,0,51604,1,2,0:0:0:0:
124,152,51790,2,0,L|232:148,1,85,8|0,0:0|0:0,0:0:0:0:
376,72,52163,2,0,L|268:68,1,85
104,168,52535,6,0,L|280:160,1,170,2|0,0:0|0:0,0:0:0:0:
376,72,53094,1,2,0:0:0:0:
472,128,53281,2,0,P|484:80|480:24,2,85,10|0|2,0:0|0:0|0:0,0:0:0:0:
388,212,53840,6,0,P|356:288|412:380,1,170,2|8,0:0|0:0,0:0:0:0:
472,292,54399,1,0,0:0:0:0:
472,292,54585,1,2,0:0:0:0:
388,212,54772,1,8,0:0:0:0:
353,188,54865,1,8,0:0:0:0:
311,180,54958,1,8,0:0:0:0:
270,188,55051,1,0,3:0:0:0:
236,213,55144,1,8,3:0:0:0:
220,252,55237,1,0,3:0:0:0:
208,292,55330,6,0,L|197:122,1,170,6|0,0:0|0:0,0:0:0:0:
80,76,55889,5,10,0:0:0:0:
260,32,56076,2,0,L|368:32,1,85,2|0,0:0|0:0,0:0:0:0:
80,92,56448,5,0,0:0:0:0:
260,48,56635,1,10,0:0:0:0:
8,16,56821,6,0,P|-24:92|16:180,1,170,2|0,0:0|0:0,0:0:0:0:
208,292,57380,5,10,0:0:0:0:
108,248,57566,2,0,P|100:312|116:364,1,85,2|0,0:0|0:0,0:0:0:0:
420,312,57939,5,0,0:0:0:0:
208,292,58125,1,10,0:0:0:0:
332,120,58312,6,0,B|388:68|464:80|464:80|416:120,1,187.000005706787,6|0,0:0|0:0,0:0:0:0:
212,280,58871,1,2,0:0:0:0:
332,108,59057,6,0,B|390:53|469:66|469:66|419:108,1,212.5,6|0,0:0|0:0,0:0:0:0:
217,268,59616,1,2,0:0:0:0:
333,95,59802,6,0,P|381:63|433:51,1,106.25,6|0,0:0|0:0,0:0:0:0:
427,332,60175,2,0,P|376:319|333:289,1,106.25,2|0,0:0|0:0,0:0:0:0:
80,192,60548,6,0,L|216:192,1,106.25,4|0,0:0|0:0,0:0:0:0:
0,88,60921,1,0,0:0:0:0:
48,284,61107,1,0,0:0:0:0:
104,56,61293,2,0,L|88:128,1,53.125,2|2,0:0|0:0,0:0:0:0:
44,296,61480,5,2,0:0:0:0:
44,296,62225,22,0,B|132:264|144:324|232:284|232:284|288:304|288:304|388:256|404:316|480:280,1,446.250017023087,10|0,0:0|0:0,0:0:0:0:
476,281,62970,5,8,0:0:0:0:
256,148,63157,1,8,0:0:0:0:
236,384,63343,1,8,0:0:0:0:
408,172,63529,6,0,L|420:64,1,93.5000028533936,10|0,0:0|0:0,0:0:0:0:
104,172,63902,2,0,L|92:64,1,93.5000028533936,10|0,0:0|0:0,0:0:0:0:
256,16,64275,6,0,L|256:203,1,187.000005706787,2|0,0:0|0:0,0:0:0:0:
480,284,64834,1,8,0:0:0:0:
408,172,65020,1,0,0:0:0:0:
224,320,65206,1,0,0:0:0:0:
352,276,65393,1,2,0:0:0:0:
352,276,65486,1,0,0:0:0:0:
352,276,65579,1,10,0:0:0:0:
136,220,65765,6,0,P|90:268|94:387,1,187.000005706787,6|0,0:0|0:0,0:0:0:0:
224,320,66324,1,10,0:0:0:0:
196,140,66511,2,0,P|148:128|64:140,1,93.5000028533936,2|0,0:0|0:0,0:0:0:0:
0,32,66883,2,0,P|46:32|91:20,1,93.5000028533936,2|8,0:0|0:0,0:0:0:0:
332,58,67256,6,0,P|244:62|196:158,1,187.000005706787,6|0,0:0|0:0,0:0:0:0:
416,136,67815,2,0,P|440:84|440:32,1,93.5000028533936,10|0,0:0|0:0,0:0:0:0:
296,152,68188,1,0,0:0:0:0:
432,264,68374,1,0,0:0:0:0:
416,136,68560,1,8,0:0:0:0:
316,280,68747,1,2,0:0:0:0:
316,280,68840,1,0,0:0:0:0:
316,280,68933,5,14,0:0:0:0:
384,372,69119,2,0,B|316:364|316:364|220:376,1,140.25000428009,10|0,0:0|0:0,0:0:0:0:
172,348,69492,2,0,L|176:236,1,93.5000028533936,10|0,0:0|0:0,0:0:0:0:
48,384,69865,2,0,L|44:272,1,93.5000028533936,10|0,0:0|0:0,0:0:0:0:
8,112,70237,6,0,B|64:100|116:120|116:120|156:96|208:104,1,187.000005706787,6|0,0:0|0:0,0:0:0:0:
312,48,70796,2,0,P|320:100|316:144,1,93.5000028533936,8|0,0:0|0:0,0:0:0:0:
144,228,71169,1,0,0:0:0:0:
189,102,71355,1,2,0:0:0:0:
268,260,71542,1,10,0:0:0:0:
72,312,71728,6,0,B|16:256|32:176|32:176|40:204|72:228,1,187.000005706787,6|0,0:0|0:0,0:0:0:0:
268,260,72287,1,10,0:0:0:0:
165,309,72473,2,0,L|33:313,1,93.5000028533936,2|0,0:0|0:0,0:0:0:0:
232,164,72846,2,0,L|325:166,1,93.5000028533936,2|8,0:0|0:0,0:0:0:0:
492,268,73219,6,0,P|392:288|360:376,1,187.000005706787,6|0,0:0|0:0,0:0:0:0:
500,152,73778,5,10,0:0:0:0:
460,364,73964,1,2,0:0:0:0:
325,166,74150,1,2,3:0:0:0:
288,136,74243,1,0,3:0:0:0:
244,128,74336,1,0,3:0:0:0:
200,140,74429,1,0,3:0:0:0:
164,168,74523,1,0,3:0:0:0:
120,184,74615,1,0,3:0:0:0:
72,184,74708,1,8,0:0:0:0:
36,156,74801,1,8,0:0:0:0:
104,96,74896,6,0,L|108:300,1,187.000005706787,10|0,0:0|0:0,0:0:0:0:
216,344,75455,2,0,P|284:336|344:352,1,93.5000028533936,10|0,0:0|0:0,0:0:0:0:
417,170,75827,2,0,P|370:174|324:165,1,93.5000028533936,10|0,0:0|0:0,0:0:0:0:
216,52,76200,6,0,P|304:20|388:100,1,187.000005706787,6|0,0:0|0:0,0:0:0:0:
276,252,76759,1,8,0:0:0:0:
292,120,76945,1,0,0:0:0:0:
376,328,77132,1,0,0:0:0:0:
168,292,77318,1,2,0:0:0:0:
168,292,77411,1,0,0:0:0:0:
168,292,77504,1,10,0:0:0:0:
44,381,77691,6,0,B|36:300|36:300|32:288|32:288|24:196,1,187.000005706787,6|0,0:0|0:0,0:0:0:0:
168,292,78250,1,10,0:0:0:0:
156,168,78436,2,0,L|148:64,1,93.5000028533936,2|0,0:0|0:0,0:0:0:0:
332,252,78809,2,0,B|336:304|336:304|328:344,1,93.5000028533936,2|8,0:0|0:0,0:0:0:0:
272,124,79181,6,0,B|344:112|344:112|492:152,1,187.000005706787,6|0,0:0|0:0,0:0:0:0:
344,8,79740,1,10,0:0:0:0:
156,168,79927,1,8,0:0:0:0:
133,163,80020,1,0,3:0:0:0:
110,158,80113,1,8,0:0:0:0:
87,153,80206,1,8,3:0:0:0:
64,149,80299,1,0,3:0:0:0:
41,144,80392,1,0,3:0:0:0:
18,139,80486,1,8,3:0:0:0:
160,24,80672,2,0,L|160:112,1,46.7500014266968
160,264,80858,5,10,0:0:0:0:
384,304,81045,2,0,B|316:296|316:296|240:308,1,140.25000428009,10|0,0:0|0:0,0:0:0:0:
158,355,81417,2,0,P|152:309|160:263,1,93.5000028533936,10|0,0:0|0:0,0:0:0:0:
472,260,81790,2,0,P|479:305|473:351,1,93.5000028533936,10|0,0:0|0:0,0:0:0:0:
316,192,82163,6,0,L|312:-12,1,187.000005706787,6|0,0:0|0:0,0:0:0:0:
416,136,82722,2,0,L|416:28,1,93.5000028533936,8|0,0:0|0:0,0:0:0:0:
204,44,83094,1,0,0:0:0:0:
320,104,83281,1,2,0:0:0:0:
320,104,83374,1,0,0:0:0:0:
320,104,83467,1,10,0:0:0:0:
128,136,83653,6,0,B|64:88|0:104|0:104|-20:188,1,187.000005706787,6|0,0:0|0:0,0:0:0:0:
0,292,84212,1,10,0:0:0:0:
168,240,84399,6,0,P|232:180|208:68,1,187.000005706787,6|0,0:0|0:0,0:0:0:0:
0,292,84958,1,10,0:0:0:0:
152,360,85144,6,0,L|372:344,1,187.000005706787,6|2,0:0|0:0,0:0:0:0:
496,196,85703,5,8,0:0:0:0:
452,368,85889,1,2,0:0:0:0:
392,112,86076,5,8,0:0:0:0:
448,344,86262,1,2,0:0:0:0:
480,24,86448,5,8,0:0:0:0:
452,368,86635,1,2,0:0:0:0:
448,344,86728,1,0,0:0:0:0:
444,320,86821,5,10,0:0:0:0:
296,68,87007,2,0,L|300:192,1,93.5000028533936,10|0,0:0|0:0,0:0:0:0:
80,248,87380,5,8,0:0:0:0:
392,224,87753,1,8,0:0:0:0:
68,256,88125,5,10,0:0:0:0:
