osu file format v14

[General]
AudioFilename: Steins;Gate - Hacking to the Gate ~ OP TV size ~.mp3
AudioLeadIn: 0
PreviewTime: 58125
Countdown: 0
SampleSet: Normal
StackLeniency: 0.6
Mode: 0
LetterboxInBreaks: 0
WidescreenStoryboard: 0

[Editor]
DistanceSpacing: 0.6
BeatDivisor: 4
GridSize: 4
TimelineZoom: 1

[Metadata]
Title:Hacking to the Gate (TV size)
TitleUnicode:Hacking to the Gate (TV size)
Artist:Itou Kanako
ArtistUnicode:Itou Kanako
Creator:[ Ichiro ]
Version:Insane
Source:Steins;Gate
Tags:Steins, Gate, OP, SteinsGate, Stainsu, Gateu, Opening, Steins;Gate, noobmapper
BeatmapID:860630
BeatmapSetID:395446

[Difficulty]
HPDrainRate:6
CircleSize:4
OverallDifficulty:8.6
ApproachRate:8.5
SliderMultiplier:1.4
SliderTickRate:1

[Events]
//Background and Video events
0,0,"steins-gate-A1D.jpg",0,0
//Break Periods
//Storyboard Layer 0 (Background)
//Storyboard Layer 1 (Fail)
//Storyboard Layer 2 (Pass)
//Storyboard Layer 3 (Foreground)
//Storyboard Sound Samples

[TimingPoints]
362,372.670807453416,4,1,0,70,1,0
13778,-133.333333333333,4,1,0,70,0,0
15641,-100,4,1,0,70,0,0
17877,-80,4,1,0,70,0,0
20113,-100,4,1,0,70,0,0
25330,-133.333333333333,4,1,0,70,0,0
26448,-100,4,1,0,70,0,0
27566,-133.333333333333,4,1,0,70,0,0
28684,-100,4,1,0,70,0,0
30175,-100,4,1,0,70,0,0
31852,-100,4,1,0,70,0,0
37256,-133.333333333333,4,1,0,70,0,0
42287,-100,4,1,0,70,0,0
45082,-80,4,1,0,70,0,0
48436,-100,4,1,0,70,0,0
54026,-80,4,1,0,70,0,0
58125,-133.333333333333,4,1,0,70,0,0
58871,-100,4,1,0,70,0,0
62504,-66.6666666666667,4,1,0,70,0,0
62970,-66.6666666666667,4,1,0,70,0,1
65952,-66.6666666666667,4,1,0,70,0,0
68933,-66.6666666666667,4,1,0,70,0,1
73591,-66.6666666666667,4,1,0,70,0,0
74896,-66.6666666666667,4,1,0,70,0,1
78622,-66.6666666666667,4,1,0,70,0,0
78995,-100,4,1,0,70,0,0
80858,-100,4,1,0,70,0,1
84585,-66.6666666666667,4,1,0,70,0,0
85703,-100,4,1,0,70,0,0
89430,-100,4,1,0,5,0,0

[Colours]
Combo1 : 255,255,0
Combo2 : 255,0,0
Combo3 : 0,255,255

[HitObjects]
108,104,1852,6,0,P|156:88|192:96,1,70
276,144,2225,1,0,0:0:0:0:
312,272,2411,1,0,0:0:0:0:
120,276,2784,5,0,0:0:0:0:
120,276,2970,2,0,L|164:196,1,70
272,24,3343,2,0,P|284:80|312:104,1,70
416,204,3716,1,0,0:0:0:0:
416,104,3902,1,0,0:0:0:0:
300,200,4275,5,0,0:0:0:0:
240,304,4461,1,0,0:0:0:0:
136,264,4647,1,0,0:0:0:0:
324,280,4834,1,0,0:0:0:0:
152,188,5020,1,0,0:0:0:0:
216,48,5206,6,0,P|260:36|296:40,1,70
333,154,5579,2,0,P|306:176|280:200,1,70
280,200,5952,1,0,0:0:0:0:
440,56,6138,1,0,0:0:0:0:
432,248,6324,5,0,0:0:0:0:
368,320,6511,1,0,0:0:0:0:
264,284,6697,2,0,L|316:220,1,70
376,116,7070,6,0,P|352:72|320:56,1,70
240,24,7442,1,0,0:0:0:0:
136,48,7629,1,0,0:0:0:0:
136,48,7722,1,0,0:0:0:0:
136,48,7815,2,0,P|92:72|64:104,1,70
156,284,8188,5,0,0:0:0:0:
268,224,8374,1,0,0:0:0:0:
320,100,8560,2,0,L|264:48,1,70
236,136,8933,2,0,L|300:200,1,70
336,20,9306,5,0,0:0:0:0:
192,68,9492,1,0,0:0:0:0:
200,212,9678,2,0,P|228:260|248:280,1,70
384,128,10051,5,0,0:0:0:0:
300,176,10237,1,0,0:0:0:0:
412,248,10424,1,0,0:0:0:0:
388,80,10610,1,0,0:0:0:0:
256,184,10796,2,0,L|196:232,1,70
304,248,11169,2,0,L|364:196,1,70
268,56,11542,5,0,0:0:0:0:
224,168,11728,1,0,0:0:0:0:
344,144,11914,1,0,0:0:0:0:
184,84,12101,1,0,0:0:0:0:
280,232,12287,1,0,0:0:0:0:
440,228,12473,1,0,0:0:0:0:
360,140,12660,6,0,P|328:112|288:100,1,70
228,144,13032,6,0,P|253:167|288:180,1,70
448,148,13405,5,0,0:0:0:0:
435,115,13498,1,0,0:0:0:0:
413,88,13591,1,0,0:0:0:0:
384,69,13684,1,0,0:0:0:0:
352,60,13778,2,0,B|316:64|316:64|280:56,1,52.5000020027161
192,140,14150,6,0,L|240:188,1,52.5000020027161
320,244,14523,6,0,L|272:196,1,52.5000020027161
192,140,14896,1,0,0:0:0:0:
104,184,15082,1,0,0:0:0:0:
136,280,15268,2,0,P|168:288|208:280,1,52.5000020027161
336,200,15641,6,0,P|276:188|240:200,1,70
316,304,16014,1,0,0:0:0:0:
420,264,16200,1,0,0:0:0:0:
456,156,16386,2,0,P|424:116|400:104,1,70
344,172,16759,6,0,P|344:198|344:242,2,70
256,192,17318,1,0,0:0:0:0:
256,192,17504,2,0,P|208:224|172:220,1,70
48,196,17877,2,0,P|92:196|140:156,1,87.5
144,40,18250,6,0,P|104:64|80:104,1,87.5
112,256,18622,1,0,0:0:0:0:
248,312,18809,1,0,0:0:0:0:
184,188,18995,6,0,P|180:136|196:92,1,87.5
272,56,19368,2,0,P|276:108|260:152,1,87.5
188,96,19740,1,0,0:0:0:0:
272,48,19927,1,0,0:0:0:0:
360,88,20113,2,0,L|420:156,1,70
412,244,20486,6,0,P|356:224|336:200,1,70
312,136,20858,2,0,P|312:96|328:68,2,70
388,248,21417,1,0,0:0:0:0:
472,160,21604,2,0,P|452:120|432:100,1,70
252,188,21976,1,0,0:0:0:0:
360,192,22163,1,0,0:0:0:0:
144,56,22349,5,0,0:0:0:0:
144,56,22535,1,0,0:0:0:0:
112,240,22722,1,0,0:0:0:0:
248,104,22908,1,0,0:0:0:0:
56,136,23094,1,0,0:0:0:0:
56,136,23281,1,0,0:0:0:0:
380,64,23653,5,0,0:0:0:0:
380,64,23840,2,0,P|416:112|424:140,1,70
340,184,24212,2,0,L|320:152,3,35
300,128,24585,2,0,P|260:96|216:88,1,70
72,256,24958,5,0,0:0:0:0:
93,283,25051,1,0,0:0:0:0:
123,301,25144,1,0,0:0:0:0:
157,308,25237,1,0,0:0:0:0:
192,308,25330,2,0,B|224:304|224:304|256:308,1,52.5000020027161
440,192,25703,6,0,L|404:144,1,52.5000020027161
368,228,26076,2,0,L|404:280,1,52.5000020027161
440,192,26448,1,0,0:0:0:0:
360,100,26635,1,0,0:0:0:0:
260,168,26821,1,0,0:0:0:0:
344,264,27007,5,0,0:0:0:0:
344,264,27194,2,0,P|360:220|352:192,1,70
296,80,27566,2,0,L|272:24,1,52.5000020027161
216,180,27939,2,0,L|236:228,1,52.5000020027161
356,188,28312,5,0,0:0:0:0:
296,80,28498,1,0,0:0:0:0:
176,52,28684,2,0,P|136:68|112:92,1,70
112,228,29057,2,0,L|152:292,1,70
188,68,29430,5,0,0:0:0:0:
320,240,29616,1,0,0:0:0:0:
268,32,29802,1,0,0:0:0:0:
196,160,29989,1,0,0:0:0:0:
384,112,30175,6,0,L|412:52,2,35
244,140,30548,2,0,L|176:116,1,70
220,232,30921,2,0,L|304:260,1,70
404,272,31293,6,0,P|424:320|448:352,2,70
328,48,31852,5,0,0:0:0:0:
436,72,32039,2,0,P|480:124|480:152,1,70
472,240,32411,1,0,0:0:0:0:
368,288,32598,1,0,0:0:0:0:
292,204,32784,6,0,L|256:132,1,70
148,64,33157,2,0,P|104:96|92:116,1,70
112,232,33529,1,0,0:0:0:0:
224,260,33716,1,0,0:0:0:0:
224,260,33902,2,0,L|296:248,1,70
404,232,34275,6,0,L|400:272,2,35
412,44,34647,1,0,0:0:0:0:
400,276,34834,1,0,0:0:0:0:
320,160,35020,2,0,P|284:136|248:124,1,70
224,260,35393,5,0,0:0:0:0:
245,287,35486,1,0,0:0:0:0:
275,305,35579,1,0,0:0:0:0:
309,312,35672,1,0,0:0:0:0:
340,316,35765,2,0,P|384:308|404:288,1,70
324,80,36324,5,0,0:0:0:0:
324,80,36511,1,0,0:0:0:0:
28,180,36883,5,0,0:0:0:0:
28,180,36976,1,0,0:0:0:0:
28,180,37070,1,0,0:0:0:0:
216,224,37442,5,0,0:0:0:0:
216,224,37629,1,0,0:0:0:0:
264,124,37815,1,0,0:0:0:0:
152,128,38001,2,0,P|132:160|128:192,1,52.5000020027161
88,292,38374,6,0,L|32:284,2,52.5000020027161
212,256,38933,1,0,0:0:0:0:
212,256,39026,1,0,0:0:0:0:
212,256,39119,2,0,L|272:216,1,52.5000020027161
328,172,39492,6,0,L|372:136,2,52.5000020027161
208,56,40237,5,0,0:0:0:0:
124,132,40424,1,0,0:0:0:0:
152,256,40610,2,0,P|192:280|220:280,1,52.5000020027161
352,200,40983,5,0,0:0:0:0:
324,40,41169,1,0,0:0:0:0:
200,148,41355,2,0,P|184:196|192:248,1,105.000004005432
312,200,41914,1,0,0:0:0:0:
252,52,42287,5,0,0:0:0:0:
252,52,42473,2,0,P|208:72|184:100,1,70
112,264,42846,5,0,0:0:0:0:
296,264,43032,1,0,0:0:0:0:
204,168,43219,1,0,0:0:0:0:
200,316,43405,1,0,0:0:0:0:
360,184,43591,2,0,L|420:124,1,70
416,28,43964,6,0,L|356:88,1,70
284,152,44337,1,0,0:0:0:0:
220,224,44523,1,0,0:0:0:0:
388,176,44709,1,0,0:0:0:0:
136,152,44896,5,0,0:0:0:0:
136,152,45082,2,0,P|84:192|68:224,1,87.5
112,300,45455,1,0,0:0:0:0:
212,280,45641,5,0,0:0:0:0:
212,280,45734,1,0,0:0:0:0:
212,280,45827,1,0,0:0:0:0:
344,180,46014,1,0,0:0:0:0:
202,98,46200,2,0,P|158:122|134:154,2,87.5
368,100,46759,5,0,0:0:0:0:
456,236,46945,1,0,0:0:0:0:
328,324,47132,1,0,0:0:0:0:
328,324,47318,2,0,P|296:276|288:240,1,87.5
252,44,47691,5,0,0:0:0:0:
252,44,47877,1,0,0:0:0:0:
412,136,48063,1,0,0:0:0:0:
216,156,48250,1,0,0:0:0:0:
360,48,48436,1,0,0:0:0:0:
144,336,48809,5,0,0:0:0:0:
144,336,48995,1,0,0:0:0:0:
256,212,49181,2,0,L|304:148,1,70
324,332,49927,5,0,0:0:0:0:
464,220,50299,1,0,0:0:0:0:
464,220,50486,1,0,0:0:0:0:
332,188,50858,1,0,0:0:0:0:
196,256,51231,5,0,0:0:0:0:
212,112,51417,2,0,P|236:56|260:40,1,70
416,192,51790,1,0,0:0:0:0:
316,192,51976,1,0,0:0:0:0:
316,92,52163,2,0,P|332:56|360:40,1,70
496,128,52535,6,0,L|500:200,1,70
504,296,52908,1,0,0:0:0:0:
392,256,53094,1,0,0:0:0:0:
344,132,53281,1,0,0:0:0:0:
496,132,53467,1,0,0:0:0:0:
312,40,53653,1,0,0:0:0:0:
416,56,53840,1,0,0:0:0:0:
416,56,53933,1,0,0:0:0:0:
416,56,54026,2,0,P|440:120|432:152,1,87.5
300,224,54399,5,0,0:0:0:0:
296,120,54585,1,0,0:0:0:0:
400,196,54771,2,0,P|408:248|396:284,1,87.5
212,176,55144,2,0,P|196:104|208:72,1,87.5
372,236,55703,1,0,0:0:0:0:
240,168,55889,1,0,0:0:0:0:
416,144,56076,1,0,0:0:0:0:
431,91,56448,5,0,0:0:0:0:
431,91,56635,2,0,P|397:63|357:49,1,87.5
373,180,57007,2,0,P|412:198|456:196,1,87.5
268,88,57380,2,0,P|208:72|168:80,1,87.5
216,160,57753,1,0,0:0:0:0:
256,174,57846,1,0,0:0:0:0:
300,172,57939,1,0,0:0:0:0:
396,72,58125,6,0,L|408:104,1,26.2500010013581
428,188,58312,1,0,0:0:0:0:
352,284,58684,1,0,0:0:0:0:
248,140,58871,2,0,P|288:156|324:196,1,70
204,252,59430,5,0,0:0:0:0:
120,172,59616,1,0,0:0:0:0:
228,148,59802,1,0,0:0:0:0:
96,284,59989,2,0,P|56:280|32:256,1,70
52,88,60361,5,0,0:0:0:0:
52,88,60548,1,0,0:0:0:0:
164,248,60734,1,0,0:0:0:0:
256,92,60920,1,0,0:0:0:0:
256,92,61107,2,0,L|324:120,1,70
252,240,61480,5,0,0:0:0:0:
128,156,61852,2,0,P|148:112|172:92,1,70
232,176,62225,1,0,0:0:0:0:
217,207,62318,1,0,0:0:0:0:
194,233,62411,1,0,0:0:0:0:
165,253,62504,1,0,0:0:0:0:
128,264,62598,2,0,P|84:268|28:184,1,105.000004005432
120,80,62970,6,0,P|176:64|224:76,1,105.000004005432
176,192,63343,1,0,0:0:0:0:
80,188,63529,1,0,0:0:0:0:
80,188,63622,1,0,0:0:0:0:
80,188,63716,1,0,0:0:0:0:
228,104,63902,1,0,0:0:0:0:
120,272,64088,1,0,0:0:0:0:
112,68,64275,2,0,L|176:164,1,105.000004005432
176,328,64647,5,0,0:0:0:0:
8,224,64834,2,0,P|40:176|84:152,1,105.000004005432
292,172,65206,1,0,0:0:0:0:
212,248,65393,1,0,0:0:0:0:
200,96,65579,2,0,P|232:52|280:40,1,105.000004005432
388,252,65952,6,0,P|336:296|280:292,1,105.000004005432
136,240,66324,1,0,0:0:0:0:
384,144,66511,1,0,0:0:0:0:
316,320,66697,1,0,0:0:0:0:
228,212,66883,1,0,0:0:0:0:
408,228,67070,1,0,0:0:0:0:
216,300,67256,1,0,0:0:0:0:
288,128,67442,1,0,0:0:0:0:
368,304,67629,5,0,0:0:0:0:
368,304,67815,2,0,P|304:248|304:216,1,105.000004005432
364,96,68188,2,0,P|412:68|468:72,2,105.000004005432
264,232,68747,5,0,0:0:0:0:
264,232,68840,1,0,0:0:0:0:
264,232,68933,2,0,P|228:184|224:136,1,105.000004005432
332,180,69306,2,0,P|368:228|372:276,1,105.000004005432
276,256,69865,5,0,0:0:0:0:
348,132,70051,1,0,0:0:0:0:
472,172,70237,2,0,P|504:216|508:276,1,105.000004005432
396,248,70610,5,0,0:0:0:0:
428,96,70796,1,0,0:0:0:0:
396,248,70983,1,0,0:0:0:0:
240,224,71169,1,0,0:0:0:0:
140,112,71355,5,0,0:0:0:0:
280,88,71542,1,0,0:0:0:0:
384,180,71728,1,0,0:0:0:0:
384,180,71821,1,0,0:0:0:0:
384,180,71914,2,0,P|396:256|388:292,1,105.000004005432
296,232,72287,6,0,P|284:164|300:120,1,105.000004005432
396,148,72660,1,0,0:0:0:0:
452,180,72846,1,0,0:0:0:0:
480,236,73032,2,0,P|471:286|430:317,1,105.000004005432
368,112,73591,5,0,0:0:0:0:
368,112,73778,1,0,0:0:0:0:
324,188,73964,1,0,0:0:0:0:
284,112,74150,1,0,0:0:0:0:
408,240,74337,1,0,0:0:0:0:
408,240,74523,6,0,P|364:280|316:284,1,105.000004005432
60,140,74896,5,0,0:0:0:0:
248,176,75082,1,0,0:0:0:0:
40,252,75268,1,0,0:0:0:0:
148,60,75455,2,0,P|236:76|268:116,1,105.000004005432
288,228,75827,5,0,0:0:0:0:
288,228,76014,2,0,P|328:268|380:272,1,105.000004005432
380,132,76386,1,0,0:0:0:0:
284,128,76573,1,0,0:0:0:0:
380,228,76759,2,0,P|452:236|480:216,1,105.000004005432
436,52,77132,1,0,0:0:0:0:
276,48,77318,1,0,0:0:0:0:
184,172,77504,6,0,P|212:224|260:236,1,105.000004005432
344,108,77877,2,0,P|292:124|256:164,1,105.000004005432
316,300,78250,2,0,P|336:244|324:192,1,105.000004005432
64,148,78622,6,0,P|116:236|136:240,1,105.000004005432
156,100,78995,2,0,L|76:68,1,70
156,192,79368,2,0,L|228:220,1,70
312,320,79740,1,0,0:0:0:0:
432,264,79927,1,0,0:0:0:0:
472,156,80113,2,0,L|440:88,1,70
436,84,80486,1,0,0:0:0:0:
208,136,80672,5,0,0:0:0:0:
208,136,80858,1,0,0:0:0:0:
440,208,81044,1,0,0:0:0:0:
316,64,81230,1,0,0:0:0:0:
368,280,81417,2,0,L|320:200,1,70
256,88,81790,5,0,0:0:0:0:
212,196,81976,2,0,L|180:262,1,70
88,192,82349,1,0,0:0:0:0:
156,100,82535,1,0,0:0:0:0:
272,80,82722,1,0,0:0:0:0:
228,184,82908,6,0,P|272:220|296:224,1,70
195,297,83281,5,0,0:0:0:0:
195,86,83467,1,0,0:0:0:0:
377,192,83653,1,0,0:0:0:0:
160,196,84026,5,0,0:0:0:0:
300,120,84212,1,0,0:0:0:0:
400,240,84399,2,0,P|344:240|308:224,1,70
184,92,84771,5,0,0:0:0:0:
184,92,84958,2,0,P|232:52|276:40,1,105.000004005432
324,204,85330,2,0,P|276:172|264:128,1,105.000004005432
384,128,85703,1,0,0:0:0:0:
414,144,85796,1,0,0:0:0:0:
438,170,85889,1,0,0:0:0:0:
452,202,85982,5,0,0:0:0:0:
455,236,86075,1,0,0:0:0:0:
446,270,86168,1,0,0:0:0:0:
428,299,86262,1,0,0:0:0:0:
272,328,86448,6,0,P|296:284|320:268,1,70
416,360,86821,2,0,P|376:356|348:340,1,70
188,216,87194,1,0,0:0:0:0:
468,256,87380,1,0,0:0:0:0:
352,84,87753,1,0,0:0:0:0:
256,192,88125,5,0,0:0:0:0:
256,192,88312,12,0,89616,0:0:0:0:
