osu file format v14

[General]
AudioFilename: Itou Kanako - Hacking to the Gate.mp3
AudioLeadIn: 0
PreviewTime: 54865
Countdown: 0
SampleSet: Soft
StackLeniency: 0.7
Mode: 2
LetterboxInBreaks: 0
WidescreenStoryboard: 0

[Editor]
DistanceSpacing: 1.4
BeatDivisor: 4
GridSize: 16
TimelineZoom: 1

[Metadata]
Title:Hacking to the Gate (TV Size)
TitleUnicode:Hacking to the Gate (TV Size)
Artist:Itou Kanako
ArtistUnicode:いとうかなこ
Creator:chickenbible
Version:Rain
Source:Steins;Gate
Tags:5pb nitroplus nitro+ opening Ito Chloe wonjae idu5t ascendance
BeatmapID:1760069
BeatmapSetID:840945

[Difficulty]
HPDrainRate:6
CircleSize:3.8
OverallDifficulty:8.8
ApproachRate:8.8
SliderMultiplier:1.95
SliderTickRate:1

[Events]
//Background and Video events
0,0,"kurisu_makise_wallpaper____kingwallpaper_by_kingwallpaper-d86dqlh.jpg",0,0
//Break Periods
//Storyboard Layer 0 (Background)
//Storyboard Layer 1 (Fail)
//Storyboard Layer 2 (Pass)
//Storyboard Layer 3 (Foreground)
//Storyboard Sound Samples

[TimingPoints]
362,372.670807453416,4,1,0,50,1,0
3157,-100,4,1,0,45,0,0
3343,-100,4,1,0,50,0,0
4647,-100,4,1,0,45,0,0
4834,-100,4,1,0,50,0,0
6138,-100,4,1,0,40,0,0
6324,-100,4,1,0,50,0,0
7070,-100,4,1,0,55,0,0
7442,-100,4,1,0,65,0,0
7629,-100,4,1,0,55,0,0
7815,-100,4,1,0,50,0,0
9306,-100,4,1,0,55,0,0
9399,-100,4,1,0,50,0,0
10424,-100,4,1,0,55,0,0
10610,-100,4,1,0,50,0,0
10796,-100,4,1,0,65,0,0
10889,-100,4,1,0,50,0,0
12287,-100,4,1,0,65,0,0
12380,-100,4,1,0,50,0,0
13032,-100,4,1,0,55,0,0
13778,-100,4,2,0,70,0,0
22722,-100,4,1,0,60,0,0
24026,-100,4,1,0,60,0,0
24212,-100,4,2,0,30,0,0
24585,-100,4,2,0,60,0,0
24771,-100,4,2,0,70,0,0
33157,-100,4,2,0,50,0,0
33250,-100,4,2,0,70,0,0
35393,-100,4,1,0,70,0,0
36883,-100,4,2,0,75,0,0
38933,-100,4,3,0,45,0,0
39306,-100,4,2,0,75,0,0
40051,-100,4,3,0,45,0,0
40144,-100,4,2,0,75,0,0
43964,-100,4,2,0,75,0,0
47877,-100,4,2,0,45,0,0
48063,-100,4,2,0,75,0,0
50858,-100,4,3,0,45,0,0
51231,-100,4,2,0,75,0,0
51790,-100,4,2,0,60,0,0
51976,-100,4,3,0,45,0,0
52070,-100,4,2,0,75,0,0
59430,-100,4,1,0,60,0,0
59616,-100,4,2,0,75,0,0
61480,-100,4,2,0,80,0,1
61573,-100,4,2,0,80,0,0
61852,-100,4,1,1,45,0,0
62318,-100,4,1,1,50,0,0
62411,-100,4,1,1,70,0,0
62970,-100,4,1,1,75,0,1
65765,-100,4,1,1,55,0,1
65858,-100,4,1,1,75,0,1
67256,-100,4,1,1,55,0,1
67349,-100,4,1,1,75,0,1
68560,-100,4,1,1,55,0,1
68653,-100,4,1,1,75,0,1
68747,-100,4,1,1,60,0,1
68840,-100,4,1,1,75,0,1
69678,-100,4,1,1,80,0,1
70424,-100,4,1,1,70,0,1
70610,-100,4,1,1,75,0,1
72846,-100,4,1,1,85,0,1
73219,-100,4,1,1,55,0,1
73778,-100,4,1,1,65,0,1
74243,-100,4,1,1,50,0,1
74337,-100,4,1,1,70,0,1
74523,-100,4,1,1,75,0,0
74896,-100,4,1,1,75,0,1
80299,-100,4,1,1,85,0,1
80672,-100,4,1,1,75,0,1
80858,-100,4,1,1,85,0,1
81045,-100,4,1,1,75,0,1
81976,-100,4,1,1,55,0,1
82163,-100,4,1,1,75,0,1
83281,-100,4,1,1,65,0,1
83653,-100,4,1,1,75,0,1
85144,-100,4,1,1,85,0,1
85237,-100,4,1,1,75,0,1
86169,-100,4,1,1,80,0,1
86821,-100,4,1,1,75,0,0
88125,-100,4,1,1,55,0,0

[Colours]
Combo1 : 74,74,74
Combo2 : 213,51,43
Combo3 : 145,145,155

[HitObjects]
280,246,1852,6,0,L|178:247,2,97.5,6|0|0,0:0|0:0|0:0,0:0:0:0:
121,183,2411,2,0,L|347:183,2,195,0|0|0,0:0|0:0|0:0,0:0:0:0:
398,112,3343,5,6,0:0:0:0:
300,112,3529,1,0,0:0:0:0:
203,112,3716,1,0,0:0:0:0:
374,111,3902,2,0,L|205:235,2,195,0|0|0,0:0|0:0|0:0,0:0:0:0:
79,110,4834,5,6,0:0:0:0:
176,110,5020,1,0,0:0:0:0:
274,110,5206,1,0,0:0:0:0:
118,181,5393,2,0,L|287:277,2,195,0|0|0,0:0|0:0|0:0,0:0:0:0:
411,217,6324,6,0,L|404:99,1,97.5,6|0,0:0|0:0,0:0:0:0:
249,215,6697,2,0,L|242:97,1,97.5,0|0,0:0|0:0,0:0:0:0:
401,112,7070,2,0,L|281:112,1,97.5,0|0,0:0|0:0,0:0:0:0:
137,181,7442,2,0,L|116:127,1,48.75,4|0,0:0|0:0,0:0:0:0:
294,184,7629,2,0,L|315:130,1,48.75,0|0,0:0|0:0,0:0:0:0:
92,193,7815,6,0,L|92:70,1,97.5,12|0,0:0|0:0,0:0:0:0:
239,98,8188,2,0,L|113:98,1,97.5,8|0,0:0|0:0,0:0:0:0:
308,112,8560,2,0,L|436:112,1,97.5,0|0,0:0|0:0,0:0:0:0:
279,108,8933,2,0,L|156:108,1,97.5,0|0,0:0|0:0,0:0:0:0:
235,110,9212,1,0,0:0:0:0:
406,112,9306,6,0,L|507:112,2,97.5,12|0|8,0:0|0:0|0:0,0:0:0:0:
249,178,9865,2,0,L|447:178,1,195,0|0,0:0|0:0,0:0:0:0:
286,129,10424,2,0,L|157:128,1,97.5,4|0,0:0|0:0,0:0:0:0:
241,126,10703,1,0,0:0:0:0:
428,205,10796,6,0,L|420:103,1,97.5,4|0,0:0|0:0,0:0:0:0:
268,203,11169,2,0,L|260:101,1,97.5,0|0,0:0|0:0,0:0:0:0:
102,113,11542,2,0,L|240:114,1,97.5,2|0,0:0|0:0,0:0:0:0:
368,171,11914,2,0,L|368:59,1,97.5,2|0,0:0|0:0,0:0:0:0:
74,157,12287,6,0,L|175:157,2,97.5,4|0|0,0:0|0:0|0:0,0:0:0:0:
257,77,12846,2,0,P|317:158|246:202,1,195,0|0,0:0|0:0,0:0:0:0:
86,133,13405,2,0,L|93:246,1,97.5,6|0,0:0|0:0,0:0:0:0:
394,230,13778,6,0,L|393:130,1,97.5,0|2,0:0|0:0,0:0:0:0:
236,109,14150,1,8,0:0:0:0:
74,101,14337,2,0,L|180:102,2,97.5,0|0|2,0:0|0:0|0:0,0:0:0:0:
230,110,14896,1,8,0:0:0:0:
405,222,15082,6,0,L|301:228,2,97.5,2|0|0,0:0|0:0|0:0,0:0:0:0:
110,205,15641,2,0,L|4:205,1,97.5,8|2,0:0|0:0,0:0:0:0:
140,138,16014,2,0,L|223:77,1,97.5,2|0,0:0|0:0,0:0:0:0:
56,68,16386,2,0,L|166:68,1,97.5,8|0,0:0|0:0,0:0:0:0:
445,73,16759,6,0,L|327:73,2,97.5,2|0|8,0:0|0:0|0:0,0:0:0:0:
153,68,17318,2,0,L|271:68,1,97.5,2|0,0:0|0:0,0:0:0:0:
407,76,17691,2,0,L|507:76,2,97.5,0|8|2,0:0|0:0|0:0,0:0:0:0:
113,216,18250,5,2,0:0:0:0:
27,181,18436,1,2,0:0:0:0:
113,216,18622,1,8,0:0:0:0:
199,185,18809,1,0,0:0:0:0:
445,212,18995,2,0,L|317:212,1,97.5,2|0,0:0|0:0,0:0:0:0:
201,216,19368,2,0,L|330:216,1,97.5,8|0,0:0|0:0,0:0:0:0:
24,226,19740,6,0,L|24:121,1,97.5,2|0,0:0|0:0,0:0:0:0:
151,122,20113,1,8,0:0:0:0:
317,205,20299,2,0,L|216:205,2,97.5,0|0|0,0:0|0:0|0:0,0:0:0:0:
473,86,20858,2,0,L|366:86,1,97.5,8|0,0:0|0:0,0:0:0:0:
73,112,21231,6,0,L|188:113,2,97.5,2|0|8,0:0|0:0|0:0,0:0:0:0:
321,114,21790,2,0,L|427:114,2,97.5,2|0|0,0:0|0:0|0:0,0:0:0:0:
264,115,22256,1,0,0:0:0:0:
81,185,22349,2,0,L|81:79,1,97.5,8|0,0:0|0:0,0:0:0:0:
352,98,22722,5,4,0:2:0:0:
186,96,22908,1,2,0:2:0:0:
456,81,23094,1,2,0:2:0:0:
164,95,23281,1,0,0:2:0:0:
404,212,23653,6,0,L|404:103,1,97.5,4|2,0:2|0:2,0:0:0:0:
151,94,24026,1,2,0:2:0:0:
404,212,24771,6,0,L|404:103,1,97.5,4|0,0:0|0:0,0:0:0:0:
156,128,25144,2,0,L|42:128,2,97.5,4|0|0,0:0|0:0|0:0,0:0:0:0:
426,128,25703,1,2,0:0:0:0:
156,128,26076,5,8,0:0:0:0:
271,127,26262,2,0,L|100:276,1,195,0|0,0:0|0:0,0:0:0:0:
240,258,26821,1,8,0:0:0:0:
487,266,27007,1,0,0:0:0:0:
343,193,27194,6,0,L|461:193,1,97.5,0|0,0:0|0:0,0:0:0:0:
192,194,27566,2,0,L|94:119,1,97.5,8|0,0:0|0:0,0:0:0:0:
256,114,27939,2,0,L|374:114,1,97.5,0|0,0:0|0:0,0:0:0:0:
192,194,28312,2,0,L|63:193,1,97.5,8|2,0:0|0:0,0:0:0:0:
344,194,28684,6,0,L|444:194,2,97.5,2|0|8,0:0|0:0|0:0,0:0:0:0:
81,214,29243,2,0,L|180:273,2,97.5,2|0|2,0:0|0:0|0:0,0:0:0:0:
228,200,29802,2,0,L|344:199,1,97.5,8|2,0:0|0:0,0:0:0:0:
57,262,30175,5,0,0:0:0:0:
13,184,30361,1,0,0:0:0:0:
185,194,30548,1,8,0:0:0:0:
253,138,30734,1,2,0:0:0:0:
95,189,30921,2,0,L|95:72,1,97.5,2|0,0:0|0:0,0:0:0:0:
236,87,31293,2,0,L|117:87,1,97.5,8|0,0:0|0:0,0:0:0:0:
406,209,31666,6,0,L|286:209,1,97.5,2|0,0:0|0:0,0:0:0:0:
407,125,32039,1,8,0:0:0:0:
131,216,32225,1,2,0:0:0:0:
251,215,32411,2,0,L|153:215,1,97.5,0|2,0:0|0:0,0:0:0:0:
309,114,32784,2,0,L|309:225,1,97.5,8|2,0:0|0:0,0:0:0:0:
62,118,33157,6,0,L|166:118,2,97.5,2|0|8,0:0|0:0|0:0,0:0:0:0:
334,105,33716,2,0,L|451:106,1,97.5,2|0,0:0|0:0,0:0:0:0:
181,115,34088,1,0,0:0:0:0:
334,105,34275,2,0,L|455:105,1,97.5,4|0,0:0|0:0,0:0:0:0:
137,185,34647,6,0,L|270:185,1,97.5,4|0,0:0|0:0,0:0:0:0:
390,187,35020,2,0,L|390:68,1,97.5,8|0,0:0|0:0,0:0:0:0:
143,100,35393,2,0,L|270:100,2,97.5,0|0|0,0:0|0:0|0:0,0:0:0:0:
390,92,35952,1,4,0:0:0:0:
143,100,36324,5,4,0:0:0:0:
390,92,36511,1,0,0:0:0:0:
96,100,36883,5,4,0:0:0:0:
390,92,37070,1,2,0:0:0:0:
143,100,37442,6,0,P|60:100|146:209,1,292.5,4|2,0:0|0:0,0:0:0:0:
229,214,38188,1,0,0:0:0:0:
474,232,38374,1,2,0:0:0:0:
327,141,38560,2,0,L|444:141,1,97.5,2|0,0:0|0:0,0:0:0:0:
132,216,38933,6,0,P|76:181|149:94,1,195,0|0,0:0|0:0,0:0:0:0:
231,93,39492,1,0,0:0:0:0:
479,93,39678,1,0,0:0:0:0:
381,93,39865,1,2,0:0:0:0:
284,93,40051,1,0,0:0:0:0:
440,96,40237,2,0,L|440:227,1,97.5,8|0,0:0|0:0,0:0:0:0:
148,111,40610,6,0,L|261:111,1,97.5,4|0,0:0|0:0,0:0:0:0:
402,106,40983,2,0,L|509:106,2,97.5,2|0|0,0:0|0:0|0:0,0:0:0:0:
245,105,41542,2,0,L|111:105,1,97.5,2|2,0:0|0:0,0:0:0:0:
393,228,41914,6,0,P|391:143|296:102,1,195,0|0,0:0|0:0,0:0:0:0:
125,166,42473,2,0,L|125:279,1,97.5,2|0,0:0|0:0,0:0:0:0:
271,130,42846,1,0,0:0:0:0:
100,70,43032,2,0,L|226:70,1,97.5,0|8,0:0|0:0,0:0:0:0:
456,240,43405,6,0,P|456:174|333:127,1,195,2|0,0:0|0:0,0:0:0:0:
187,145,43964,2,0,L|187:39,1,97.5,8|0,0:0|0:0,0:0:0:0:
336,47,44337,1,2,0:0:0:0:
187,145,44523,2,0,L|75:145,1,97.5,0|8,0:0|0:0,0:0:0:0:
336,252,44896,6,0,P|399:212|321:137,1,195,2|0,0:0|0:0,0:0:0:0:
187,145,45455,2,0,L|187:39,1,97.5,8|0,0:0|0:0,0:0:0:0:
336,47,45827,1,2,0:0:0:0:
187,145,46014,1,2,0:0:0:0:
336,47,46200,2,0,L|462:47,1,97.5,8|0,0:0|0:0,0:0:0:0:
159,224,46573,6,0,L|158:100,1,97.5,2|0,0:0|0:0,0:0:0:0:
308,131,46945,1,8,0:0:0:0:
61,139,47132,2,0,L|163:139,2,97.5,2|0|0,0:0|0:0|0:0,0:0:0:0:
309,232,47691,1,8,0:0:0:0:
350,211,47784,1,0,0:0:0:0:
352,164,47877,1,0,0:0:0:0:
105,158,48063,5,4,0:0:0:0:
352,164,48250,1,2,0:0:0:0:
105,158,48436,1,2,0:0:0:0:
352,164,48809,5,4,0:0:0:0:
105,158,48995,1,0,0:0:0:0:
352,164,49368,6,0,P|407:144|336:72,1,195,4|0,0:0|0:0,0:0:0:0:
196,73,49927,2,0,L|337:73,1,97.5,8|0,0:0|0:0,0:0:0:0:
46,122,50299,2,0,L|182:121,2,97.5,2|0|0,0:0|0:0|0:0,0:0:0:0:
296,204,50858,6,0,L|125:329,1,195,0|0,0:0|0:0,0:0:0:0:
296,204,51417,1,2,0:0:0:0:
138,319,51604,1,2,0:0:0:0:
296,204,51790,2,0,L|183:204,1,97.5,0|0,0:0|0:0,0:0:0:0:
43,213,52163,2,0,L|44:101,1,97.5,8|0,0:0|0:0,0:0:0:0:
310,264,52535,6,0,P|378:212|291:186,1,195,4|2,0:0|0:0,0:0:0:0:
63,145,53094,1,2,0:0:0:0:
216,146,53281,2,0,L|95:146,2,97.5,0|0|2,0:0|0:0|0:0,0:0:0:0:
462,158,53840,6,0,L|330:158,2,97.5,2|0|0,0:0|0:0|0:0,0:0:0:0:
215,227,54399,2,0,L|215:98,1,97.5,0|0,0:0|0:0,0:0:0:0:
371,87,54771,1,8,0:0:0:0:
273,87,54958,1,2,0:0:0:0:
176,87,55144,1,8,0:0:0:0:
427,264,55330,6,0,P|481:243|411:161,1,195,4|2,0:0|0:0,0:0:0:0:
277,198,55889,2,0,L|379:198,2,97.5,8|2|0,0:0|0:0|0:0,0:0:0:0:
120,212,56448,2,0,L|120:91,1,97.5,2|8,0:0|0:0,0:0:0:0:
381,249,56821,6,0,P|435:228|365:146,1,195,4|0,0:0|0:0,0:0:0:0:
223,181,57380,2,0,L|104:181,2,97.5,8|2|0,0:0|0:0|0:0,0:0:0:0:
380,213,57939,2,0,L|380:111,1,97.5,0|8,0:0|0:0,0:0:0:0:
111,119,58312,1,6,0:0:0:0:
40,209,58684,6,0,L|140:209,1,97.5,4|2,0:0|0:0,0:0:0:0:
405,119,59057,1,4,0:0:0:0:
476,223,59430,6,0,L|373:223,1,97.5,0|2,0:0|0:0,0:0:0:0:
111,126,59802,1,6,0:0:0:0:
24,214,60175,6,0,L|125:214,1,97.5,0|0,0:0|0:0,0:0:0:0:
380,122,60548,2,0,L|380:225,1,97.5,4|0,0:0|0:0,0:0:0:0:
132,137,60921,2,0,L|229:137,2,97.5,0|0|0,0:0|0:0|0:0,0:0:0:0:
391,138,61480,1,4,0:0:0:0:
256,192,61852,12,0,62598,0:0:0:0:
265,120,62970,6,0,L|396:121,2,97.5,4|0|8,0:0|0:0|0:0,0:0:0:0:
17,118,63529,2,0,L|246:118,1,195,4|0,0:0|0:0,0:0:0:0:
114,117,64088,1,8,0:0:0:0:
406,130,64275,6,0,L|191:130,1,195,0|0,0:0|0:0,0:0:0:0:
368,134,64834,2,0,L|368:262,1,97.5,8|0,0:0|0:0,0:0:0:0:
211,130,65206,2,0,L|85:130,2,97.5,0|0|8,0:0|0:0|0:0,0:0:0:0:
458,93,65765,6,0,L|222:93,1,195,4|0,0:0|0:0,0:0:0:0:
361,94,66324,1,8,0:0:0:0:
114,97,66511,2,0,L|350:97,1,195,0|0,0:0|0:0,0:0:0:0:
211,98,67070,1,8,0:0:0:0:
457,257,67256,6,0,P|506:236|443:147,1,195,4|0,0:0|0:0,0:0:0:0:
342,149,67815,1,8,0:0:0:0:
95,257,68001,2,0,P|42:237|108:148,1,195,0|0,0:0|0:0,0:0:0:0:
210,146,68560,2,0,L|84:146,1,97.5,12|0,0:0|0:0,0:0:0:0:
404,238,68933,6,0,L|507:238,2,97.5,0|0|8,0:0|0:0|0:0,0:0:0:0:
134,260,69492,2,0,L|134:137,1,97.5,0|0,0:0|0:0,0:0:0:0:
402,253,69865,2,0,L|402:130,1,97.5,8|2,0:0|0:0,0:0:0:0:
108,257,70237,6,0,P|55:237|121:148,1,195,8|0,0:0|0:0,0:0:0:0:
352,254,70796,2,0,L|352:130,1,97.5,8|0,0:0|0:0,0:0:0:0:
205,159,71169,2,0,L|75:159,2,97.5,0|0|8,0:0|0:0|0:0,0:0:0:0:
458,93,71728,6,0,L|222:93,1,195,4|0,0:0|0:0,0:0:0:0:
361,94,72287,1,8,0:0:0:0:
114,97,72473,2,0,L|350:97,1,195,4|4,0:0|0:0,0:0:0:0:
211,98,73032,1,0,0:0:0:0:
457,257,73219,6,0,P|511:234|442:147,1,195,4|0,0:0|0:0,0:0:0:0:
210,225,73778,2,0,L|210:117,1,97.5,8|0,0:0|0:0,0:0:0:0:
367,130,74150,2,0,L|486:131,1,97.5,0|0,0:0|0:0,0:0:0:0:
197,277,74523,2,0,L|86:250,1,97.5,0|0,0:0|0:0,0:0:0:0:
197,277,74802,1,0,0:0:0:0:
394,167,74896,6,0,L|503:167,2,97.5,4|0|8,0:0|0:0|0:0,0:0:0:0:
126,154,75455,1,4,0:0:0:0:
380,227,75827,2,0,L|380:109,1,97.5,0|8,0:0|0:0,0:0:0:0:
110,243,76200,6,0,P|59:212|123:116,1,195,0|0,0:0|0:0,0:0:0:0:
251,118,76759,2,0,L|149:118,2,97.5,8|0|0,0:0|0:0|0:0,0:0:0:0:
408,245,77318,2,0,L|408:130,1,97.5,0|8,0:0|0:0,0:0:0:0:
114,102,77691,6,0,L|350:102,1,195,4|0,0:0|0:0,0:0:0:0:
211,103,78250,1,8,0:0:0:0:
458,106,78436,2,0,L|222:106,1,195,0|0,0:0|0:0,0:0:0:0:
361,107,78995,1,8,0:0:0:0:
115,150,79181,6,0,L|9:150,2,97.5,4|0|0,0:0|0:0|0:0,0:0:0:0:
363,158,79740,1,8,0:0:0:0:
115,150,79927,2,0,L|17:150,2,97.5,0|0|0,0:0|0:0|0:0,0:0:0:0:
264,83,80486,2,0,L|143:83,1,97.5,0|0,0:0|0:0,0:0:0:0:
436,119,80858,6,0,L|321:118,2,97.5,4|0|8,0:0|0:0|0:0,0:0:0:0:
162,139,81417,1,0,0:0:0:0:
436,119,81790,6,0,L|436:232,1,97.5,0|8,0:0|0:0,0:0:0:0:
142,131,82163,2,0,P|142:25|242:25,1,195,0|0,0:0|0:0,0:0:0:0:
350,81,82722,2,0,L|228:80,2,97.5,8|0|0,0:0|0:0|0:0,0:0:0:0:
193,198,83281,2,0,L|193:92,1,97.5,0|8,0:0|0:0,0:0:0:0:
440,95,83653,6,0,L|204:95,1,195,4|0,0:0|0:0,0:0:0:0:
343,96,84212,1,8,0:0:0:0:
96,99,84399,2,0,L|332:99,1,195,0|0,0:0|0:0,0:0:0:0:
193,100,84958,1,8,0:0:0:0:
440,95,85144,6,0,L|334:94,1,97.5,4|0,0:0|0:0,0:0:0:0:
186,177,85517,2,0,L|62:177,2,97.5,0|8|0,0:0|0:0|0:0,0:0:0:0:
343,185,86076,2,0,L|343:83,1,97.5,0|0,0:0|0:0,0:0:0:0:
191,88,86448,2,0,L|320:88,1,97.5,2|0,0:0|0:0,0:0:0:0:
43,89,86821,5,4,0:0:0:0:
343,87,87007,1,0,0:0:0:0:
98,88,87380,5,0,0:0:0:0:
372,89,87753,1,0,0:0:0:0:
48,97,88125,1,4,0:0:0:0:
