osu file format v14

[General]
AudioFilename: audio.mp3
AudioLeadIn: 0
PreviewTime: 61751
Countdown: 0
SampleSet: Soft
StackLeniency: 0.7
Mode: 3
LetterboxInBreaks: 0
SpecialStyle: 0
WidescreenStoryboard: 0

[Editor]
DistanceSpacing: 0.1
BeatDivisor: 4
GridSize: 4
TimelineZoom: 1

[Metadata]
Title:Hacking to the Gate (TV Size)
TitleUnicode:Hacking to the Gate (TV Size)
Artist:Itou Kanako
ArtistUnicode:Itou Kanako
Creator:Kenny-sama
Version:MX
Source:シュタインズ・ゲート
Tags:Opening Steins;Gate [-Star_Lenz-]
BeatmapID:977423
BeatmapSetID:456053

[Difficulty]
HPDrainRate:7.5
CircleSize:4
OverallDifficulty:7.5
ApproachRate:5
SliderMultiplier:1.4
SliderTickRate:1

[Events]
//Background and Video events
0,0,"Background.jpg",0,0
Video,0,"Video.flv"
//Break Periods
//Storyboard Layer 0 (Background)
//Storyboard Layer 1 (Fail)
//Storyboard Layer 2 (Pass)
//Storyboard Layer 3 (Foreground)
//Storyboard Sound Samples

[TimingPoints]
354,372.670807453416,4,2,0,30,1,0
62962,-100,4,2,0,30,0,1
88117,-100,4,2,0,30,0,0

[HitObjects]
192,192,354,128,0,913:0:0:0:0:
64,192,913,128,0,1192:0:0:0:0:
320,192,1285,128,0,1844:0:0:0:0:
64,192,1844,1,0,0:0:0:0:
448,192,1844,1,0,0:0:0:0:
192,192,1844,1,0,0:0:0:0:
320,192,2031,1,0,0:0:0:0:
192,192,2217,1,0,0:0:0:0:
64,192,2403,1,0,0:0:0:0:
320,192,2590,1,0,0:0:0:0:
192,192,2776,1,0,0:0:0:0:
448,192,2962,1,0,0:0:0:0:
320,192,3149,1,0,0:0:0:0:
64,192,3335,1,0,0:0:0:0:
192,192,3335,1,0,0:0:0:0:
448,192,3335,1,0,0:0:0:0:
320,192,3521,1,0,0:0:0:0:
64,192,3708,1,0,0:0:0:0:
448,192,3894,1,0,0:0:0:0:
320,192,4080,1,0,0:0:0:0:
192,192,4267,1,0,0:0:0:0:
320,192,4453,1,0,0:0:0:0:
64,192,4639,1,0,0:0:0:0:
320,192,4826,1,0,0:0:0:0:
448,192,4826,1,0,0:0:0:0:
192,192,4826,1,0,0:0:0:0:
64,192,5012,1,0,0:0:0:0:
192,192,5198,1,0,0:0:0:0:
320,192,5385,1,0,0:0:0:0:
448,192,5571,1,0,0:0:0:0:
192,192,5757,1,0,0:0:0:0:
64,192,5944,1,0,0:0:0:0:
448,192,6130,1,0,0:0:0:0:
64,192,6316,1,0,0:0:0:0:
192,192,6316,1,0,0:0:0:0:
320,192,6316,1,0,0:0:0:0:
448,192,6503,1,0,0:0:0:0:
192,192,6689,1,0,0:0:0:0:
64,192,6689,1,0,0:0:0:0:
320,192,6875,1,0,0:0:0:0:
448,192,7062,1,0,0:0:0:0:
64,192,7248,1,0,0:0:0:0:
320,192,7248,1,0,0:0:0:0:
192,192,7434,1,0,0:0:0:0:
448,192,7434,1,0,0:0:0:0:
64,192,7621,1,0,0:0:0:0:
448,192,7621,1,0,0:0:0:0:
320,192,7714,1,0,0:0:0:0:
192,192,7807,1,0,0:0:0:0:
64,192,7807,1,0,0:0:0:0:
448,192,7807,1,0,0:0:0:0:
320,192,7993,1,0,0:0:0:0:
64,192,8180,1,0,0:0:0:0:
448,192,8180,1,0,0:0:0:0:
192,192,8366,1,0,0:0:0:0:
320,192,8552,1,0,0:0:0:0:
64,192,8552,1,0,0:0:0:0:
448,192,8739,1,0,0:0:0:0:
192,192,8925,1,0,0:0:0:0:
64,192,8925,1,0,0:0:0:0:
320,192,9111,1,0,0:0:0:0:
448,192,9111,1,0,0:0:0:0:
192,192,9204,1,0,0:0:0:0:
64,192,9298,1,0,0:0:0:0:
448,192,9298,1,0,0:0:0:0:
320,192,9484,1,0,0:0:0:0:
448,192,9670,1,0,0:0:0:0:
192,192,9670,1,0,0:0:0:0:
64,192,9857,1,0,0:0:0:0:
320,192,9857,1,0,0:0:0:0:
192,192,9950,1,0,0:0:0:0:
448,192,10043,1,0,0:0:0:0:
320,192,10136,1,0,0:0:0:0:
192,192,10229,1,0,0:0:0:0:
64,192,10229,1,0,0:0:0:0:
64,192,10416,1,0,0:0:0:0:
320,192,10416,1,0,0:0:0:0:
448,192,10416,1,0,0:0:0:0:
192,192,10602,1,0,0:0:0:0:
320,192,10788,1,0,0:0:0:0:
448,192,10788,1,0,0:0:0:0:
64,192,10788,1,0,0:0:0:0:
64,192,10975,1,0,0:0:0:0:
192,192,11161,1,0,0:0:0:0:
448,192,11161,1,0,0:0:0:0:
320,192,11347,1,0,0:0:0:0:
64,192,11534,1,0,0:0:0:0:
192,192,11534,1,0,0:0:0:0:
320,192,11720,1,0,0:0:0:0:
64,192,11906,1,0,0:0:0:0:
448,192,11906,1,0,0:0:0:0:
192,192,12093,1,0,0:0:0:0:
320,192,12279,1,0,0:0:0:0:
448,192,12279,1,0,0:0:0:0:
192,192,12465,1,0,0:0:0:0:
64,192,12465,1,0,0:0:0:0:
320,192,12652,1,0,0:0:0:0:
448,192,12652,1,0,0:0:0:0:
192,192,12838,1,0,0:0:0:0:
64,192,13024,1,0,0:0:0:0:
448,192,13024,1,0,0:0:0:0:
320,192,13211,1,0,0:0:0:0:
448,192,13211,1,0,0:0:0:0:
64,192,13397,1,0,0:0:0:0:
192,192,13397,1,0,0:0:0:0:
448,192,13583,1,0,0:0:0:0:
64,192,13583,1,0,0:0:0:0:
192,192,13676,1,0,0:0:0:0:
64,192,13770,1,0,0:0:0:0:
448,192,13770,1,0,0:0:0:0:
320,192,13770,1,0,0:0:0:0:
64,192,13956,1,0,0:0:0:0:
192,192,13956,1,0,0:0:0:0:
448,192,14142,1,0,0:0:0:0:
320,192,14142,1,0,0:0:0:0:
192,192,14329,1,0,0:0:0:0:
320,192,14329,1,0,0:0:0:0:
64,192,14515,1,0,0:0:0:0:
192,192,14515,1,0,0:0:0:0:
320,192,14701,1,0,0:0:0:0:
448,192,14701,1,0,0:0:0:0:
448,192,14888,1,0,0:0:0:0:
64,192,14888,1,0,0:0:0:0:
192,192,15074,1,0,0:0:0:0:
320,192,15074,1,0,0:0:0:0:
64,192,15260,1,0,0:0:0:0:
448,192,15260,1,0,0:0:0:0:
320,192,15447,1,0,0:0:0:0:
448,192,15447,1,0,0:0:0:0:
192,192,15633,1,0,0:0:0:0:
64,192,15633,1,0,0:0:0:0:
320,192,15819,1,0,0:0:0:0:
448,192,15819,1,0,0:0:0:0:
192,192,15913,1,0,0:0:0:0:
448,192,16006,1,0,0:0:0:0:
64,192,16006,1,0,0:0:0:0:
320,192,16099,1,0,0:0:0:0:
448,192,16192,1,0,0:0:0:0:
192,192,16192,1,0,0:0:0:0:
448,192,16378,1,0,0:0:0:0:
64,192,16378,1,0,0:0:0:0:
192,192,16565,1,0,0:0:0:0:
64,192,16565,1,0,0:0:0:0:
320,192,16751,1,0,0:0:0:0:
448,192,16751,1,0,0:0:0:0:
192,192,16937,1,0,0:0:0:0:
320,192,16937,1,0,0:0:0:0:
64,192,17124,1,0,0:0:0:0:
448,192,17124,1,0,0:0:0:0:
448,192,17310,1,0,0:0:0:0:
192,192,17310,1,0,0:0:0:0:
320,192,17403,1,0,0:0:0:0:
448,192,17496,1,0,0:0:0:0:
64,192,17496,1,0,0:0:0:0:
192,192,17590,1,0,0:0:0:0:
64,192,17683,1,0,0:0:0:0:
320,192,17683,1,0,0:0:0:0:
64,192,17869,1,0,0:0:0:0:
192,192,17869,1,0,0:0:0:0:
320,192,18055,1,0,0:0:0:0:
448,192,18055,1,0,0:0:0:0:
64,192,18242,1,0,0:0:0:0:
448,192,18242,1,0,0:0:0:0:
192,192,18428,1,0,0:0:0:0:
64,192,18428,1,0,0:0:0:0:
320,192,18614,1,0,0:0:0:0:
448,192,18614,1,0,0:0:0:0:
192,192,18801,1,0,0:0:0:0:
448,192,18801,1,0,0:0:0:0:
320,192,18894,1,0,0:0:0:0:
64,192,18987,1,0,0:0:0:0:
448,192,18987,1,0,0:0:0:0:
192,192,19080,1,0,0:0:0:0:
320,192,19173,1,0,0:0:0:0:
64,192,19173,1,0,0:0:0:0:
64,192,19360,1,0,0:0:0:0:
448,192,19360,1,0,0:0:0:0:
320,192,19546,1,0,0:0:0:0:
192,192,19546,1,0,0:0:0:0:
448,192,19732,1,0,0:0:0:0:
64,192,19732,1,0,0:0:0:0:
320,192,19919,1,0,0:0:0:0:
448,192,19919,1,0,0:0:0:0:
192,192,20105,1,0,0:0:0:0:
64,192,20105,1,0,0:0:0:0:
448,192,20291,1,0,0:0:0:0:
192,192,20291,1,0,0:0:0:0:
320,192,20385,1,0,0:0:0:0:
64,192,20478,1,0,0:0:0:0:
192,192,20478,1,0,0:0:0:0:
320,192,20571,1,0,0:0:0:0:
448,192,20664,1,0,0:0:0:0:
64,192,20664,1,0,0:0:0:0:
192,192,20850,1,0,0:0:0:0:
320,192,20850,1,0,0:0:0:0:
192,192,21037,1,0,0:0:0:0:
64,192,21037,1,0,0:0:0:0:
320,192,21223,1,0,0:0:0:0:
448,192,21223,1,0,0:0:0:0:
192,192,21409,1,0,0:0:0:0:
320,192,21409,1,0,0:0:0:0:
64,192,21596,1,0,0:0:0:0:
448,192,21596,1,0,0:0:0:0:
192,192,21782,1,0,0:0:0:0:
448,192,21782,1,0,0:0:0:0:
320,192,21875,1,0,0:0:0:0:
64,192,21968,1,0,0:0:0:0:
448,192,21968,1,0,0:0:0:0:
192,192,22062,1,0,0:0:0:0:
448,192,22155,128,0,22714:0:0:0:0:
320,192,22155,1,0,0:0:0:0:
64,192,22155,1,0,0:0:0:0:
192,192,22341,1,0,0:0:0:0:
64,192,22341,1,0,0:0:0:0:
64,192,22714,1,0,0:0:0:0:
192,192,22714,1,0,0:0:0:0:
320,192,22714,1,0,0:0:0:0:
320,192,22900,1,0,0:0:0:0:
448,192,22900,1,0,0:0:0:0:
64,192,22900,1,0,0:0:0:0:
192,192,23086,1,0,0:0:0:0:
320,192,23086,1,0,0:0:0:0:
448,192,23086,1,0,0:0:0:0:
448,192,23273,1,0,0:0:0:0:
64,192,23273,1,0,0:0:0:0:
192,192,23273,1,0,0:0:0:0:
320,192,23645,1,0,0:0:0:0:
448,192,23645,1,0,0:0:0:0:
64,192,23832,1,0,0:0:0:0:
192,192,23832,1,0,0:0:0:0:
64,192,24018,1,0,0:0:0:0:
320,192,24018,1,0,0:0:0:0:
448,192,24018,1,0,0:0:0:0:
192,192,24111,1,0,0:0:0:0:
320,192,24204,1,0,0:0:0:0:
64,192,24298,1,0,0:0:0:0:
192,192,24391,1,0,0:0:0:0:
320,192,24484,1,0,0:0:0:0:
64,192,24763,1,0,0:0:0:0:
448,192,24763,1,0,0:0:0:0:
192,192,24763,1,0,0:0:0:0:
320,192,24950,1,0,0:0:0:0:
192,192,25043,1,0,0:0:0:0:
320,192,25136,1,0,0:0:0:0:
448,192,25136,1,0,0:0:0:0:
192,192,25229,1,0,0:0:0:0:
64,192,25322,1,0,0:0:0:0:
448,192,25322,1,0,0:0:0:0:
320,192,25416,1,0,0:0:0:0:
192,192,25509,1,0,0:0:0:0:
64,192,25509,1,0,0:0:0:0:
320,192,25602,1,0,0:0:0:0:
192,192,25695,1,0,0:0:0:0:
64,192,25695,1,0,0:0:0:0:
448,192,25695,1,0,0:0:0:0:
448,192,25881,1,0,0:0:0:0:
320,192,25881,1,0,0:0:0:0:
64,192,26068,1,0,0:0:0:0:
192,192,26068,1,0,0:0:0:0:
320,192,26254,1,0,0:0:0:0:
192,192,26254,1,0,0:0:0:0:
448,192,26440,1,0,0:0:0:0:
320,192,26440,1,0,0:0:0:0:
192,192,26627,1,0,0:0:0:0:
64,192,26627,1,0,0:0:0:0:
64,192,26813,1,0,0:0:0:0:
448,192,26813,1,0,0:0:0:0:
320,192,26999,1,0,0:0:0:0:
192,192,26999,1,0,0:0:0:0:
448,192,27186,1,0,0:0:0:0:
64,192,27186,1,0,0:0:0:0:
192,192,27372,1,0,0:0:0:0:
64,192,27372,1,0,0:0:0:0:
320,192,27558,1,0,0:0:0:0:
448,192,27558,1,0,0:0:0:0:
192,192,27745,1,0,0:0:0:0:
448,192,27745,1,0,0:0:0:0:
320,192,27838,1,0,0:0:0:0:
64,192,27931,1,0,0:0:0:0:
448,192,27931,1,0,0:0:0:0:
192,192,28024,1,0,0:0:0:0:
320,192,28117,1,0,0:0:0:0:
64,192,28117,1,0,0:0:0:0:
64,192,28304,1,0,0:0:0:0:
448,192,28304,1,0,0:0:0:0:
320,192,28490,1,0,0:0:0:0:
448,192,28490,1,0,0:0:0:0:
192,192,28676,1,0,0:0:0:0:
64,192,28676,1,0,0:0:0:0:
320,192,28863,1,0,0:0:0:0:
192,192,28863,1,0,0:0:0:0:
448,192,29049,1,0,0:0:0:0:
64,192,29049,1,0,0:0:0:0:
448,192,29235,1,0,0:0:0:0:
320,192,29235,1,0,0:0:0:0:
192,192,29329,1,0,0:0:0:0:
64,192,29422,1,0,0:0:0:0:
448,192,29422,1,0,0:0:0:0:
192,192,29515,1,0,0:0:0:0:
64,192,29608,1,0,0:0:0:0:
320,192,29608,1,0,0:0:0:0:
448,192,29794,1,0,0:0:0:0:
320,192,29794,1,0,0:0:0:0:
64,192,29981,1,0,0:0:0:0:
192,192,29981,1,0,0:0:0:0:
64,192,30167,1,0,0:0:0:0:
448,192,30167,1,0,0:0:0:0:
320,192,30353,1,0,0:0:0:0:
448,192,30353,1,0,0:0:0:0:
192,192,30540,1,0,0:0:0:0:
64,192,30540,1,0,0:0:0:0:
64,192,30726,1,0,0:0:0:0:
448,192,30726,1,0,0:0:0:0:
192,192,30819,1,0,0:0:0:0:
448,192,30913,1,0,0:0:0:0:
320,192,30913,1,0,0:0:0:0:
192,192,31006,1,0,0:0:0:0:
64,192,31099,1,0,0:0:0:0:
320,192,31099,1,0,0:0:0:0:
448,192,31285,1,0,0:0:0:0:
64,192,31285,1,0,0:0:0:0:
192,192,31472,1,0,0:0:0:0:
320,192,31472,1,0,0:0:0:0:
64,192,31658,1,0,0:0:0:0:
448,192,31658,1,0,0:0:0:0:
192,192,31844,1,0,0:0:0:0:
64,192,31844,1,0,0:0:0:0:
320,192,32031,1,0,0:0:0:0:
448,192,32031,1,0,0:0:0:0:
448,192,32217,1,0,0:0:0:0:
320,192,32217,1,0,0:0:0:0:
192,192,32310,1,0,0:0:0:0:
448,192,32403,1,0,0:0:0:0:
64,192,32403,1,0,0:0:0:0:
192,192,32496,1,0,0:0:0:0:
320,192,32590,1,0,0:0:0:0:
64,192,32590,1,0,0:0:0:0:
448,192,32776,1,0,0:0:0:0:
64,192,32776,1,0,0:0:0:0:
320,192,32962,1,0,0:0:0:0:
448,192,32962,1,0,0:0:0:0:
192,192,33149,1,0,0:0:0:0:
64,192,33149,1,0,0:0:0:0:
320,192,33335,1,0,0:0:0:0:
192,192,33335,1,0,0:0:0:0:
448,192,33521,1,0,0:0:0:0:
64,192,33521,1,0,0:0:0:0:
320,192,33708,1,0,0:0:0:0:
448,192,33708,1,0,0:0:0:0:
192,192,33801,1,0,0:0:0:0:
64,192,33894,1,0,0:0:0:0:
448,192,33894,1,0,0:0:0:0:
320,192,33987,1,0,0:0:0:0:
64,192,34080,128,0,34639:0:0:0:0:
192,192,34080,1,0,0:0:0:0:
448,192,34080,1,0,0:0:0:0:
320,192,34267,1,0,0:0:0:0:
448,192,34267,1,0,0:0:0:0:
448,192,34453,1,0,0:0:0:0:
192,192,34639,1,0,0:0:0:0:
320,192,34639,1,0,0:0:0:0:
448,192,34826,1,0,0:0:0:0:
64,192,35012,1,0,0:0:0:0:
192,192,35012,1,0,0:0:0:0:
320,192,35198,1,0,0:0:0:0:
448,192,35198,1,0,0:0:0:0:
64,192,35385,1,0,0:0:0:0:
448,192,35385,1,0,0:0:0:0:
192,192,35478,1,0,0:0:0:0:
320,192,35478,1,0,0:0:0:0:
448,192,35571,1,0,0:0:0:0:
64,192,35571,1,0,0:0:0:0:
320,192,35664,1,0,0:0:0:0:
192,192,35664,1,0,0:0:0:0:
64,192,35757,1,0,0:0:0:0:
448,192,35757,1,0,0:0:0:0:
320,192,35850,1,0,0:0:0:0:
64,192,35944,1,0,0:0:0:0:
448,192,35944,1,0,0:0:0:0:
192,192,35944,1,0,0:0:0:0:
64,192,36316,1,0,0:0:0:0:
320,192,36316,1,0,0:0:0:0:
448,192,36316,1,0,0:0:0:0:
64,192,36503,1,0,0:0:0:0:
320,192,36503,1,0,0:0:0:0:
448,192,36503,1,0,0:0:0:0:
192,192,36875,1,0,0:0:0:0:
320,192,36875,1,0,0:0:0:0:
448,192,36875,1,0,0:0:0:0:
320,192,37062,1,0,0:0:0:0:
192,192,37062,1,0,0:0:0:0:
64,192,37062,1,0,0:0:0:0:
448,192,37434,1,0,0:0:0:0:
64,192,37434,1,0,0:0:0:0:
192,192,37434,128,0,38925:0:0:0:0:
448,192,37993,1,0,0:0:0:0:
64,192,38180,1,0,0:0:0:0:
320,192,38366,1,0,0:0:0:0:
448,192,38366,1,0,0:0:0:0:
64,192,38552,1,0,0:0:0:0:
64,192,38925,128,0,40602:0:0:0:0:
320,192,38925,1,0,0:0:0:0:
448,192,39298,1,0,0:0:0:0:
320,192,39484,1,0,0:0:0:0:
192,192,39670,1,0,0:0:0:0:
320,192,39857,1,0,0:0:0:0:
448,192,39857,1,0,0:0:0:0:
448,192,40229,1,0,0:0:0:0:
192,192,40229,1,0,0:0:0:0:
192,192,40602,1,0,0:0:0:0:
320,192,40602,1,0,0:0:0:0:
448,192,40602,128,0,41906:0:0:0:0:
320,192,40975,1,0,0:0:0:0:
192,192,41161,1,0,0:0:0:0:
320,192,41347,1,0,0:0:0:0:
64,192,41347,1,0,0:0:0:0:
320,192,41534,1,0,0:0:0:0:
64,192,41534,1,0,0:0:0:0:
64,192,41720,1,0,0:0:0:0:
192,192,41720,1,0,0:0:0:0:
320,192,41906,1,0,0:0:0:0:
64,192,41906,128,0,43397:0:0:0:0:
192,192,42279,1,0,0:0:0:0:
320,192,42279,1,0,0:0:0:0:
448,192,42465,1,0,0:0:0:0:
320,192,42652,1,0,0:0:0:0:
192,192,42838,1,0,0:0:0:0:
448,192,42838,1,0,0:0:0:0:
320,192,43024,1,0,0:0:0:0:
448,192,43024,1,0,0:0:0:0:
192,192,43211,1,0,0:0:0:0:
320,192,43211,1,0,0:0:0:0:
448,192,43397,1,0,0:0:0:0:
320,192,43397,1,0,0:0:0:0:
192,192,43397,1,0,0:0:0:0:
192,192,43770,1,0,0:0:0:0:
320,192,43770,1,0,0:0:0:0:
64,192,43956,1,0,0:0:0:0:
448,192,43956,1,0,0:0:0:0:
320,192,44142,1,0,0:0:0:0:
64,192,44329,1,0,0:0:0:0:
192,192,44329,1,0,0:0:0:0:
64,192,44515,1,0,0:0:0:0:
448,192,44515,1,0,0:0:0:0:
192,192,44701,1,0,0:0:0:0:
320,192,44701,1,0,0:0:0:0:
320,192,44888,1,0,0:0:0:0:
448,192,44888,1,0,0:0:0:0:
192,192,45074,1,0,0:0:0:0:
64,192,45260,1,0,0:0:0:0:
448,192,45260,1,0,0:0:0:0:
320,192,45447,1,0,0:0:0:0:
192,192,45447,1,0,0:0:0:0:
192,192,45633,1,0,0:0:0:0:
448,192,45633,1,0,0:0:0:0:
320,192,45726,1,0,0:0:0:0:
448,192,45819,1,0,0:0:0:0:
64,192,45819,1,0,0:0:0:0:
192,192,45913,1,0,0:0:0:0:
320,192,46006,1,0,0:0:0:0:
64,192,46006,1,0,0:0:0:0:
192,192,46192,1,0,0:0:0:0:
448,192,46192,1,0,0:0:0:0:
192,192,46378,1,0,0:0:0:0:
448,192,46378,1,0,0:0:0:0:
320,192,46565,1,0,0:0:0:0:
64,192,46565,1,0,0:0:0:0:
192,192,46751,1,0,0:0:0:0:
448,192,46751,1,0,0:0:0:0:
320,192,46937,1,0,0:0:0:0:
64,192,46937,1,0,0:0:0:0:
448,192,47124,1,0,0:0:0:0:
192,192,47310,1,0,0:0:0:0:
320,192,47310,1,0,0:0:0:0:
192,192,47496,1,0,0:0:0:0:
320,192,47496,1,0,0:0:0:0:
64,192,47683,1,0,0:0:0:0:
448,192,47683,1,0,0:0:0:0:
192,192,47869,1,0,0:0:0:0:
64,192,47869,1,0,0:0:0:0:
64,192,48055,1,0,0:0:0:0:
448,192,48055,1,0,0:0:0:0:
320,192,48055,1,0,0:0:0:0:
64,192,48242,1,0,0:0:0:0:
320,192,48242,1,0,0:0:0:0:
448,192,48242,1,0,0:0:0:0:
64,192,48428,1,0,0:0:0:0:
320,192,48428,1,0,0:0:0:0:
448,192,48428,1,0,0:0:0:0:
192,192,48614,1,0,0:0:0:0:
64,192,48801,1,0,0:0:0:0:
320,192,48801,1,0,0:0:0:0:
448,192,48801,1,0,0:0:0:0:
192,192,48987,128,0,49080:0:0:0:0:
448,192,48987,128,0,49080:0:0:0:0:
320,192,49360,128,0,50850:0:0:0:0:
448,192,49360,1,0,0:0:0:0:
64,192,49360,1,0,0:0:0:0:
64,192,49919,1,0,0:0:0:0:
448,192,50105,1,0,0:0:0:0:
64,192,50291,1,0,0:0:0:0:
192,192,50291,1,0,0:0:0:0:
448,192,50478,1,0,0:0:0:0:
192,192,50850,1,0,0:0:0:0:
448,192,50850,128,0,52527:0:0:0:0:
64,192,51223,1,0,0:0:0:0:
192,192,51409,1,0,0:0:0:0:
320,192,51596,1,0,0:0:0:0:
64,192,51782,1,0,0:0:0:0:
192,192,51782,1,0,0:0:0:0:
320,192,52155,1,0,0:0:0:0:
64,192,52155,1,0,0:0:0:0:
64,192,52527,128,0,53832:0:0:0:0:
192,192,52527,1,0,0:0:0:0:
320,192,52527,1,0,0:0:0:0:
192,192,52900,1,0,0:0:0:0:
320,192,53086,1,0,0:0:0:0:
448,192,53273,1,0,0:0:0:0:
192,192,53273,1,0,0:0:0:0:
448,192,53459,1,0,0:0:0:0:
192,192,53459,1,0,0:0:0:0:
320,192,53645,1,0,0:0:0:0:
192,192,53832,1,0,0:0:0:0:
448,192,53832,1,0,0:0:0:0:
64,192,54018,1,0,0:0:0:0:
320,192,54018,1,0,0:0:0:0:
192,192,54204,1,0,0:0:0:0:
320,192,54204,1,0,0:0:0:0:
64,192,54391,1,0,0:0:0:0:
448,192,54391,1,0,0:0:0:0:
448,192,54577,1,0,0:0:0:0:
320,192,54577,1,0,0:0:0:0:
64,192,54763,1,0,0:0:0:0:
192,192,54763,1,0,0:0:0:0:
320,192,54857,1,0,0:0:0:0:
448,192,54950,1,0,0:0:0:0:
64,192,54950,1,0,0:0:0:0:
192,192,55043,1,0,0:0:0:0:
320,192,55136,1,0,0:0:0:0:
448,192,55136,1,0,0:0:0:0:
192,192,55229,1,0,0:0:0:0:
448,192,55322,1,0,0:0:0:0:
64,192,55322,1,0,0:0:0:0:
320,192,55322,1,0,0:0:0:0:
320,192,55695,1,0,0:0:0:0:
192,192,55695,1,0,0:0:0:0:
448,192,55881,1,0,0:0:0:0:
64,192,55881,1,0,0:0:0:0:
192,192,56068,1,0,0:0:0:0:
448,192,56254,1,0,0:0:0:0:
320,192,56254,1,0,0:0:0:0:
448,192,56440,1,0,0:0:0:0:
64,192,56440,1,0,0:0:0:0:
320,192,56627,1,0,0:0:0:0:
192,192,56627,1,0,0:0:0:0:
192,192,56813,1,0,0:0:0:0:
64,192,56813,1,0,0:0:0:0:
320,192,56999,1,0,0:0:0:0:
448,192,57186,1,0,0:0:0:0:
64,192,57186,1,0,0:0:0:0:
192,192,57372,1,0,0:0:0:0:
320,192,57372,1,0,0:0:0:0:
448,192,57558,1,0,0:0:0:0:
320,192,57558,1,0,0:0:0:0:
192,192,57652,1,0,0:0:0:0:
64,192,57745,1,0,0:0:0:0:
448,192,57745,1,0,0:0:0:0:
320,192,57838,1,0,0:0:0:0:
192,192,57931,1,0,0:0:0:0:
448,192,57931,1,0,0:0:0:0:
64,192,58117,1,0,0:0:0:0:
448,192,58117,1,0,0:0:0:0:
192,192,58304,1,0,0:0:0:0:
448,192,58304,1,0,0:0:0:0:
320,192,58304,1,0,0:0:0:0:
320,192,58676,1,0,0:0:0:0:
448,192,58676,1,0,0:0:0:0:
192,192,58863,1,0,0:0:0:0:
64,192,58863,1,0,0:0:0:0:
64,192,59049,1,0,0:0:0:0:
448,192,59049,1,0,0:0:0:0:
320,192,59049,1,0,0:0:0:0:
192,192,59422,1,0,0:0:0:0:
320,192,59422,1,0,0:0:0:0:
448,192,59608,1,0,0:0:0:0:
64,192,59608,1,0,0:0:0:0:
64,192,59794,1,0,0:0:0:0:
320,192,59794,1,0,0:0:0:0:
192,192,59794,1,0,0:0:0:0:
64,192,60167,1,0,0:0:0:0:
192,192,60167,1,0,0:0:0:0:
320,192,60353,1,0,0:0:0:0:
448,192,60353,1,0,0:0:0:0:
64,192,60540,1,0,0:0:0:0:
448,192,60540,1,0,0:0:0:0:
192,192,60540,1,0,0:0:0:0:
64,192,60913,1,0,0:0:0:0:
448,192,60913,1,0,0:0:0:0:
64,192,61099,1,0,0:0:0:0:
192,192,61099,1,0,0:0:0:0:
320,192,61192,1,0,0:0:0:0:
448,192,61285,1,0,0:0:0:0:
320,192,61378,1,0,0:0:0:0:
192,192,61472,1,0,0:0:0:0:
64,192,61472,128,0,62217:0:0:0:0:
448,192,61472,1,0,0:0:0:0:
320,192,61844,1,0,0:0:0:0:
448,192,62217,1,0,0:0:0:0:
320,192,62310,1,0,0:0:0:0:
192,192,62403,1,0,0:0:0:0:
64,192,62496,1,0,0:0:0:0:
448,192,62590,1,0,0:0:0:0:
320,192,62590,1,0,0:0:0:0:
192,192,62683,1,0,0:0:0:0:
64,192,62683,1,0,0:0:0:0:
320,192,62776,1,0,0:0:0:0:
448,192,62776,1,0,0:0:0:0:
192,192,62869,1,0,0:0:0:0:
64,192,62962,1,0,0:0:0:0:
320,192,62962,1,0,0:0:0:0:
448,192,62962,128,0,63521:0:0:0:0:
192,192,63149,1,0,0:0:0:0:
320,192,63335,1,0,0:0:0:0:
192,192,63521,1,0,0:0:0:0:
64,192,63521,128,0,63708:0:0:0:0:
192,192,63894,1,0,0:0:0:0:
320,192,63894,128,0,64080:0:0:0:0:
64,192,64080,1,0,0:0:0:0:
320,192,64267,1,0,0:0:0:0:
448,192,64267,1,0,0:0:0:0:
192,192,64267,1,0,0:0:0:0:
64,192,64453,1,0,0:0:0:0:
192,192,64639,1,0,0:0:0:0:
448,192,64639,1,0,0:0:0:0:
320,192,64826,1,0,0:0:0:0:
64,192,64826,1,0,0:0:0:0:
320,192,65012,1,0,0:0:0:0:
448,192,65012,1,0,0:0:0:0:
192,192,65198,1,0,0:0:0:0:
64,192,65198,1,0,0:0:0:0:
192,192,65385,1,0,0:0:0:0:
320,192,65385,1,0,0:0:0:0:
64,192,65571,1,0,0:0:0:0:
448,192,65571,1,0,0:0:0:0:
64,192,65757,1,0,0:0:0:0:
192,192,65757,1,0,0:0:0:0:
320,192,65757,1,0,0:0:0:0:
192,192,66130,1,0,0:0:0:0:
320,192,66130,1,0,0:0:0:0:
448,192,66316,1,0,0:0:0:0:
64,192,66316,1,0,0:0:0:0:
320,192,66503,1,0,0:0:0:0:
448,192,66503,1,0,0:0:0:0:
192,192,66503,1,0,0:0:0:0:
64,192,66689,1,0,0:0:0:0:
320,192,66875,1,0,0:0:0:0:
448,192,66875,1,0,0:0:0:0:
64,192,67062,1,0,0:0:0:0:
192,192,67062,1,0,0:0:0:0:
64,192,67248,1,0,0:0:0:0:
448,192,67248,1,0,0:0:0:0:
320,192,67248,1,0,0:0:0:0:
448,192,67621,1,0,0:0:0:0:
64,192,67621,1,0,0:0:0:0:
192,192,67807,1,0,0:0:0:0:
64,192,67807,1,0,0:0:0:0:
448,192,67993,1,0,0:0:0:0:
320,192,67993,1,0,0:0:0:0:
64,192,68180,1,0,0:0:0:0:
192,192,68180,1,0,0:0:0:0:
64,192,68366,1,0,0:0:0:0:
192,192,68366,1,0,0:0:0:0:
64,192,68552,1,0,0:0:0:0:
320,192,68552,1,0,0:0:0:0:
448,192,68552,1,0,0:0:0:0:
192,192,68739,1,0,0:0:0:0:
448,192,68739,1,0,0:0:0:0:
320,192,68832,1,0,0:0:0:0:
64,192,68925,1,0,0:0:0:0:
448,192,68925,1,0,0:0:0:0:
192,192,68925,1,0,0:0:0:0:
320,192,69111,1,0,0:0:0:0:
448,192,69111,1,0,0:0:0:0:
192,192,69298,1,0,0:0:0:0:
64,192,69484,1,0,0:0:0:0:
320,192,69484,1,0,0:0:0:0:
448,192,69484,1,0,0:0:0:0:
64,192,69857,1,0,0:0:0:0:
448,192,69857,1,0,0:0:0:0:
320,192,69857,1,0,0:0:0:0:
192,192,70043,1,0,0:0:0:0:
64,192,70229,1,0,0:0:0:0:
320,192,70229,1,0,0:0:0:0:
448,192,70229,1,0,0:0:0:0:
192,192,70322,1,0,0:0:0:0:
320,192,70416,1,0,0:0:0:0:
448,192,70509,1,0,0:0:0:0:
64,192,70602,1,0,0:0:0:0:
192,192,70602,1,0,0:0:0:0:
320,192,70695,1,0,0:0:0:0:
64,192,70788,1,0,0:0:0:0:
448,192,70788,1,0,0:0:0:0:
448,192,70975,1,0,0:0:0:0:
320,192,71161,1,0,0:0:0:0:
192,192,71161,1,0,0:0:0:0:
320,192,71347,1,0,0:0:0:0:
192,192,71347,1,0,0:0:0:0:
64,192,71534,1,0,0:0:0:0:
448,192,71534,1,0,0:0:0:0:
320,192,71720,1,0,0:0:0:0:
448,192,71720,1,0,0:0:0:0:
192,192,71720,1,0,0:0:0:0:
192,192,72093,1,0,0:0:0:0:
448,192,72093,1,0,0:0:0:0:
320,192,72279,1,0,0:0:0:0:
64,192,72279,1,0,0:0:0:0:
192,192,72465,1,0,0:0:0:0:
448,192,72465,1,0,0:0:0:0:
64,192,72465,1,0,0:0:0:0:
320,192,72652,1,0,0:0:0:0:
64,192,72838,1,0,0:0:0:0:
192,192,72838,1,0,0:0:0:0:
320,192,73024,1,0,0:0:0:0:
448,192,73024,1,0,0:0:0:0:
64,192,73211,1,0,0:0:0:0:
192,192,73211,1,0,0:0:0:0:
448,192,73211,1,0,0:0:0:0:
192,192,73583,1,0,0:0:0:0:
448,192,73583,1,0,0:0:0:0:
320,192,73770,1,0,0:0:0:0:
64,192,73770,1,0,0:0:0:0:
192,192,73956,1,0,0:0:0:0:
448,192,74142,1,0,0:0:0:0:
320,192,74142,1,0,0:0:0:0:
64,192,74329,1,0,0:0:0:0:
192,192,74329,1,0,0:0:0:0:
448,192,74515,1,0,0:0:0:0:
64,192,74515,1,0,0:0:0:0:
192,192,74608,1,0,0:0:0:0:
64,192,74701,1,0,0:0:0:0:
320,192,74701,1,0,0:0:0:0:
448,192,74794,1,0,0:0:0:0:
64,192,74888,1,0,0:0:0:0:
320,192,74888,1,0,0:0:0:0:
192,192,74888,128,0,75447:0:0:0:0:
320,192,75074,1,0,0:0:0:0:
448,192,75074,1,0,0:0:0:0:
64,192,75447,1,0,0:0:0:0:
320,192,75447,1,0,0:0:0:0:
448,192,75447,1,0,0:0:0:0:
64,192,75819,1,0,0:0:0:0:
192,192,75819,1,0,0:0:0:0:
448,192,75819,1,0,0:0:0:0:
64,192,76192,1,0,0:0:0:0:
448,192,76192,1,0,0:0:0:0:
320,192,76192,1,0,0:0:0:0:
192,192,76285,1,0,0:0:0:0:
448,192,76378,1,0,0:0:0:0:
320,192,76472,1,0,0:0:0:0:
64,192,76565,1,0,0:0:0:0:
192,192,76565,1,0,0:0:0:0:
320,192,76658,1,0,0:0:0:0:
64,192,76751,1,0,0:0:0:0:
448,192,76751,1,0,0:0:0:0:
448,192,76937,1,0,0:0:0:0:
192,192,77124,1,0,0:0:0:0:
320,192,77124,1,0,0:0:0:0:
64,192,77310,1,0,0:0:0:0:
448,192,77310,1,0,0:0:0:0:
64,192,77496,1,0,0:0:0:0:
192,192,77496,1,0,0:0:0:0:
64,192,77683,1,0,0:0:0:0:
320,192,77683,1,0,0:0:0:0:
448,192,77683,1,0,0:0:0:0:
64,192,78055,1,0,0:0:0:0:
192,192,78055,1,0,0:0:0:0:
320,192,78242,1,0,0:0:0:0:
448,192,78242,1,0,0:0:0:0:
448,192,78428,1,0,0:0:0:0:
192,192,78428,1,0,0:0:0:0:
64,192,78428,1,0,0:0:0:0:
320,192,78614,1,0,0:0:0:0:
64,192,78801,1,0,0:0:0:0:
192,192,78801,1,0,0:0:0:0:
320,192,78987,1,0,0:0:0:0:
448,192,78987,1,0,0:0:0:0:
192,192,79173,1,0,0:0:0:0:
64,192,79173,1,0,0:0:0:0:
448,192,79173,1,0,0:0:0:0:
448,192,79546,1,0,0:0:0:0:
64,192,79546,1,0,0:0:0:0:
192,192,79732,1,0,0:0:0:0:
320,192,79732,1,0,0:0:0:0:
64,192,79919,1,0,0:0:0:0:
320,192,79919,1,0,0:0:0:0:
448,192,79919,1,0,0:0:0:0:
192,192,80105,1,0,0:0:0:0:
320,192,80105,1,0,0:0:0:0:
320,192,80291,1,0,0:0:0:0:
192,192,80291,1,0,0:0:0:0:
64,192,80478,1,0,0:0:0:0:
448,192,80478,1,0,0:0:0:0:
192,192,80664,1,0,0:0:0:0:
448,192,80664,1,0,0:0:0:0:
320,192,80757,1,0,0:0:0:0:
64,192,80850,1,0,0:0:0:0:
192,192,80850,1,0,0:0:0:0:
448,192,80850,1,0,0:0:0:0:
320,192,81037,1,0,0:0:0:0:
448,192,81037,1,0,0:0:0:0:
192,192,81223,1,0,0:0:0:0:
64,192,81223,1,0,0:0:0:0:
192,192,81409,1,0,0:0:0:0:
320,192,81409,1,0,0:0:0:0:
448,192,81409,1,0,0:0:0:0:
64,192,81782,1,0,0:0:0:0:
192,192,81782,1,0,0:0:0:0:
320,192,81782,1,0,0:0:0:0:
448,192,81968,1,0,0:0:0:0:
64,192,82155,1,0,0:0:0:0:
320,192,82155,1,0,0:0:0:0:
448,192,82155,1,0,0:0:0:0:
192,192,82248,1,0,0:0:0:0:
64,192,82341,1,0,0:0:0:0:
448,192,82434,1,0,0:0:0:0:
64,192,82527,1,0,0:0:0:0:
320,192,82527,1,0,0:0:0:0:
192,192,82621,1,0,0:0:0:0:
320,192,82714,1,0,0:0:0:0:
448,192,82714,1,0,0:0:0:0:
448,192,82900,1,0,0:0:0:0:
64,192,83086,1,0,0:0:0:0:
320,192,83086,1,0,0:0:0:0:
192,192,83273,1,0,0:0:0:0:
448,192,83273,1,0,0:0:0:0:
320,192,83459,1,0,0:0:0:0:
64,192,83459,1,0,0:0:0:0:
192,192,83645,1,0,0:0:0:0:
448,192,83645,1,0,0:0:0:0:
64,192,83645,1,0,0:0:0:0:
320,192,84018,1,0,0:0:0:0:
448,192,84018,1,0,0:0:0:0:
192,192,84204,1,0,0:0:0:0:
64,192,84204,1,0,0:0:0:0:
64,192,84391,1,0,0:0:0:0:
320,192,84391,1,0,0:0:0:0:
448,192,84391,1,0,0:0:0:0:
192,192,84577,1,0,0:0:0:0:
64,192,84763,1,0,0:0:0:0:
448,192,84763,1,0,0:0:0:0:
320,192,84950,1,0,0:0:0:0:
192,192,84950,1,0,0:0:0:0:
64,192,85136,1,0,0:0:0:0:
448,192,85136,1,0,0:0:0:0:
192,192,85136,1,0,0:0:0:0:
64,192,85509,1,0,0:0:0:0:
448,192,85509,1,0,0:0:0:0:
320,192,85695,5,0,0:0:0:0:
192,192,85695,1,0,0:0:0:0:
192,192,85881,1,0,0:0:0:0:
64,192,85881,1,0,0:0:0:0:
320,192,86068,5,0,0:0:0:0:
448,192,86068,1,0,0:0:0:0:
320,192,86254,1,0,0:0:0:0:
448,192,86254,1,0,0:0:0:0:
320,192,86440,1,0,0:0:0:0:
448,192,86440,1,0,0:0:0:0:
192,192,86534,1,0,0:0:0:0:
64,192,86627,1,0,0:0:0:0:
448,192,86627,1,0,0:0:0:0:
320,192,86720,1,0,0:0:0:0:
192,192,86813,5,0,0:0:0:0:
64,192,86813,1,0,0:0:0:0:
448,192,86813,1,0,0:0:0:0:
64,192,86999,5,0,0:0:0:0:
320,192,86999,1,0,0:0:0:0:
448,192,86999,1,0,0:0:0:0:
64,192,87186,1,0,0:0:0:0:
320,192,87372,1,0,0:0:0:0:
448,192,87372,1,0,0:0:0:0:
192,192,87372,1,0,0:0:0:0:
64,192,87745,1,0,0:0:0:0:
192,192,87745,1,0,0:0:0:0:
320,192,87745,1,0,0:0:0:0:
64,192,88117,128,0,89794:0:0:0:0:
320,192,88117,1,0,0:0:0:0:
448,192,88117,1,0,0:0:0:0:
192,192,88490,1,0,0:0:0:0:
320,192,88676,1,0,0:0:0:0:
448,192,88863,1,0,0:0:0:0:
192,192,89049,1,0,0:0:0:0:
320,192,89235,1,0,0:0:0:0:
448,192,89422,1,0,0:0:0:0:
320,192,89608,1,0,0:0:0:0:
