osu file format v14

[General]
AudioFilename: audio.mp3
AudioLeadIn: 0
PreviewTime: 60455
Countdown: 0
SampleSet: Soft
StackLeniency: 0.4
Mode: 0
LetterboxInBreaks: 0
WidescreenStoryboard: 0

[Editor]
Bookmarks: 18723,24756,30622,40511
DistanceSpacing: 2.3
BeatDivisor: 4
GridSize: 4
TimelineZoom: 1.600001

[Metadata]
Title:Fatima
TitleUnicode:Fatima
Artist:Itou Kanako
ArtistUnicode:Itou Kanako
Creator:Ghosty52
Version:Amadeus
Source:Stein's Gate: 0
Tags:Stein's Gate 0, Zero, anime, japanese, opening, op
BeatmapID:1618794
BeatmapSetID:769914

[Difficulty]
HPDrainRate:7
CircleSize:4
OverallDifficulty:7
ApproachRate:9
SliderMultiplier:1.7
SliderTickRate:1

[Events]
//Background and Video events
0,0,"16813.jpg",0,0
//Break Periods
//Storyboard Layer 0 (Background)
//Storyboard Layer 1 (Fail)
//Storyboard Layer 2 (Pass)
//Storyboard Layer 3 (Foreground)
//Storyboard Sound Samples

[TimingPoints]
120,335.195530726257,4,2,1,50,1,0
120,-133.333333333333,4,2,1,50,0,0
2801,-111.111111111111,4,2,1,60,0,0
3471,-90.9090909090909,4,2,1,70,0,0
4812,-50,4,2,1,80,0,0
5315,-100,4,2,1,80,0,0
14868,-50,4,2,1,80,0,0
14952,-100,4,2,1,80,0,0
26935,-100,4,2,1,80,0,0
56265,-66.6666666666667,4,2,1,80,0,0
59114,-200,4,2,1,80,0,0
60287,-100,4,2,1,80,0,0
60455,-200,4,2,1,40,0,0
61628,-100,4,2,1,80,0,1
69840,-100,4,2,1,80,0,0
72354,-100,4,2,1,80,0,1
83248,-100,4,2,1,80,0,0
84924,-133.333333333333,4,2,1,80,0,0

[Colours]
Combo1 : 255,0,0
Combo2 : 0,255,0

[HitObjects]
116,212,120,6,0,L|98:125,1,63.7500024318696,8|0,0:0|0:0,0:0:0:0:
216,152,455,2,0,L|198:239,1,63.7500024318696,8|0,0:0|0:0,0:0:0:0:
312,216,790,2,0,L|299:153,1,63.7500024318696,8|0,0:0|0:0,0:0:0:0:
412,152,1125,2,0,L|399:214,1,63.7500024318696,8|0,0:0|0:0,0:0:0:0:
299,153,1460,6,0,L|286:90,1,63.7500024318696,8|0,0:0|0:0,0:0:0:0:
203,214,1795,2,0,L|190:276,1,63.7500024318696,8|0,0:0|0:0,0:0:0:0:
103,149,2131,2,0,L|90:86,1,63.7500024318696,8|0,0:0|0:0,0:0:0:0:
203,214,2466,2,0,L|215:276,1,63.7500024318696,8|0,0:0|0:0,0:0:0:0:
103,149,2801,6,0,P|48:176|-3:175,1,76.4999976654053,8|0,0:0|0:0,0:0:0:0:
215,276,3136,2,0,P|251:287|290:286,1,76.4999976654053,8|0,0:0|0:0,0:0:0:0:
363,200,3471,2,0,P|318:187|271:188,1,93.5000028533936,8|0,0:0|0:0,0:0:0:0:
103,149,3807,2,0,P|144:157|215:143,1,93.5000028533936,8|0,0:0|0:0,0:0:0:0:
296,64,4142,5,8,0:0:0:0:
266,260,4309,1,8,0:0:0:0:
103,149,4477,5,8,0:0:0:0:
359,213,4645,1,8,0:0:0:0:
18,149,4812,6,4,L|103:149,1,85,4|4,0:3|0:3,0:3:0:0:
444,213,4980,2,4,L|359:213,1,85,4|4,0:3|0:3,0:3:0:0:
164,228,5315,5,8,0:0:0:0:
168,200,5399,1,8,0:0:0:0:
180,172,5483,2,0,P|225:133|337:139,1,170,8|0,0:0|0:0,0:0:0:0:
359,241,5985,2,0,P|305:237|265:210,1,85
99,153,6321,2,0,P|141:154|180:172,1,85
278,222,6656,6,0,P|251:255|215:276,1,85,8|0,0:0|0:0,0:0:0:0:
180,172,6991,2,0,P|174:118|196:76,1,85,0|0,0:3|0:3,0:3:0:0:
285,139,7326,2,0,P|285:203|265:243,2,85
180,172,7829,1,0,0:0:0:0:
350,261,8164,6,0,B|413:257|413:257|452:228,1,85,8|0,0:0|0:0,0:0:0:0:
477,150,8499,1,0,0:0:0:0:
365,158,8667,2,0,L|273:165,1,85
78,151,9002,2,0,L|162:144,1,85
237,62,9337,6,0,P|169:38|136:41,1,85,8|0,0:0|0:0,0:0:0:0:
162,144,9673,2,0,P|143:181|138:223,1,85
227,294,10008,2,0,P|245:256|250:214,1,85
308,112,10343,2,0,P|367:163|452:144,1,170
409,1,10846,6,0,L|390:90,1,85,8|0,0:0|0:0,0:0:0:0:
428,184,11181,1,0,0:0:0:0:
428,184,11349,2,0,L|332:181,1,85
247,274,11684,2,0,L|331:272,1,85
164,234,12019,6,0,P|156:282|172:338,1,85,8|0,0:0|0:0,0:0:0:0:
247,274,12354,2,0,P|275:313|326:341,1,85
373,168,12689,2,0,P|349:132|280:116,2,85
247,274,13192,2,0,P|272:216|312:188,1,85
440,200,13527,5,8,0:0:0:0:
248,292,13695,1,8,0:0:0:0:
440,208,13863,5,8,0:0:0:0:
228,144,14030,1,8,0:0:0:0:
448,116,14198,5,8,0:0:0:0:
253,217,14365,1,8,0:0:0:0:
360,24,14533,5,8,0:0:0:0:
396,260,14701,1,8,0:0:0:0:
224,59,14868,6,4,L|228:171,1,85,4|4,0:3|0:3,0:3:0:0:
227,143,15371,1,4,0:3:0:0:
272,88,16209,5,0,0:0:0:0:
248,256,16376,1,0,0:0:0:0:
132,128,16544,1,0,0:0:0:0:
151,293,16712,2,0,P|187:339|299:349,1,170
248,256,17214,6,0,L|220:139,1,85
214,44,17550,1,0,0:0:0:0:
146,156,17717,2,0,P|180:169|259:166,1,85,0|0,0:0|0:0,0:0:0:0:
389,180,18052,2,0,P|355:167|276:170,1,85,0|0,0:0|0:0,0:0:0:0:
228,172,18388,1,0,0:0:0:0:
256,297,18555,1,0,0:0:0:0:
140,300,18723,6,0,P|79:218|75:148,1,170
156,156,19226,2,0,P|158:204|200:240,1,85
283,184,19561,1,0,0:0:0:0:
256,297,19728,1,0,0:0:0:0:
366,277,19896,1,0,0:0:0:0:
406,137,20064,6,0,P|425:195|359:279,1,170,0|0,0:0|0:0,0:0:0:0:
256,297,20566,1,0,0:0:0:0:
183,109,20734,1,0,0:0:0:0:
306,188,20902,1,0,0:0:0:0:
108,204,21069,1,0,0:0:0:0:
306,188,21237,6,0,B|344:157|390:164|390:164|367:124|312:112,1,170,0|0,0:0|0:0,0:0:0:0:
183,109,21740,1,0,0:0:0:0:
180,220,21907,1,0,0:0:0:0:
52,256,22075,2,0,P|112:336|184:352,1,170,0|0,0:0|0:0,0:0:0:0:
326,263,22578,6,0,P|263:238|219:251,1,85,0|0,0:0|0:0,0:0:0:0:
322,164,22913,1,0,0:0:0:0:
403,227,23080,2,0,P|466:252|510:239,1,85
464,162,23416,1,0,0:0:0:0:
415,334,23751,1,0,0:0:0:0:
280,236,24086,5,0,0:0:0:0:
234,61,24254,1,0,0:0:0:0:
322,164,24421,5,0,0:0:0:0:
155,96,24589,1,0,0:0:0:0:
196,240,24756,6,0,P|84:232|24:176,1,170
100,148,25259,2,0,P|136:168|208:152,1,85
350,88,25594,6,4,L|462:100,1,85,4|4,0:3|0:3,0:3:0:0:
364,184,25930,2,4,L|252:196,1,85,4|4,0:3|0:3,0:3:0:0:
60,228,26265,2,4,L|172:240,1,85,4|4,0:3|0:3,0:3:0:0:
360,300,26600,2,4,L|248:312,1,85,4|4,0:3|0:3,0:3:0:0:
160,144,26935,5,4,2:3:0:0:
66,301,27103,1,4,2:3:0:0:
69,305,27438,2,0,P|146:321|220:244,1,170,4|0,2:3|2:3,2:3:0:0:
268,108,27941,2,4,L|292:8,2,85,4|4|4,2:3|2:3|2:3,2:3:0:0:
212,240,28611,1,0,2:3:0:0:
148,128,28779,2,4,P|76:188|80:276,1,170,4|4,2:3|2:3,2:3:0:0:
168,284,29449,5,4,2:3:0:0:
189,263,29533,1,4,2:3:0:0:
212,243,29617,1,4,2:3:0:0:
340,124,29784,1,4,2:3:0:0:
344,120,30120,6,0,B|380:88|380:88|248:64,1,170,4|0,2:3|2:3,2:3:0:0:
108,36,30622,1,4,2:3:0:0:
124,188,30790,1,4,2:3:0:0:
36,108,30957,1,4,2:3:0:0:
187,136,31293,5,4,2:3:0:0:
239,203,31460,2,0,P|268:160|268:108,1,85,0|4,2:3|2:3,2:3:0:0:
216,40,31795,1,0,2:3:0:0:
187,136,32131,6,4,L|243:208,1,85,4|4,2:3|2:3,2:3:0:0:
352,340,32466,1,4,2:3:0:0:
356,344,32801,2,0,B|308:280|308:280|370:232|332:168,1,170,4|0,2:3|2:3,2:3:0:0:
292,116,33304,6,0,L|204:64,1,85,0|0,2:3|2:3,2:3:0:0:
62,73,33639,2,0,L|150:124,1,85,0|0,2:3|2:3,2:3:0:0:
264,184,33974,1,0,2:3:0:0:
212,72,34142,2,0,P|144:108|120:128,1,85,4|0,2:3|2:3,2:3:0:0:
88,192,34477,2,0,P|48:268|92:344,1,170,4|0,2:3|2:3,2:3:0:0:
144,264,34980,5,8,0:0:0:0:
200,360,35147,1,8,0:0:0:0:
256,192,35315,1,8,0:0:0:0:
308,292,35483,2,0,P|348:260|360:228,1,85,8|0,0:0|0:0,0:0:0:0:
352,96,35818,5,8,0:0:0:0:
256,192,35985,1,8,0:0:0:0:
176,44,36153,1,0,0:0:0:0:
176,44,36488,1,0,0:0:0:0:
176,44,36823,2,0,P|116:67|114:162,1,170,0|0,0:0|0:0,0:0:0:0:
176,228,37326,1,8,0:0:0:0:
169,115,37494,1,8,0:0:0:0:
152,304,37661,6,4,P|200:304|232:284,1,85,4|4,2:3|2:3,2:3:0:0:
372,188,37997,1,4,2:3:0:0:
360,88,38164,2,0,P|288:132|288:244,1,170,4|0,2:3|2:3,2:3:0:0:
276,348,38667,6,0,L|220:256,1,85,0|0,2:3|2:3,2:3:0:0:
148,144,39002,2,0,P|100:136|53:167,1,85,4|0,2:3|2:3,2:3:0:0:
176,76,39337,1,0,2:3:0:0:
176,76,39505,2,0,P|223:83|270:52,1,85,4|0,2:3|2:3,2:3:0:0:
404,60,39840,1,4,2:3:0:0:
388,188,40008,2,0,P|373:236|329:273,1,85,0|0,2:3|2:3,2:3:0:0:
327,278,40259,5,4,2:3:0:0:
302,292,40343,1,4,2:3:0:0:
152,288,40511,1,4,2:3:0:0:
88,260,40678,1,4,2:3:0:0:
40,212,40846,2,0,B|48:116|124:192|120:96|156:88,1,170,4|0,2:3|2:3,2:3:0:0:
240,44,41349,6,0,L|280:128,1,85,0|0,2:3|2:3,2:3:0:0:
376,276,41684,2,0,P|351:226|360:180,1,85,4|0,2:3|2:3,2:3:0:0:
256,248,42019,1,0,2:3:0:0:
157,237,42187,2,0,P|196:172|276:152,1,127.5,4|0,2:3|2:3,2:3:0:0:
241,152,42522,1,4,2:3:0:0:
492,160,42857,5,4,2:3:0:0:
464,148,42941,1,4,2:3:0:0:
436,136,43025,1,4,2:3:0:0:
324,88,43192,1,4,2:3:0:0:
260,60,43360,1,4,2:3:0:0:
196,32,43527,2,0,B|120:112|120:112|144:176,1,170,4|0,2:3|2:3,2:3:0:0:
248,160,44030,6,0,P|268:220|248:292,1,127.5,0|0,2:3|2:3,2:3:0:0:
252,288,44365,1,0,2:3:0:0:
172,344,44701,5,0,2:3:0:0:
342,324,44868,2,0,L|434:308,1,85,0|0,2:3|2:3,2:3:0:0:
426,310,45203,2,0,B|426:242|346:230|341:153,1,170,0|0,2:3|2:3,2:3:0:0:
272,48,45706,5,8,0:0:0:0:
144,100,45874,1,8,0:0:0:0:
343,167,46041,1,8,0:0:0:0:
271,135,46209,2,0,P|267:199|287:227,1,85,8|0,0:0|0:0,0:0:0:0:
312,320,46544,5,8,0:0:0:0:
343,167,46712,1,8,0:0:0:0:
216,252,46879,2,0,L|136:208,1,85,8|0,0:0|0:0,0:0:0:0:
24,140,47214,2,0,L|120:92,1,85,8|0,0:0|0:0,0:0:0:0:
216,56,47550,1,8,0:0:0:0:
80,224,47717,1,8,0:0:0:0:
238,181,47885,2,0,P|298:201|234:189,1,170,8|0,0:0|0:0,0:0:0:0:
156,104,48388,6,0,P|140:60|152:16,1,85,8|0,0:0|0:0,0:0:0:0:
164,184,48723,2,0,P|117:175|85:143,1,85,8|0,0:0|0:0,0:0:0:0:
237,216,49058,2,0,P|206:251|162:263,1,85,8|0,0:0|0:0,0:0:0:0:
156,104,49393,1,0,0:0:0:0:
160,108,49561,1,0,0:0:0:0:
272,60,49728,5,0,0:0:0:0:
400,64,49896,2,8,L|444:64,2,42.5
268,140,50231,5,0,0:0:0:0:
396,144,50399,2,8,L|440:144,2,42.5
232,204,50734,5,0,0:0:0:0:
188,119,50902,1,0,0:0:0:0:
329,198,51069,2,0,P|319:247|281:281,1,85,8|0,0:0|0:0,0:0:0:0:
190,281,51404,2,0,P|152:248|142:198,1,85,8|0,0:0|0:0,0:0:0:0:
188,119,51740,2,0,P|236:104|283:120,1,85,8|0,0:0|0:0,0:0:0:0:
240,208,52075,1,0,0:0:0:0:
240,208,52242,1,0,0:0:0:0:
88,192,52410,5,0,0:0:0:0:
132,71,52578,2,8,L|146:29,2,42.5
164,196,52913,5,0,0:0:0:0:
266,69,53080,2,8,L|268:111,1,42.5
447,191,53248,2,8,P|429:168|410:163,1,42.5
317,24,53416,6,8,P|332:40|336:60,1,42.5
392,230,53583,2,8,L|345:215,1,42.5
312,352,53751,5,0,0:0:0:0:
216,244,53918,1,0,0:0:0:0:
352,218,54086,1,0,0:0:0:0:
212,324,54254,2,0,P|160:304|136:248,1,85
80,324,54589,2,0,P|71:268|107:220,1,85
176,76,54924,5,8,0:0:0:0:
315,229,55092,1,8,0:0:0:0:
305,68,55259,5,8,0:0:0:0:
185,236,55427,1,8,0:0:0:0:
396,208,55594,6,0,B|360:212|360:212|332:228|332:228|296:232,1,85
104,257,55930,2,0,B|140:253|140:253|168:237|168:237|204:233,1,85
303,120,56265,6,0,L|396:208,1,127.500004863739,8|0,0:0|0:0,0:0:0:0:
144,120,56600,1,8,0:0:0:0:
206,277,56768,5,8,0:0:0:0:
303,120,56935,1,8,0:0:0:0:
142,245,57103,5,8,0:0:0:0:
368,148,57270,1,8,0:0:0:0:
110,181,57438,5,8,0:0:0:0:
396,208,57606,1,8,0:0:0:0:
344,64,57773,5,8,0:0:0:0:
184,296,57941,1,8,0:0:0:0:
332,276,58108,5,8,0:0:0:0:
128,112,58276,1,8,0:0:0:0:
396,208,58444,5,8,0:0:0:0:
218,43,58611,1,8,0:0:0:0:
184,296,58779,5,8,0:0:0:0:
316,41,58946,1,8,0:0:0:0:
184,296,59114,6,0,B|256:280|332:276|332:276|216:256|244:220|176:236,1,297.5
184,296,60455,2,8,P|124:308|88:292,3,85
64,152,61628,6,4,B|96:72|164:120|176:96|176:96|240:132,1,170,4|4,2:3|2:3,2:3:0:0:
380,204,62131,1,0,0:0:0:0:
196,184,62298,1,0,0:0:0:0:
360,88,62466,1,0,0:0:0:0:
272,240,62633,1,0,0:0:0:0:
236,68,62801,1,0,0:0:0:0:
380,204,62969,6,4,B|396:324|288:352,1,170,4|4,2:3|2:3,2:3:0:0:
272,156,63471,1,0,0:0:0:0:
164,320,63639,1,0,0:0:0:0:
140,124,63807,5,0,0:0:0:0:
248,284,63974,2,0,L|196:208,1,85
48,88,64309,2,4,B|124:-12|224:72,1,170,4|4,2:3|2:3,2:3:0:0:
312,248,64812,5,0,0:0:0:0:
349,54,64980,1,0,0:0:0:0:
412,240,65147,5,0,0:0:0:0:
256,120,65315,1,0,0:0:0:0:
256,120,65483,1,0,0:0:0:0:
444,168,65650,2,0,P|488:220|492:252,1,85,4|0,2:3|2:3,2:3:0:0:
308,300,65985,5,4,2:3:0:0:
360,112,66153,1,0,0:0:0:0:
240,264,66321,1,0,0:0:0:0:
444,168,66488,2,0,P|384:212|348:208,1,85
192,144,66823,1,0,0:0:0:0:
107,123,66991,6,4,B|147:99|167:63|167:63|195:155,1,170,4|4,0:3|0:3,0:3:0:0:
248,332,67494,1,0,0:0:0:0:
84,228,67661,1,0,0:0:0:0:
280,232,67829,2,0,P|328:232|388:204,1,85
308,108,68164,5,0,0:0:0:0:
308,108,68332,2,0,P|236:108|200:120,1,85
196,235,68667,2,0,P|268:235|304:223,2,85
384,208,69170,1,0,0:0:0:0:
136,188,69337,5,0,0:0:0:0:
296,76,69505,1,0,0:0:0:0:
196,235,69673,1,0,0:0:0:0:
368,96,69840,6,0,P|336:140|284:152,1,85,8|0,0:0|0:0,0:0:0:0:
136,188,70175,1,8,0:0:0:0:
384,208,70343,6,0,P|343:233|285:219,1,85,8|0,0:0|0:0,0:0:0:0:
136,188,70678,1,8,0:0:0:0:
348,316,70846,6,0,P|300:321|254:285,1,85,8|0,0:0|0:0,0:0:0:0:
136,188,71181,1,8,0:0:0:0:
308,116,71349,5,8,0:0:0:0:
200,276,71516,1,8,0:0:0:0:
192,132,71684,5,8,0:0:0:0:
356,236,71851,1,8,0:0:0:0:
192,124,72019,1,8,0:0:0:0:
376,56,72187,1,8,0:0:0:0:
200,276,72354,6,4,B|168:248|136:188|136:188|172:216|208:208,1,170,4|4,0:3|0:3,0:3:0:0:
424,268,72857,1,0,0:0:0:0:
264,140,73025,1,0,0:0:0:0:
428,167,73192,1,0,0:0:0:0:
188,208,73360,2,0,P|132:192|116:160,1,85
236,40,73695,6,0,P|296:64|316:108,1,85,4|0,0:3|0:3,0:3:0:0:
88,112,74030,1,4,0:3:0:0:
233,271,74197,2,0,P|188:225|191:193,1,85
88,112,74533,2,0,P|117:167|106:197,1,85
88,304,74868,1,0,0:0:0:0:
88,112,75036,6,4,B|132:100|164:60|164:60|204:100|252:116,1,170,4|4,0:3|0:3,0:3:0:0:
400,192,75538,1,0,0:0:0:0:
204,192,75706,2,0,P|252:192|300:232,1,85
96,264,76041,1,0,0:0:0:0:
212,108,76209,1,0,0:0:0:0:
52,196,76376,6,4,B|120:116|120:116|120:64|164:24,1,170,4|4,0:3|0:3,0:3:0:0:
336,76,76879,1,0,0:0:0:0:
232,244,77047,1,0,0:0:0:0:
404,152,77214,1,0,0:0:0:0:
192,152,77382,1,0,0:0:0:0:
396,240,77550,2,0,P|352:228|320:184,1,85
176,76,77885,6,0,P|116:128|160:224,1,170
36,104,78388,1,0,0:0:0:0:
192,152,78555,2,0,P|216:200|200:256,1,85
176,76,78890,1,0,0:0:0:0:
372,76,79058,6,0,L|288:112,1,85,8|0,0:0|0:0,0:0:0:0:
192,152,79393,2,0,L|276:188,1,85,8|0,0:0|0:0,0:0:0:0:
463,188,79728,2,0,L|379:224,1,85,8|0,0:0|0:0,0:0:0:0:
204,300,80064,1,0,0:0:0:0:
313,185,80231,1,0,0:0:0:0:
336,340,80399,5,0,0:0:0:0:
344,320,80483,1,0,0:0:0:0:
352,300,80566,2,0,L|388:216,1,85,0|0,0:3|0:3,0:3:0:0:
400,80,80902,1,0,0:0:0:0:
280,264,81069,2,4,L|316:180,1,85,4|4,0:3|0:3,0:3:0:0:
312,44,81404,1,0,0:0:0:0:
192,232,81572,6,4,P|152:272|100:280,1,85
91,88,81907,1,8,0:0:0:0:
274,154,82075,1,8,0:0:0:0:
125,280,82242,1,8,0:0:0:0:
163,61,82410,5,8,0:0:0:0:
260,229,82578,1,8,0:0:0:0:
65,230,82745,1,8,0:0:0:0:
236,84,82913,5,8,0:0:0:0:
56,308,83080,1,8,0:0:0:0:
260,229,83248,6,0,P|320:216|324:176,1,85,8|0,0:0|0:0,0:0:0:0:
334,128,83583,2,0,P|315:186|347:209,1,85,8|0,0:0|0:0,0:0:0:0:
383,242,83918,2,0,P|341:196|305:213,1,85,8|0,0:0|0:0,0:0:0:0:
260,228,84254,2,0,B|276:288|360:328|360:328|252:368|208:304,1,255
216,352,84924,2,0,P|160:276|204:128,1,255.000009727478
324,116,85930,6,0,P|352:168|376:168,1,63.7500024318696,8|0,0:0|0:0,0:0:0:0:
324,116,86265,6,0,P|355:65|343:44,1,63.7500024318696,8|0,0:0|0:0,0:0:0:0:
324,116,86600,6,0,P|264:114|252:135,1,63.7500024318696,8|0,0:0|0:0,0:0:0:0:
196,136,86935,2,0,B|148:132|108:88|108:88|108:180,1,191.250007295609
68,196,87606,2,0,B|68:284|68:284|116:256|152:340|152:340|124:256|128:280,1,255.000009727478
192,216,88444,5,0,0:0:0:0:
212,192,88527,1,0,0:0:0:0:
240,176,88611,2,0,P|280:164|320:164,1,63.7500024318696
392,192,88946,1,0,0:0:0:0:
324,268,89114,2,0,L|272:304,1,63.7500024318696
271,304,89617,1,0,0:0:0:0:
256,192,89784,12,0,91070,0:0:0:0:
