osu file format v14

[General]
AudioFilename: audio.mp3
AudioLeadIn: 0
PreviewTime: 48233
Countdown: 0
SampleSet: None
StackLeniency: 0.7
Mode: 2
LetterboxInBreaks: 0
WidescreenStoryboard: 0

[Editor]
DistanceSpacing: 0.8
BeatDivisor: 4
GridSize: 16
TimelineZoom: 2.7

[Metadata]
Title:F.D.D. (TV Size)
TitleUnicode:F.D.D. (TV Size)
Artist:Itou Kanako
ArtistUnicode:いとうかなこ
Creator:Deif
Version:Platter
Source:ChäoS;HEAd
Tags:伊藤香奈子 FDD Filthy Defiler Disgrace Opening op カオスヘッド Chaos Head
BeatmapID:1713114
BeatmapSetID:816799

[Difficulty]
HPDrainRate:5
CircleSize:3.5
OverallDifficulty:8
ApproachRate:8
SliderMultiplier:1.6
SliderTickRate:1

[Events]
//Background and Video events
0,0,"BG.jpg",0,0
Video,-207,"video.avi"
//Break Periods
//Storyboard Layer 0 (Background)
//Storyboard Layer 1 (Fail)
//Storyboard Layer 2 (Pass)
//Storyboard Layer 3 (Foreground)
//Storyboard Sound Samples

[TimingPoints]
432,327.868852459016,4,3,0,50,1,0
596,361.44578313253,4,1,0,50,1,0
776,349.854227405248,4,1,0,50,1,0
1125,375,4,1,0,50,1,0
1500,400,4,1,0,50,1,0
1700,350.877192982456,4,1,0,50,1,0
2051,363.636363636364,4,3,0,60,1,0
2051,-100,4,3,0,60,0,0
7324,-100,4,1,0,60,0,0
7506,-100,4,1,0,50,0,0
7687,-100,4,1,0,40,0,0
7869,-100,4,3,0,60,0,0
13142,-100,4,1,0,60,0,0
13324,-100,4,1,0,50,0,0
13505,-100,4,1,0,40,0,0
13687,-100,4,3,0,60,0,0
14051,-100,4,3,0,30,0,0
14597,-100,4,3,0,45,0,0
15142,-100,4,3,0,55,0,0
32597,-100,4,3,0,60,0,0
38415,-100,4,3,0,55,0,0
44233,-100,4,3,0,60,0,0
50051,-100,4,1,0,65,0,1
72415,-100,4,3,0,65,0,1
73323,-133.333333333333,4,3,0,50,0,0
77687,-100,4,1,0,55,0,0
79141,-100,4,3,0,65,0,0
83323,-100,4,3,0,60,0,0
87505,-100,4,1,0,50,0,0
87687,-100,4,1,0,60,0,0

[Colours]
Combo1 : 192,192,192
Combo2 : 32,128,255
Combo3 : 255,128,255
Combo4 : 213,213,0

[HitObjects]
256,192,432,5,0,0:0:0:0:
384,192,595,1,8,0:0:0:0:
128,192,776,1,8,0:0:0:0:
256,192,1125,1,8,0:0:0:0:
112,192,1500,1,8,0:0:0:0:
384,192,1700,1,8,0:0:0:0:
208,192,2051,6,0,P|128:176|64:128,1,160,4|0,2:0|0:0,0:0:0:0:
176,128,2596,1,2,0:0:0:0:
64,128,2778,2,0,L|80:208,1,80,8|0,0:0|0:0,0:0:0:0:
192,208,3141,2,0,L|112:208,1,80,8|0,0:0|0:0,0:0:0:0:
304,208,3505,6,0,L|384:208,2,80,2|0|2,0:0|0:0|0:0,0:0:0:0:
192,208,4051,2,0,P|144:112|160:64,1,160,8|8,0:0|0:0,0:0:0:0:
272,64,4596,2,0,L|192:64,1,80,0|8,0:0|0:0,0:0:0:0:
384,64,4960,6,0,L|400:144,1,80,2|0,0:0|0:0,0:0:0:0:
288,192,5323,1,4,0:0:0:0:
400,192,5505,2,0,L|416:272,1,80,2|0,0:0|0:0,0:0:0:0:
304,320,5869,1,4,0:0:0:0:
208,320,6051,1,8,0:0:0:0:
304,320,6232,1,0,0:0:0:0:
112,192,6414,6,0,L|32:192,2,80,2|0|2,0:0|0:0|0:0,0:0:0:0:
224,192,6960,2,0,L|240:272,1,80,8|0,0:0|0:0,0:0:0:0:
128,272,7323,1,0,0:0:0:0:
176,224,7414,1,0,0:0:0:0:
240,192,7505,1,0,0:0:0:0:
128,112,7687,1,0,0:0:0:0:
384,112,7869,6,0,P|432:176|448:256,1,160,4|0,2:0|0:0,0:0:0:0:
336,256,8414,1,2,0:0:0:0:
448,256,8596,2,0,L|432:176,1,80,8|0,0:0|0:0,0:0:0:0:
320,176,8960,2,0,L|400:176,1,80,8|0,0:0|0:0,0:0:0:0:
208,176,9323,6,0,L|128:176,2,80,2|0|2,0:0|0:0|0:0,0:0:0:0:
320,176,9869,2,0,P|368:240|368:320,1,160,8|8,0:0|0:0,0:0:0:0:
256,320,10414,2,0,L|336:320,1,80,0|8,0:0|0:0,0:0:0:0:
144,320,10778,6,0,L|128:240,1,80,2|0,0:0|0:0,0:0:0:0:
240,192,11141,1,4,0:0:0:0:
128,192,11323,2,0,L|144:112,1,80,2|0,0:0|0:0,0:0:0:0:
256,64,11687,1,4,0:0:0:0:
368,64,11869,1,8,0:0:0:0:
192,64,12051,1,0,0:0:0:0:
304,192,12232,6,0,L|384:192,2,80,2|0|2,0:0|0:0|0:0,0:0:0:0:
192,192,12778,2,0,L|208:112,1,80,8|0,0:0|0:0,0:0:0:0:
272,112,13051,1,0,0:0:0:0:
336,112,13141,1,0,0:0:0:0:
384,144,13232,1,0,0:0:0:0:
408,192,13323,1,0,0:0:0:0:
320,272,13505,1,0,0:0:0:0:
64,288,13687,6,0,P|32:160|224:16,1,400,6|8,0:0|0:0,0:0:0:0:
272,64,14687,1,0,0:0:0:0:
224,112,14778,1,8,0:0:0:0:
128,192,14960,1,8,0:0:0:0:
384,192,15141,6,0,L|368:272,1,80,4|0,2:0|0:0,0:0:0:0:
192,192,15505,1,2,0:0:0:0:
304,192,15687,1,8,0:0:0:0:
384,192,15869,2,0,L|368:112,1,80,0|0,0:0|0:0,0:0:0:0:
256,112,16232,1,8,0:0:0:0:
368,112,16414,1,2,0:0:0:0:
192,112,16596,6,0,L|176:192,1,80,4|0,0:0|0:0,0:0:0:0:
352,192,16960,1,2,0:0:0:0:
240,192,17141,2,0,L|144:192,2,80,8|0|0,0:0|0:0|0:0,0:0:0:0:
352,192,17687,1,8,0:0:0:0:
176,272,17869,1,2,0:0:0:0:
352,192,18051,6,0,L|336:112,1,80,4|0,0:0|0:0,0:0:0:0:
160,192,18414,1,2,0:0:0:0:
272,192,18596,2,0,L|288:112,1,80,8|0,0:0|0:0,0:0:0:0:
176,112,18960,2,0,L|160:32,1,80,0|8,0:0|0:0,0:0:0:0:
272,32,19323,1,2,0:0:0:0:
96,192,19505,6,0,L|112:272,1,80,4|0,0:0|0:0,0:0:0:0:
224,272,19869,1,2,0:0:0:0:
80,113,20051,2,0,L|96:192,1,80,8|0,0:0|0:0,0:0:0:0:
208,192,20414,1,2,0:0:0:0:
320,192,20596,2,0,L|336:113,1,80,8|2,0:0|0:0,0:0:0:0:
128,192,20960,6,0,L|144:112,1,80,4|0,0:0|0:0,0:0:0:0:
320,192,21323,1,2,0:0:0:0:
208,192,21505,1,8,0:0:0:0:
128,192,21687,2,0,L|144:272,1,80,0|0,0:0|0:0,0:0:0:0:
256,272,22051,1,8,0:0:0:0:
144,272,22232,1,2,0:0:0:0:
320,272,22414,6,0,L|336:192,1,80,4|0,0:0|0:0,0:0:0:0:
160,192,22778,1,2,0:0:0:0:
272,192,22960,2,0,L|368:192,2,80,8|0|0,0:0|0:0|0:0,0:0:0:0:
160,192,23505,1,8,0:0:0:0:
336,112,23687,1,2,0:0:0:0:
160,192,23869,6,0,L|176:272,1,80,4|0,0:0|0:0,0:0:0:0:
352,192,24232,1,2,0:0:0:0:
240,192,24414,2,0,L|256:272,1,80,8|0,0:0|0:0,0:0:0:0:
368,272,24778,2,0,L|352:352,1,80,0|8,0:0|0:0,0:0:0:0:
176,352,25141,1,2,0:0:0:0:
352,192,25323,6,0,L|336:112,1,80,4|0,0:0|0:0,0:0:0:0:
224,112,25687,1,2,0:0:0:0:
336,272,25869,2,0,L|352:192,1,80,8|0,0:0|0:0,0:0:0:0:
96,192,26232,1,8,1:0:0:0:
384,192,26778,6,0,L|464:192,2,80,4|0|2,2:0|0:0|0:0,0:0:0:0:
208,192,27323,2,0,P|176:256|208:336,1,160,8|8,0:0|0:0,0:0:0:0:
304,336,27869,1,0,0:0:0:0:
128,192,28051,6,0,L|48:192,2,80,2|0|8,0:0|0:0|0:0,0:0:0:0:
224,192,28596,1,0,0:0:0:0:
48,192,28778,2,0,P|48:112|112:80,1,160,2|2,0:0|0:0,0:0:0:0:
288,80,29323,2,0,L|304:160,1,80,8|0,0:0|0:0,0:0:0:0:
128,192,29687,6,0,L|48:192,2,80,4|0|2,0:0|0:0|0:0,0:0:0:0:
304,192,30232,2,0,P|336:128|304:48,1,160,8|8,0:0|0:0,0:0:0:0:
208,48,30778,1,0,0:0:0:0:
383,50,30960,6,0,P|448:96|464:176,1,160,2|0,0:0|0:0,0:0:0:0:
368,192,31505,1,8,0:0:0:0:
464,208,31687,2,0,L|448:288,1,80,2|8,0:0|2:0,0:0:0:0:
192,192,32051,1,8,1:0:0:0:
384,192,32414,1,8,0:0:0:0:
128,192,32596,6,0,P|80:160|48:64,1,160,4|2,2:0|0:0,0:0:0:0:
240,64,33323,1,8,0:0:0:0:
128,112,33505,1,0,0:0:0:0:
144,192,33687,1,2,0:0:0:0:
208,240,33869,1,8,0:0:0:0:
384,192,34051,6,0,P|432:160|464:64,1,160,4|2,0:0|0:0,0:0:0:0:
128,64,34778,2,0,L|48:64,2,80,8|0|2,0:0|0:0|0:0,0:0:0:0:
464,64,35505,6,0,L|304:64,1,160,4|2,0:0|0:0,0:0:0:0:
160,192,36232,2,0,L|80:192,2,80,8|2|8,0:0|0:0|2:0,0:0:0:0:
336,192,36778,6,0,P|368:256|336:336,1,160,8|0,1:0|0:0,0:0:0:0:
160,336,37323,1,8,0:0:0:0:
336,192,37505,1,2,2:0:0:0:
384,192,37596,1,0,0:0:0:0:
416,144,37687,1,10,2:0:0:0:
304,192,37869,1,2,2:0:0:0:
256,192,37960,1,0,0:0:0:0:
224,144,38051,1,8,2:0:0:0:
336,192,38232,1,0,0:0:0:0:
80,192,38414,6,0,L|64:112,1,80,4|0,2:0|0:0,0:0:0:0:
160,64,38778,1,2,0:0:0:0:
336,192,38960,2,0,L|256:192,1,80,8|0,0:0|0:0,0:0:0:0:
144,192,39323,2,0,L|224:192,1,80,8|0,0:0|0:0,0:0:0:0:
400,192,39687,6,0,P|432:128|384:64,1,160,2|8,0:0|0:0,0:0:0:0:
288,64,40232,1,0,0:0:0:0:
464,192,40414,2,0,L|384:192,1,80,2|0,0:0|0:0,0:0:0:0:
272,192,40778,2,0,L|352:192,2,80,2|8|0,0:0|0:0|0:0,0:0:0:0:
448,192,41323,6,0,L|464:272,1,80,4|0,0:0|0:0,0:0:0:0:
368,320,41687,1,2,0:0:0:0:
192,192,41869,2,0,L|272:192,1,80,8|0,0:0|0:0,0:0:0:0:
384,192,42232,2,0,L|304:192,1,80,8|0,0:0|0:0,0:0:0:0:
128,192,42596,6,0,P|96:256|144:320,1,160,2|0,0:0|0:0,0:0:0:0:
240,320,43141,2,0,L|160:320,1,80,8|2,0:0|0:0,0:0:0:0:
336,192,43505,2,0,P|352:240|352:272,1,80,8|2,2:0|0:0,0:0:0:0:
96,192,43869,1,8,1:0:0:0:
272,192,44232,6,0,L|192:192,1,80,4|0,2:0|0:0,0:0:0:0:
288,128,44596,1,2,0:0:0:0:
112,128,44778,2,0,L|32:128,2,80,8|0|2,0:0|0:0|0:0,0:0:0:0:
288,128,45323,2,0,L|272:208,1,80,8|0,0:0|0:0,0:0:0:0:
96,192,45687,6,0,L|176:192,2,80,4|0|2,0:0|0:0|0:0,0:0:0:0:
192,192,46232,2,0,L|272:192,1,80,8|0,0:0|0:0,0:0:0:0:
176,128,46596,1,2,0:0:0:0:
352,128,46778,2,0,L|368:208,1,80,8|2,0:0|0:0,0:0:0:0:
160,128,47141,6,0,L|176:208,1,80,4|0,0:0|0:0,0:0:0:0:
272,272,47505,2,0,L|192:272,1,80,2|0,0:0|0:0,0:0:0:0:
288,208,47869,2,0,L|368:208,1,80,8|0,0:0|0:0,0:0:0:0:
112,208,48232,1,8,2:0:0:0:
256,192,48596,12,2,49687,0:0:0:0:
160,192,50051,6,0,L|32:192,2,120,6|2|0,0:0|2:0|0:0,0:0:0:0:
352,192,50778,2,0,L|480:192,2,120,2|2|0,0:0|2:0|0:0,0:0:0:0:
160,192,51505,5,2,0:0:0:0:
304,192,51778,1,2,2:0:0:0:
48,128,52051,2,0,P|32:176|48:192,1,80,2|0,0:0|0:0,0:0:0:0:
160,192,52414,2,0,L|80:192,2,80,2|8|2,0:0|0:0|0:0,0:0:0:0:
336,192,52960,6,8,P|368:256|336:336,1,160,2|8,0:0|0:0,0:0:0:0:
160,336,53505,2,0,L|144:256,1,80,2|0,0:0|0:0,0:0:0:0:
256,240,53869,2,0,L|272:160,1,80,2|8,0:0|0:0,0:0:0:0:
160,160,54232,1,0,0:0:0:0:
336,160,54414,6,0,P|368:240|336:304,1,160,2|8,0:0|0:0,0:0:0:0:
224,304,54960,2,0,L|208:224,1,80,2|0,0:0|0:0,0:0:0:0:
320,208,55323,2,0,L|304:128,1,80,2|8,0:0|0:0,0:0:0:0:
192,128,55687,1,0,0:0:0:0:
448,192,55869,6,0,P|464:208|432:288,1,120,6|2,0:0|2:0,0:0:0:0:
384,320,56232,2,0,L|464:320,1,80,8|0,0:0|0:0,0:0:0:0:
272,192,56596,2,0,P|256:208|288:288,1,120,2|2,0:0|2:0,0:0:0:0:
336,320,56960,2,0,L|256:320,1,80,8|0,0:0|0:0,0:0:0:0:
448,192,57323,6,0,P|464:208|432:288,1,120,2|2,0:0|2:0,0:0:0:0:
384,320,57687,2,0,L|464:320,1,80,8|0,0:0|0:0,0:0:0:0:
272,192,58051,2,0,L|256:112,1,80,2|0,0:0|0:0,0:0:0:0:
368,112,58414,2,0,L|384:32,1,80,8|0,0:0|0:0,0:0:0:0:
208,32,58778,6,0,L|128:32,1,80,2|0,0:0|0:0,0:0:0:0:
240,112,59141,2,0,L|160:112,1,80,8|2,0:0|0:0,0:0:0:0:
272,192,59505,1,8,0:0:0:0:
96,192,59687,2,0,L|176:192,1,80,10|0,0:0|0:0,0:0:0:0:
64,272,60051,1,2,0:0:0:0:
240,272,60232,5,10,0:0:0:0:
128,272,60414,2,0,L|112:192,1,80,8|0,0:0|0:0,0:0:0:0:
224,192,60778,2,0,L|208:112,1,80,10|0,0:0|0:0,0:0:0:0:
80,112,61141,1,10,0:0:0:0:
192,192,61323,1,10,0:0:0:0:
80,272,61505,1,0,0:0:0:0:
352,192,61687,6,0,L|480:192,2,120,6|2|0,0:0|2:0|0:0,0:0:0:0:
160,192,62414,2,0,L|32:192,2,120,2|2|0,0:0|2:0|0:0,0:0:0:0:
352,192,63141,5,2,0:0:0:0:
208,192,63414,1,2,2:0:0:0:
464,256,63687,2,0,P|480:208|464:192,1,80,2|0,0:0|0:0,0:0:0:0:
352,192,64051,2,0,L|432:192,2,80,2|8|2,0:0|0:0|0:0,0:0:0:0:
176,192,64596,6,8,P|144:128|176:48,1,160,2|8,0:0|0:0,0:0:0:0:
352,48,65141,2,0,L|368:128,1,80,2|0,0:0|0:0,0:0:0:0:
256,144,65505,2,0,L|176:144,1,80,2|8,0:0|0:0,0:0:0:0:
352,224,65869,1,0,0:0:0:0:
176,224,66051,6,0,P|144:144|176:80,1,160,2|8,0:0|0:0,0:0:0:0:
288,80,66596,2,0,L|304:160,1,80,2|0,0:0|0:0,0:0:0:0:
192,176,66960,2,0,L|208:256,1,80,2|8,0:0|0:0,0:0:0:0:
320,256,67323,1,0,0:0:0:0:
64,192,67505,6,0,P|48:176|80:96,1,120,6|2,0:0|2:0,0:0:0:0:
128,64,67869,2,0,L|48:64,1,80,8|0,0:0|0:0,0:0:0:0:
240,192,68232,2,0,P|256:176|224:96,1,120,2|2,0:0|2:0,0:0:0:0:
176,64,68596,2,0,L|256:64,1,80,8|0,0:0|0:0,0:0:0:0:
64,192,68960,6,0,P|48:176|80:96,1,120,2|2,0:0|2:0,0:0:0:0:
128,64,69323,2,0,L|48:64,1,80,8|0,0:0|0:0,0:0:0:0:
240,192,69687,2,0,L|256:272,1,80,2|0,0:0|0:0,0:0:0:0:
144,272,70051,2,0,L|64:272,1,80,8|0,0:0|0:0,0:0:0:0:
240,272,70414,5,2,0:0:0:0:
144,192,70596,2,0,L|64:192,1,80,0|8,0:0|0:0,0:0:0:0:
160,128,70960,1,0,0:0:0:0:
336,80,71141,2,0,L|416:80,1,80,2|8,0:0|0:0,0:0:0:0:
320,128,71505,2,0,L|400:128,1,80,0|8,0:0|0:0,0:0:0:0:
224,128,71869,6,0,P|160:160|160:240,1,160,2|0,0:0|0:0,0:0:0:0:
272,272,72414,2,0,L|288:192,1,80,8|0,0:0|0:0,0:0:0:0:
176,192,72778,1,2,0:0:0:0:
288,192,72960,1,8,0:0:0:0:
176,192,73141,1,2,0:0:0:0:
432,192,73323,6,0,P|448:128|320:48,1,240.000009155274,4|8,2:0|0:0,0:0:0:0:
176,192,74414,1,2,0:0:0:0:
368,192,74596,6,0,P|352:112|272:64,1,180.000006866455,8|2,0:0|0:0,0:0:0:0:
176,64,75323,2,0,L|160:128,1,60.0000022888184,8|0,0:0|0:0,0:0:0:0:
256,128,75687,2,0,L|272:192,1,60.0000022888184,8|0,0:0|0:0,0:0:0:0:
176,192,76051,1,2,0:0:0:0:
368,192,76232,6,0,P|368:256|336:304,1,120.000004577637,4|2,0:0|0:0,0:0:0:0:
128,192,76960,2,0,P|80:240|64:288,1,120.000004577637,4|2,0:0|0:0,0:0:0:0:
144,288,77505,1,8,0:0:0:0:
400,192,77687,6,0,L|480:192,2,80,6|0|8,0:0|0:0|0:0,0:0:0:0:
224,112,78232,2,0,P|192:176|224:256,1,160,2|2,0:0|0:0,0:0:0:0:
480,192,78778,1,8,0:0:0:0:
304,192,79141,6,0,P|224:160|192:96,1,160,4|0,2:0|0:0,0:0:0:0:
304,96,79687,1,2,0:0:0:0:
192,96,79869,2,0,L|176:176,1,80,8|0,0:0|0:0,0:0:0:0:
288,96,80232,2,0,L|368:96,1,80,8|0,0:0|0:0,0:0:0:0:
192,192,80596,6,0,P|112:160|80:96,1,160,6|0,0:0|0:0,0:0:0:0:
192,96,81141,1,2,0:0:0:0:
80,96,81323,2,0,L|64:176,1,80,8|0,0:0|0:0,0:0:0:0:
176,96,81687,2,0,L|96:96,1,80,8|0,1:0|0:0,0:0:0:0:
352,96,82051,6,0,P|368:192|288:304,1,240,4|0,2:0|0:0,0:0:0:0:
112,304,82778,2,0,L|32:304,2,80,6|8|6,0:0|0:0|0:0,0:0:0:0:
368,112,83323,6,0,P|384:192|336:256,1,160,4|0,2:0|0:0,0:0:0:0:
224,256,83869,1,0,0:0:0:0:
336,256,84051,1,2,0:0:0:0:
448,256,84232,2,0,L|432:176,1,80,8|0,0:0|0:0,0:0:0:0:
320,176,84596,2,0,L|400:176,1,80,8|0,0:0|0:0,0:0:0:0:
208,176,84960,6,0,L|128:176,2,80,2|0|2,0:0|0:0|0:0,0:0:0:0:
320,176,85505,2,0,P|368:272|352:320,1,160,8|8,0:0|0:0,0:0:0:0:
240,320,86051,2,0,L|320:320,1,80,0|8,0:0|0:0,0:0:0:0:
128,320,86414,6,0,L|112:240,1,80,2|0,0:0|0:0,0:0:0:0:
224,192,86778,1,4,0:0:0:0:
112,192,86960,2,0,L|96:112,1,80,2|0,0:0|0:0,0:0:0:0:
208,64,87323,1,4,0:0:0:0:
384,192,87505,1,8,0:0:0:0:
112,192,87687,1,12,0:0:0:0:
