osu file format v14

[General]
AudioFilename: audio.mp3
AudioLeadIn: 0
PreviewTime: 69224
Countdown: 1
SampleSet: Soft
StackLeniency: 0.7
Mode: 0
LetterboxInBreaks: 0
WidescreenStoryboard: 0

[Editor]
DistanceSpacing: 1.2
BeatDivisor: 4
GridSize: 4
TimelineZoom: 1.3

[Metadata]
Title:Amadeus
TitleUnicode:Amadeus
Artist:Itou Kanako
ArtistUnicode:Itou Kanako
Creator:Ecchi
Version:Extra
Source:
Tags:Steins; Gate
BeatmapID:975501
BeatmapSetID:455063

[Difficulty]
HPDrainRate:6
CircleSize:4
OverallDifficulty:8
ApproachRate:9
SliderMultiplier:1.2
SliderTickRate:1

[Events]
//Background and Video events
0,0,"broccoli.jpg",0,0
//Break Periods
//Storyboard Layer 0 (Background)
//Storyboard Layer 1 (Fail)
//Storyboard Layer 2 (Pass)
//Storyboard Layer 3 (Foreground)
//Storyboard Sound Samples

[TimingPoints]
1089,338.983079178886,4,2,0,100,1,0
10928,-66.6666666666667,4,2,0,100,0,0
68885,-100,4,2,0,100,0,0

[HitObjects]
165,338,1089,6,0,P|41:224|172:179,1,360
249,220,2275,1,0,0:0:0:0:
306,304,2444,1,0,0:0:0:0:
477,144,2953,2,0,P|433:76|318:41,1,180
258,46,3631,5,0,0:0:0:0:
164,70,3800,1,0,0:0:0:0:
362,194,4309,5,0,0:0:0:0:
157,307,4817,5,0,0:0:0:0:
313,307,5156,6,0,P|362:283|356:224,1,120
316,159,5665,1,0,0:0:0:0:
316,159,5750,1,0,0:0:0:0:
316,159,5834,1,0,0:0:0:0:
216,80,6004,1,0,0:0:0:0:
207,207,6173,1,0,0:0:0:0:
87,104,6343,1,0,0:0:0:0:
62,277,6512,2,0,P|106:325|221:333,1,180
251,320,7105,1,0,0:0:0:0:
285,302,7190,1,0,0:0:0:0:
387,177,7529,5,0,0:0:0:0:
270,72,7868,2,0,P|119:84|96:175,1,240
198,147,8772,1,0,0:0:0:0:
198,147,8998,1,0,0:0:0:0:
198,147,9224,1,0,0:0:0:0:
360,315,9733,1,0,0:0:0:0:
422,89,10241,1,0,0:0:0:0:
256,192,10580,12,0,12444,0:0:0:0:
158,238,13292,5,0,0:0:0:0:
267,108,13461,1,0,0:0:0:0:
125,107,13631,1,0,0:0:0:0:
300,243,13800,1,0,0:0:0:0:
193,164,13970,1,0,0:0:0:0:
361,173,14139,1,0,0:0:0:0:
281,72,14309,1,0,0:0:0:0:
281,72,14394,5,0,0:0:0:0:
281,72,14478,1,0,0:0:0:0:
281,72,14563,1,0,0:0:0:0:
281,72,14648,2,0,P|339:99|361:206,1,180
186,249,15156,5,0,0:0:0:0:
327,129,15326,1,0,0:0:0:0:
310,293,15495,1,0,0:0:0:0:
310,293,15580,1,0,0:0:0:0:
310,293,15665,1,0,0:0:0:0:
227,179,15834,5,0,0:0:0:0:
106,128,16004,1,0,0:0:0:0:
117,257,16173,1,0,0:0:0:0:
231,310,16343,2,0,P|311:321|391:260,1,180
405,232,16766,1,0,0:0:0:0:
417,194,16851,1,0,0:0:0:0:
395,55,17021,5,0,0:0:0:0:
224,50,17190,1,0,0:0:0:0:
317,183,17360,1,0,0:0:0:0:
208,247,17529,1,0,0:0:0:0:
105,179,17699,1,0,0:0:0:0:
105,179,17783,1,0,0:0:0:0:
105,179,17868,1,0,0:0:0:0:
78,49,18038,5,0,0:0:0:0:
260,38,18207,1,0,0:0:0:0:
374,145,18377,1,0,0:0:0:0:
231,171,18546,5,0,0:0:0:0:
379,151,18716,1,0,0:0:0:0:
379,151,18800,1,0,0:0:0:0:
379,151,18885,1,0,0:0:0:0:
423,249,19055,1,0,0:0:0:0:
316,262,19224,5,0,0:0:0:0:
270,259,19309,1,0,0:0:0:0:
285,216,19394,1,0,0:0:0:0:
240,213,19478,1,0,0:0:0:0:
231,171,19563,1,0,0:0:0:0:
122,127,19733,5,0,0:0:0:0:
215,56,19902,1,0,0:0:0:0:
349,71,20072,1,0,0:0:0:0:
349,71,20156,1,0,0:0:0:0:
349,71,20241,1,0,0:0:0:0:
416,167,20411,1,0,0:0:0:0:
383,279,20580,1,0,0:0:0:0:
