osu file format v14

[General]
AudioFilename: audio.mp3
AudioLeadIn: 0
PreviewTime: 883
Countdown: 1
SampleSet: Soft
StackLeniency: 0.2
Mode: 0
LetterboxInBreaks: 0
WidescreenStoryboard: 0

[Editor]
Bookmarks: 25152
DistanceSpacing: 1
BeatDivisor: 4
GridSize: 16
TimelineZoom: 1

[Metadata]
Title:Watashi wa No. 1
TitleUnicode:Watashi wa No. 1
Artist:Itou Asuka
ArtistUnicode:伊藤あすか
Creator:Hishiro Chizuru
Version:Numbah Wan
Source:
Tags:
BeatmapID:1791267
BeatmapSetID:857317

[Difficulty]
HPDrainRate:5
CircleSize:4.2
OverallDifficulty:8.8
ApproachRate:9.2
SliderMultiplier:1.8
SliderTickRate:1

[Events]
//Background and Video events
0,0,"San diego is number one.png",0,0
//Break Periods
//Storyboard Layer 0 (Background)
//Storyboard Layer 1 (Fail)
//Storyboard Layer 2 (Pass)
//Storyboard Layer 3 (Foreground)
//Storyboard Sound Samples

[TimingPoints]
883,337.078651685393,4,2,0,60,1,0
883,-166.666666666667,4,2,0,60,0,0
3579,-133.333333333333,4,2,0,75,0,0
11669,-400,4,2,0,75,0,0
12343,-133.333333333333,4,2,0,75,0,0
14029,-80,4,2,0,75,0,0
14366,-166.666666666667,4,2,0,60,0,0
25152,-133.333333333333,4,2,0,60,0,0
35939,-200,4,2,0,50,0,0
42680,-133.333333333333,4,2,0,70,0,0
46725,-133.333333333333,4,2,0,70,0,0
47399,-100,4,2,0,70,0,0
47736,-90.9090909090909,4,2,0,70,0,0
48074,-111.111111111111,4,2,0,90,0,0
48748,-83.3333333333333,4,2,0,90,0,0
49085,-50,4,2,0,90,0,0
49422,-86.9565217391304,4,2,0,90,0,0
57512,-200,4,2,0,75,0,0
57849,-66.6666666666667,4,2,0,75,0,0
58186,-200,4,2,0,75,0,0
58523,-66.6666666666667,4,2,0,75,0,0
58860,-80,4,2,0,75,0,0
60208,-80,4,2,0,90,0,0
62905,-86.9565217391304,4,2,0,90,0,0
65602,-100,4,2,0,90,0,0
68298,-100,4,2,0,70,0,0
69647,-166.666666666667,4,2,0,70,0,0
73354,-400,4,2,0,70,0,0

[Colours]
Combo1 : 43,213,213
Combo2 : 202,0,5
Combo3 : 18,124,255
Combo4 : 231,86,89

[HitObjects]
135,52,883,5,0,0:0:0:0:
139,56,1388,1,0,0:0:0:0:
114,193,1557,1,0,0:0:0:0:
118,197,1894,1,0,0:0:0:0:
251,144,2231,6,0,P|265:182|259:221,1,80.9999975280763
214,278,2568,2,0,P|248:257|288:259,1,80.9999975280763
376,312,2905,2,0,L|370:248,1,53.9999983520508
356,83,3242,1,0,0:0:0:0:
212,184,3411,1,0,0:0:0:0:
208,188,3495,1,0,0:0:0:0:
204,192,3579,6,0,L|210:271,1,67.5000025749208
292,353,3916,2,0,L|297:285,1,67.5000025749208
125,283,4253,2,0,L|130:350,1,67.5000025749208
277,201,4590,1,0,0:0:0:0:
396,315,4759,1,0,0:0:0:0:
400,319,4843,1,0,0:0:0:0:
404,323,4927,6,0,L|398:255,1,67.5000025749208
333,129,5265,2,0,L|327:196,1,67.5000025749208
316,305,5602,1,0,0:0:0:0:
411,162,5770,1,0,0:0:0:0:
240,152,5939,1,0,0:0:0:0:
402,259,6107,1,0,0:0:0:0:
256,74,6276,6,0,P|222:69|191:81,1,67.5000025749208
130,218,6613,2,0,P|150:191|155:158,1,67.5000025749208
95,44,6950,1,0,0:0:0:0:
22,143,7118,1,0,0:0:0:0:
107,28,7287,1,0,0:0:0:0:
85,208,7456,2,0,L|91:287,1,67.5000025749208
102,374,7793,1,0,0:0:0:0:
0,231,7961,5,0,0:0:0:0:
167,252,8130,1,0,0:0:0:0:
9,159,8298,2,0,L|2:238,1,67.5000025749208
145,92,8635,2,0,L|139:24,1,67.5000025749208
299,146,8972,5,0,0:0:0:0:
217,200,9141,1,0,0:0:0:0:
314,253,9309,1,0,0:0:0:0:
226,317,9478,1,0,0:0:0:0:
388,206,9647,2,0,L|396:301,1,67.5000025749208
406,365,9984,1,0,0:0:0:0:
431,133,10152,6,0,P|399:121|366:123,1,67.5000025749208
294,188,10489,1,0,0:0:0:0:
212,103,10658,2,0,P|243:91|276:93,1,67.5000025749208
180,217,10995,1,0,0:0:0:0:
98,133,11163,1,0,0:0:0:0:
59,254,11332,2,0,L|103:257,3,33.7500012874604
119,332,11669,5,0,0:0:0:0:
130,331,11753,1,0,0:0:0:0:
141,330,11837,1,0,0:0:0:0:
152,329,11921,1,0,0:0:0:0:
173,354,12006,1,0,0:0:0:0:
187,354,12090,1,0,0:0:0:0:
202,355,12174,1,0,0:0:0:0:
217,356,12258,1,0,0:0:0:0:
262,337,12343,6,0,L|257:289,3,33.7500012874604
337,237,12680,2,0,L|334:270,3,33.7500012874604
390,157,13017,5,0,0:1:0:0:
394,153,13101,1,0,0:1:0:0:
398,149,13185,2,0,L|403:206,1,33.7500012874604,0|0,0:1|0:1,0:1:0:0:
444,287,13354,1,0,0:1:0:0:
448,291,13438,1,0,0:1:0:0:
452,295,13522,2,0,L|457:237,1,33.7500012874604,0|0,0:1|0:1,0:1:0:0:
406,156,13691,6,0,L|411:213,1,33.7500012874604,0|0,0:1|0:1,0:1:0:0:
460,303,13860,2,0,L|465:245,1,33.7500012874604,0|0,0:1|0:1,0:1:0:0:
414,164,14029,5,0,0:0:0:0:
364,138,14113,1,0,0:0:0:0:
308,133,14197,1,0,0:0:0:0:
254,148,14281,1,0,0:0:0:0:
210,182,14366,6,0,L|144:176,1,53.9999983520508
51,119,14618,1,0,0:0:0:0:
47,115,14703,2,0,L|112:109,1,53.9999983520508
190,101,15040,1,0,0:0:0:0:
152,181,15208,1,0,0:0:0:0:
220,252,15377,1,0,0:0:0:0:
182,332,15545,1,0,0:0:0:0:
258,172,15714,6,0,L|321:177,1,53.9999983520508
400,253,16051,2,0,L|336:258,1,53.9999983520508
262,265,16388,1,0,0:0:0:0:
183,320,16557,1,0,0:0:0:0:
94,230,16725,1,0,0:0:0:0:
16,320,16894,2,0,L|20:373,1,53.9999983520508
183,320,17231,5,0,0:1:0:0:
187,316,17315,1,0,0:1:0:0:
191,312,17399,2,0,L|134:307,1,53.9999983520508,0|0,0:1|0:1,0:1:0:0:
248,243,17736,2,0,L|305:238,1,53.9999983520508,0|0,0:1|0:1,0:1:0:0:
390,226,18074,1,0,0:0:0:0:
341,98,18242,6,0,L|335:161,1,53.9999983520508
254,105,18579,1,0,0:0:0:0:
175,151,18748,2,0,L|171:98,1,53.9999983520508
165,10,19085,1,0,0:0:0:0:
247,54,19253,1,0,0:0:0:0:
251,58,19338,1,0,0:0:0:0:
255,62,19422,1,0,0:0:0:0:
71,75,19590,1,0,0:0:0:0:
36,219,19759,6,0,P|61:211|87:215,1,53.9999983520508
163,270,20096,2,0,P|188:278|213:274,1,53.9999983520508
308,250,20433,2,0,L|313:313,1,53.9999983520508
414,357,20770,2,0,L|418:303,1,53.9999983520508
411,163,21107,6,0,P|382:154|354:158,1,53.9999983520508
478,120,21444,2,0,P|457:97|431:87,1,53.9999983520508
307,92,21781,2,0,P|333:77|361:76,1,53.9999983520508
233,62,22118,2,0,P|248:36|272:20,1,53.9999983520508
169,160,22456,6,0,L|105:154,1,53.9999983520508
213,237,22793,2,0,L|276:231,1,53.9999983520508
356,220,23130,1,0,0:0:0:0:
302,140,23298,1,0,0:0:0:0:
445,43,23467,1,0,0:0:0:0:
398,133,23635,1,0,0:0:0:0:
248,61,23804,1,0,0:0:0:0:
248,61,25152,5,0,0:0:0:0:
169,135,25321,1,0,0:0:0:0:
165,139,25406,1,0,0:0:0:0:
161,143,25489,2,0,L|167:222,1,67.5000025749208
241,326,25826,2,0,L|246:258,1,67.5000025749208
259,175,26163,1,0,0:0:0:0:
324,227,26332,1,0,0:0:0:0:
352,63,26500,5,0,0:0:0:0:
338,145,26669,1,0,0:0:0:0:
485,111,26838,2,0,L|405:117,1,67.5000025749208
337,144,27175,1,0,0:0:0:0:
407,204,27343,1,0,0:0:0:0:
266,135,27512,2,0,L|345:141,1,67.5000025749208
169,43,27849,5,0,0:0:0:0:
123,148,28017,1,0,0:0:0:0:
119,152,28102,1,0,0:0:0:0:
115,156,28186,2,0,L|194:149,1,67.5000025749208
305,243,28523,2,0,L|225:236,1,67.5000025749208
151,227,28860,1,0,0:0:0:0:
364,299,29029,6,0,P|381:270|383:237,1,67.5000025749208
337,167,29366,1,0,0:0:0:0:
412,91,29534,2,0,L|418:170,1,67.5000025749208
325,1,29871,2,0,L|318:80,1,67.5000025749208
310,165,30208,1,0,0:0:0:0:
391,129,30377,1,0,0:0:0:0:
227,107,30545,6,0,P|195:119|175:145,1,67.5000025749208
188,289,30882,2,0,P|194:256|180:225,1,67.5000025749208
52,163,31220,2,0,P|77:184|110:188,1,67.5000025749208
231,111,31557,2,0,L|239:206,1,67.5000025749208
293,64,31894,6,0,P|267:42|234:35,1,67.5000025749208
371,92,32231,2,0,P|376:59|366:27,1,67.5000025749208
304,151,32568,2,0,P|327:174|359:184,1,67.5000025749208
440,148,32905,1,0,0:0:0:0:
474,272,33074,1,0,0:0:0:0:
347,78,33242,6,0,P|299:61|252:77,1,101.250003862381
248,81,33579,1,0,0:0:0:0:
167,165,33748,1,0,0:0:0:0:
163,169,33832,1,0,0:0:0:0:
159,173,33916,2,0,L|165:252,1,67.5000025749208
65,305,34253,2,0,L|70:237,1,67.5000025749208
87,129,34590,5,0,0:0:0:0:
217,83,34759,1,0,0:0:0:0:
221,79,34843,1,0,0:0:0:0:
225,75,34927,2,0,L|145:81,1,67.5000025749208
266,166,35265,1,0,0:0:0:0:
327,75,35433,1,0,0:0:0:0:
327,80,35517,1,0,0:0:0:0:
328,86,35602,1,0,0:0:0:0:
350,253,35770,1,0,0:0:0:0:
487,132,35939,5,0,0:0:0:0:
487,132,36276,2,0,L|481:193,1,45
432,293,36613,2,0,L|428:248,1,45
355,348,36950,1,0,0:0:0:0:
266,311,37118,1,0,0:0:0:0:
330,150,37287,6,0,L|338:245,1,90
346,323,37793,1,0,0:0:0:0:
252,214,37961,1,0,0:0:0:0:
393,293,38130,1,0,0:0:0:0:
205,226,38298,1,0,0:0:0:0:
421,250,38467,1,0,0:0:0:0:
175,261,38635,6,0,P|161:280|155:301,1,45
257,349,38972,2,0,P|247:328|232:312,1,45
135,377,39309,2,0,P|157:379|179:374,1,45
317,247,39647,2,0,L|322:310,1,45
305,116,39984,5,0,0:0:0:0:
231,214,40152,1,0,0:0:0:0:
245,62,40321,1,0,0:0:0:0:
220,229,40489,1,0,0:0:0:0:
170,141,40658,1,0,0:0:0:0:
210,246,40826,1,0,0:0:0:0:
105,224,40995,1,0,0:0:0:0:
304,180,41163,1,0,0:0:0:0:
167,30,41332,6,0,L|161:93,1,45
154,160,41669,1,0,0:0:0:0:
235,120,41838,1,0,0:0:0:0:
240,118,41922,1,0,0:0:0:0:
245,117,42006,2,0,L|251:180,1,45
322,243,42343,2,0,L|326:198,1,45
340,33,42680,6,0,P|389:33|430:62,1,101.250003862381
434,66,43017,1,0,0:0:0:0:
492,229,43186,2,0,P|467:185|472:135,1,101.250003862381
476,131,43523,1,0,0:0:0:0:
400,307,43691,1,0,0:0:0:0:
400,307,44029,5,0,0:0:0:0:
331,213,44197,1,0,0:0:0:0:
216,330,44366,1,0,0:0:0:0:
343,133,44534,2,0,P|386:152|410:215,1,101.250003862381
405,202,44871,1,0,0:0:0:0:
462,98,45040,1,0,0:0:0:0:
485,269,45208,6,0,L|487:292,6,16.8750006437302
413,325,45545,2,0,L|410:358,5,33.7500012874604
374,249,46051,1,0,0:0:0:0:
358,250,46135,1,0,0:0:0:0:
342,251,46219,1,0,0:0:0:0:
326,253,46303,1,0,0:0:0:0:
303,287,46388,1,0,0:0:0:0:
281,285,46472,1,0,0:0:0:0:
259,284,46557,2,0,L|211:279,1,33.7500012874604
114,266,46725,5,0,0:0:0:0:
100,235,46809,1,0,0:0:0:0:
99,201,46893,1,0,0:0:0:0:
111,170,46977,1,0,0:0:0:0:
133,145,47062,1,0,0:0:0:0:
159,122,47147,1,0,0:0:0:0:
181,97,47231,1,0,0:0:0:0:
183,64,47315,1,0,0:0:0:0:
148,32,47399,5,0,0:0:0:0:
104,36,47483,1,0,0:0:0:0:
73,67,47567,1,0,0:0:0:0:
72,111,47651,1,0,0:0:0:0:
97,147,47736,1,0,0:0:0:0:
137,174,47820,1,0,0:0:0:0:
185,185,47904,1,0,0:0:0:0:
234,177,47988,1,0,0:0:0:0:
285,146,48074,6,0,P|339:122|408:135,1,121.499996292114
281,142,48411,2,0,P|335:118|404:131,1,121.499996292114
506,252,48748,2,0,P|435:216|357:234,1,161.999995056153
395,318,49085,2,0,P|302:248|269:359,1,270
325,315,49422,6,0,L|213:305,1,103.500001974106
48,218,49759,2,0,L|159:208,1,103.500001974106
273,199,50096,1,0,0:0:0:0:
204,97,50265,1,0,0:0:0:0:
253,331,50433,1,0,0:0:0:0:
342,301,50602,6,0,L|198:313,1,103.500001974106
375,204,50939,2,0,L|478:213,1,103.500001974106
365,81,51276,1,0,0:0:0:0:
361,77,51360,1,0,0:0:0:0:
357,73,51444,1,0,0:0:0:0:
268,143,51613,1,0,0:0:0:0:
379,208,51781,2,0,L|482:217,1,103.500001974106
264,139,52118,5,0,0:0:0:0:
272,334,52287,1,0,0:0:0:0:
186,110,52456,1,0,0:0:0:0:
383,204,52624,1,0,0:0:0:0:
102,113,52793,1,0,0:0:0:0:
98,109,52877,1,0,0:0:0:0:
94,105,52961,2,0,L|99:168,1,51.7500009870529
113,346,53130,1,0,0:0:0:0:
220,166,53298,1,0,0:0:0:0:
224,162,53382,1,0,0:0:0:0:
228,158,53466,6,0,L|222:221,1,51.7500009870529
206,374,53635,1,0,0:0:0:0:
351,303,53804,1,0,0:0:0:0:
219,213,53972,1,0,0:0:0:0:
424,217,54141,1,0,0:0:0:0:
147,294,54309,1,0,0:0:0:0:
465,314,54478,1,0,0:0:0:0:
104,194,54647,1,0,0:0:0:0:
350,19,54815,6,0,L|343:98,1,51.7500009870529
333,167,54984,1,0,0:0:0:0:
202,65,55152,2,0,L|208:144,1,51.7500009870529
219,213,55321,1,0,0:0:0:0:
94,116,55489,1,0,0:0:0:0:
66,267,55658,1,0,0:0:0:0:
72,87,55826,1,0,0:0:0:0:
91,295,55995,6,0,L|202:304,1,103.500001974106
356,226,56332,2,0,L|244:235,1,103.500001974106
327,107,56669,1,0,0:0:0:0:
331,103,56753,1,0,0:0:0:0:
335,99,56838,1,0,0:0:0:0:
212,150,57006,1,0,0:0:0:0:
421,142,57175,1,0,0:0:0:0:
132,105,57343,1,0,0:0:0:0:
260,347,57512,6,0,L|266:273,1,67.5
155,265,57849,2,0,P|94:315|172:313,1,202.500007724762
256,343,58186,2,0,L|262:265,1,67.5
151,261,58523,2,0,P|90:311|168:309,1,202.500007724762
267,142,58860,5,0,0:0:0:0:
370,219,59029,1,0,0:0:0:0:
374,223,59113,1,0,0:0:0:0:
378,227,59197,1,0,0:0:0:0:
384,71,59366,1,0,0:0:0:0:
384,65,59450,1,0,0:0:0:0:
384,59,59534,1,0,0:0:0:0:
261,275,59703,1,0,0:0:0:0:
449,139,59871,1,0,0:0:0:0:
145,177,60040,1,0,0:0:0:0:
474,225,60208,6,0,L|461:368,1,112.5
323,312,60461,1,0,0:0:0:0:
319,308,60545,2,0,P|368:279|444:291,1,112.5
288,219,60798,1,0,0:0:0:0:
284,215,60882,2,0,P|235:186|159:198,1,112.5
140,258,61135,1,0,0:0:0:0:
136,262,61220,2,0,L|124:127,1,112.5
311,123,61557,5,0,0:0:0:0:
264,229,61725,1,0,0:0:0:0:
242,75,61894,1,0,0:0:0:0:
269,251,62062,1,0,0:0:0:0:
271,259,62147,1,0,0:0:0:0:
273,267,62231,1,0,0:0:0:0:
318,33,62399,1,0,0:0:0:0:
134,128,62568,1,0,0:0:0:0:
411,183,62736,1,0,0:0:0:0:
216,374,62905,6,0,P|195:327|199:276,1,103.500001974106
129,151,63242,2,0,P|179:156|222:185,1,103.500001974106
81,264,63579,1,0,0:0:0:0:
36,169,63748,1,0,0:0:0:0:
32,165,63832,1,0,0:0:0:0:
28,161,63916,2,0,L|23:110,1,51.7500009870529
134,71,64085,1,0,0:0:0:0:
138,67,64169,1,0,0:0:0:0:
142,63,64253,6,0,L|138:114,1,51.7500009870529
197,238,64422,1,0,0:0:0:0:
315,141,64590,1,0,0:0:0:0:
43,35,64759,1,0,0:0:0:0:
64,182,64927,1,0,0:0:0:0:
181,90,65096,1,0,0:0:0:0:
298,242,65265,2,0,L|410:251,1,103.500001974106
262,326,65602,6,0,P|223:293|215:243,1,90
240,80,65939,2,0,L|249:191,1,90
116,179,66276,2,0,L|120:131,3,45
166,67,66613,1,0,0:0:0:0:
181,65,66697,1,0,0:0:0:0:
198,64,66781,1,0,0:0:0:0:
214,62,66865,1,0,0:0:0:0:
240,80,66950,1,0,0:0:0:0:
257,82,67034,1,0,0:0:0:0:
276,83,67118,1,0,0:0:0:0:
294,85,67202,1,0,0:0:0:0:
329,88,67287,5,0,0:0:0:0:
359,120,67371,1,0,0:0:0:0:
368,163,67455,1,0,0:0:0:0:
348,203,67539,1,0,0:0:0:0:
305,186,67624,1,0,0:0:0:0:
261,198,67708,1,0,0:0:0:0:
233,234,67793,1,0,0:0:0:0:
240,278,67877,1,0,0:0:0:0:
273,308,67961,5,0,0:0:0:0:
317,307,68045,1,0,0:0:0:0:
359,290,68130,1,0,0:0:0:0:
402,281,68214,2,0,P|425:280|445:290,1,45
449,294,68635,1,0,0:0:0:0:
437,174,68804,1,0,0:0:0:0:
293,248,68972,1,0,0:0:0:0:
297,252,69309,1,0,0:0:0:0:
301,256,69647,6,0,P|287:218|293:179,1,80.9999975280763
338,122,69984,2,0,P|304:143|264:141,1,80.9999975280763
222,76,70321,2,0,L|215:155,1,80.9999975280763
203,277,70658,1,0,0:0:0:0:
207,281,70995,5,0,0:0:0:0:
211,285,71332,1,0,0:0:0:0:
303,226,71500,1,0,0:0:0:0:
161,110,71669,1,0,0:0:0:0:
157,106,72006,1,0,0:0:0:0:
153,102,72343,6,0,L|144:197,1,80.9999975280763
98,235,72680,2,0,P|136:224|176:232,1,80.9999975280763
245,269,73017,2,0,P|205:273|171:294,1,80.9999975280763
326,303,73354,6,0,L|330:255,1,45
