osu file format v14

[General]
AudioFilename: audio.mp3
AudioLeadIn: 0
PreviewTime: 38111
Countdown: 0
SampleSet: Soft
StackLeniency: 0.7
Mode: 0
LetterboxInBreaks: 0
WidescreenStoryboard: 0

[Editor]
DistanceSpacing: 1.5
BeatDivisor: 4
GridSize: 32
TimelineZoom: 1

[Metadata]
Title:Wa-cycle- (TV Size)
TitleUnicode:環-cycle- (TV Size)
Artist:Itoki Hana
ArtistUnicode:糸奇 はな
Creator:Kaitjuh
Version:Lucid
Source:魔法使いの嫁
Tags:Mahoutsukai No Yome The Ancient Magus' Bride ending CrystilonZ
BeatmapID:1497902
BeatmapSetID:708535

[Difficulty]
HPDrainRate:6
CircleSize:5.7
OverallDifficulty:7
ApproachRate:9
SliderMultiplier:1.4
SliderTickRate:1

[Events]
//Background and Video events
0,0,"bg.jpg",0,0
//Break Periods
//Storyboard Layer 0 (Background)
//Storyboard Layer 1 (Fail)
//Storyboard Layer 2 (Pass)
//Storyboard Layer 3 (Foreground)
//Storyboard Sound Samples

[TimingPoints]
315,789.473684210526,4,2,1,50,1,0
315,-133.333333333333,4,2,1,50,0,0
907,-133.333333333333,4,2,1,5,0,0
1104,-133.333333333333,4,2,1,50,0,0
1696,-133.333333333333,4,2,1,5,0,0
1893,789.473684210526,4,2,1,60,1,0
1893,-66.6666666666667,4,2,1,60,0,0
14525,-100,4,2,2,40,0,0
38209,-133.333333333333,4,2,1,50,0,0
38801,-133.333333333333,4,2,1,5,0,0
38999,-133.333333333333,4,2,1,50,0,0
39591,-133.333333333333,4,2,1,5,0,0
39788,-66.6666666666667,4,2,1,60,0,0
50841,-133.333333333333,4,2,1,50,0,0
51433,-133.333333333333,4,2,1,5,0,0
51630,-133.333333333333,4,2,1,50,0,0
52222,-133.333333333333,4,2,1,5,0,0
52420,-66.6666666666667,4,2,1,60,0,0
63472,-133.333333333333,4,2,1,50,0,0
64064,-133.333333333333,4,2,1,5,0,0
64262,-133.333333333333,4,2,1,50,0,0
64854,-133.333333333333,4,2,1,5,0,0
65051,-66.6666666666667,4,2,1,60,0,0
76104,-133.333333333333,4,2,1,50,0,0
76696,-133.333333333333,4,2,1,5,0,0
76893,-133.333333333333,4,2,1,50,0,0
77486,-133.333333333333,4,2,1,5,0,0
77683,-66.6666666666667,4,2,1,60,0,0

[Colours]
Combo1 : 255,255,0
Combo2 : 128,255,255
Combo3 : 18,124,255
Combo4 : 0,64,128

[HitObjects]
247,169,315,6,0,P|288:180|334:165,1,78.7500030040742,2|0,0:0|0:0,0:0:0:0:
370,104,1104,2,0,P|408:96|446:107,1,78.7500030040742,2|0,0:0|0:0,0:0:0:0:
399,285,1893,6,0,L|405:180,1,105.000004005432,6|0,0:0|0:0,0:0:0:0:
370,104,2486,1,0,0:0:0:0:
217,165,2683,2,0,L|322:171,1,105.000004005432,8|2,0:0|0:0,0:0:0:0:
338,29,3472,5,2,0:0:0:0:
217,165,3867,1,2,0:0:0:0:
275,338,4262,1,10,0:0:0:0:
338,29,4657,5,2,0:0:0:0:
277,97,4854,1,0,0:0:0:0:
217,165,5051,2,0,L|112:159,1,105.000004005432,4|0,0:0|0:0,0:0:0:0:
23,141,5643,1,0,0:0:0:0:
79,313,5841,2,0,L|184:319,1,105.000004005432,8|2,0:0|0:0,0:0:0:0:
217,165,6630,5,2,0:0:0:0:
23,141,7025,1,2,0:0:0:0:
100,321,7420,1,10,0:0:0:0:
159,244,7617,1,0,0:0:0:0:
122,155,7814,1,2,0:0:0:0:
60,230,8012,1,0,0:0:0:0:
258,258,8209,6,0,L|264:153,1,105.000004005432,4|0,0:0|0:0,0:0:0:0:
226,64,8801,1,0,0:0:0:0:
368,159,8999,2,0,L|263:153,1,105.000004005432,8|2,0:0|0:0,0:0:0:0:
405,248,9788,5,2,0:0:0:0:
405,248,10183,2,0,L|437:311,1,52.5000020027161
487,125,10578,1,10,0:0:0:0:
487,125,10971,2,0,L|455:188,1,52.5000020027161
405,2,11367,5,2,0:0:0:0:
287,136,11762,1,0,0:0:0:0:
154,108,12157,1,2,0:0:0:0:
85,183,12551,1,0,0:0:0:0:
9,165,12946,5,2,0:0:0:0:
85,183,13341,1,0,0:0:0:0:
161,201,13736,1,2,0:0:0:0:
237,219,14130,1,0,0:0:0:0:
259,293,14525,6,0,P|295:307|354:304,1,70,4|2,0:0|0:0,0:0:0:0:
446,231,15314,2,0,P|407:236|358:268,1,70,2|2,0:0|0:0,0:0:0:0:
420,384,16104,2,0,L|376:240,1,140,10|0,0:0|0:0,0:0:0:0:
485,128,17288,1,2,0:0:0:0:
309,127,17683,6,0,P|345:141|404:138,1,70,6|2,0:0|0:0,0:0:0:0:
254,51,18472,2,0,P|290:37|349:40,1,70,2|2,0:0|0:0,0:0:0:0:
216,137,19262,1,10,0:0:0:0:
123,148,19459,1,2,0:0:0:0:
30,159,19657,2,0,P|25:210|46:251,1,70,2|0,0:0|0:0,0:0:0:0:
66,72,20446,1,2,0:0:0:0:
66,314,20841,6,0,P|107:315|157:295,2,70,6|2|0,0:0|0:0|0:0,0:0:0:0:
112,121,22025,1,2,0:0:0:0:
123,214,22222,1,2,0:0:0:0:
134,307,22420,1,10,0:0:0:0:
199,158,22814,1,2,0:0:0:0:
47,270,23209,2,0,P|39:307|48:348,1,70,2|2,0:0|0:0,0:0:0:0:
112,121,23999,5,4,0:0:0:0:
210,251,24393,2,0,L|240:250,2,23.3333333333333,2|0|0,0:0|0:0|0:0,0:0:0:0:
125,247,24788,2,0,L|95:248,2,23.3333333333333,2|0|0,0:0|0:0|0:0,0:0:0:0:
168,323,25183,2,0,L|169:353,2,23.3333333333333,2|0|0,0:0|0:0|0:0,0:0:0:0:
247,323,25578,6,0,L|262:348,2,23.3333333333333,10|0|0,0:0|0:0|0:0,0:0:0:0:
315,283,25972,2,0,L|341:297,2,23.3333333333333,2|0|0,0:0|0:0|0:0,0:0:0:0:
353,214,26367,2,0,L|382:212,2,23.3333333333333,2|0|0,0:0|0:0|0:0,0:0:0:0:
351,135,26762,1,2,0:0:0:0:
491,276,27157,6,0,P|450:288|407:284,2,70,6|2|2,0:0|0:0|0:0,0:0:0:0:
445,101,28341,1,2,0:0:0:0:
434,194,28538,1,2,0:0:0:0:
423,287,28736,1,8,0:0:0:0:
273,175,29130,1,2,0:0:0:0:
359,138,29328,1,0,0:0:0:0:
445,101,29525,1,0,0:0:0:0:
348,231,29920,1,6,0:0:0:0:
284,82,30314,5,6,0:0:0:0:
198,42,30709,1,2,0:0:0:0:
133,111,31104,1,2,0:0:0:0:
178,194,31499,1,2,0:0:0:0:
198,42,31893,1,10,0:0:0:0:
133,111,32091,1,2,0:0:0:0:
68,180,32288,2,0,L|-11:172,1,70,2|0,0:0|0:0,0:0:0:0:
133,111,33078,1,2,0:0:0:0:
223,277,33472,6,0,L|313:268,2,70,6|2|0,0:0|0:0|0:0,0:0:0:0:
178,194,34657,1,2,0:0:0:0:
158,346,35051,1,10,0:0:0:0:
260,150,35446,1,2,0:0:0:0:
5,194,35841,1,2,0:0:0:0:
304,285,36236,1,2,0:0:0:0:
103,54,36630,5,4,0:0:0:0:
103,54,37025,1,0,0:0:0:0:
206,275,37420,1,0,0:0:0:0:
206,275,37815,1,0,0:0:0:0:
339,48,38209,6,0,P|380:29|430:40,1,78.7500030040742,2|0,0:0|0:0,0:0:0:0:
368,180,38999,2,0,P|370:141|391:109,1,78.7500030040742,2|0,0:0|0:0,0:0:0:0:
425,238,39788,6,0,P|380:262|319:243,1,105.000004005432,6|0,0:0|0:0,0:0:0:0:
287,181,40380,1,0,0:0:0:0:
209,321,40578,2,0,L|277:319,1,52.5000020027161,8|0,0:0|0:0,0:0:0:0:
204,182,40972,1,2,0:0:0:0:
163,254,41170,1,0,0:0:0:0:
122,326,41367,5,10,0:0:0:0:
122,326,41762,2,0,P|86:337|51:333,1,52.5000020027161,2|0,0:0|0:0,0:0:0:0:
24,236,42157,2,0,P|60:247|95:243,1,52.5000020027161,10|0,0:0|0:0,0:0:0:0:
122,146,42551,2,0,P|86:157|51:153,1,52.5000020027161,2|0,0:0|0:0,0:0:0:0:
19,65,42945,5,4,0:0:0:0:
342,156,43341,1,0,0:0:0:0:
206,156,43538,1,0,0:0:0:0:
71,156,43736,1,8,0:0:0:0:
391,248,44130,1,2,0:0:0:0:
391,248,44525,6,0,L|396:326,1,52.5000020027161,10|0,0:0|0:0,0:0:0:0:
498,163,44920,2,0,L|493:241,1,52.5000020027161,2|0,0:0|0:0,0:0:0:0:
391,224,45314,1,10,0:0:0:0:
394,329,45512,1,0,0:0:0:0:
498,139,45709,1,2,0:0:0:0:
495,244,45907,1,0,0:0:0:0:
386,67,46104,5,4,0:0:0:0:
160,289,46499,1,0,0:0:0:0:
327,266,46696,1,0,0:0:0:0:
495,244,46893,1,8,0:0:0:0:
220,89,47288,1,2,0:0:0:0:
220,89,47683,6,0,P|187:84|143:93,1,52.5000020027161,10|0,0:0|0:0,0:0:0:0:
48,188,48078,2,0,P|60:156|89:123,1,52.5000020027161,2|0,0:0|0:0,0:0:0:0:
263,83,48472,2,0,P|234:65|190:56,1,52.5000020027161,10|0,0:0|0:0,0:0:0:0:
21,222,48867,2,0,P|20:188|34:146,1,52.5000020027161,2|0,0:0|0:0,0:0:0:0:
302,90,49262,5,4,0:0:0:0:
54,309,49657,1,0,0:0:0:0:
273,243,49854,1,0,0:0:0:0:
492,177,50051,2,0,L|441:162,1,52.5000020027161,8|0,0:0|0:0,0:0:0:0:
288,57,50446,1,0,0:0:0:0:
272,243,50643,1,0,0:0:0:0:
474,351,50841,6,0,P|486:305|468:255,1,78.7500030040742,10|0,0:0|0:0,0:0:0:0:
476,117,51630,2,0,P|487:163|469:213,1,78.7500030040742,10|0,0:0|0:0,0:0:0:0:
304,237,52420,6,0,L|436:236,1,105.000004005432,6|0,0:0|0:0,0:0:0:0:
408,158,53012,1,0,0:0:0:0:
236,264,53209,2,0,P|230:230|242:194,1,52.5000020027161,8|0,0:0|0:0,0:0:0:0:
337,39,53604,1,2,0:0:0:0:
278,91,53801,1,0,0:0:0:0:
218,142,53999,6,0,L|165:136,1,52.5000020027161,10|0,0:0|0:0,0:0:0:0:
27,191,54393,2,0,L|102:183,1,52.5000020027161,2|0,0:0|0:0,0:0:0:0:
204,68,54788,2,0,L|129:60,1,52.5000020027161,10|0,0:0|0:0,0:0:0:0:
13,265,55183,2,0,L|88:257,1,52.5000020027161,2|0,0:0|0:0,0:0:0:0:
278,91,55578,5,4,0:0:0:0:
27,191,55972,1,0,0:0:0:0:
179,213,56170,1,0,0:0:0:0:
333,235,56367,2,0,L|341:293,1,52.5000020027161,8|0,0:0|0:0,0:0:0:0:
278,91,56762,1,0,0:0:0:0:
179,213,56959,1,0,0:0:0:0:
360,123,57157,6,0,P|362:73|325:18,2,105.000004005432,10|2|10,0:0|0:0|0:0,0:0:0:0:
278,91,58143,1,0,0:0:0:0:
337,208,58341,2,0,P|365:211|407:196,1,52.5000020027161,2|0,0:0|0:0,0:0:0:0:
447,141,58736,5,4,0:0:0:0:
206,340,59130,1,0,0:0:0:0:
227,175,59328,1,0,0:0:0:0:
248,10,59525,1,10,0:0:0:0:
228,2,59920,1,2,0:0:0:0:
207,167,60117,1,0,0:0:0:0:
186,332,60314,6,0,P|133:347|69:314,1,105.000004005432,10|0,0:0|0:0,0:0:0:0:
52,248,60907,1,0,0:0:0:0:
135,204,61104,2,0,P|142:240|137:275,1,52.5000020027161,10|0,0:0|0:0,0:0:0:0:
87,331,61499,2,0,P|51:338|16:333,1,52.5000020027161,2|0,0:0|0:0,0:0:0:0:
56,149,61893,5,4,0:0:0:0:
458,168,62288,1,2,0:0:0:0:
255,208,62486,1,0,0:0:0:0:
52,248,62683,1,10,0:0:0:0:
118,52,62880,1,0,0:0:0:0:
255,208,63078,1,2,0:0:0:0:
52,248,63275,1,0,0:0:0:0:
208,112,63472,6,0,P|247:101|294:109,1,78.7500030040742,10|0,0:0|0:0,0:0:0:0:
255,208,64262,2,0,P|293:212|331:201,1,78.7500030040742,10|0,0:0|0:0,0:0:0:0:
479,72,65051,6,0,P|428:77|389:112,1,105.000004005432,6|0,0:0|0:0,0:0:0:0:
467,165,65643,1,0,0:0:0:0:
331,201,65841,2,0,L|383:202,1,52.5000020027161,8|0,0:0|0:0,0:0:0:0:
458,256,66236,1,2,0:0:0:0:
373,293,66433,1,0,0:0:0:0:
288,330,66630,6,0,P|269:306|263:264,1,52.5000020027161,10|0,0:0|0:0,0:0:0:0:
150,316,67025,2,0,P|161:287|194:261,1,52.5000020027161,2|0,0:0|0:0,0:0:0:0:
93,189,67420,2,0,P|123:184|162:200,1,52.5000020027161,10|0,0:0|0:0,0:0:0:0:
174,76,67814,2,0,P|193:100|198:142,1,52.5000020027161,2|0,0:0|0:0,0:0:0:0:
144,189,68209,5,4,0:0:0:0:
304,25,68604,1,0,0:0:0:0:
174,76,68801,1,0,0:0:0:0:
44,127,68999,1,8,0:0:0:0:
274,138,69393,1,2,0:0:0:0:
274,138,69788,6,0,P|319:151|363:150,1,52.5000020027161,10|0,0:0|0:0,0:0:0:0:
482,178,70183,2,0,P|437:191|393:190,1,52.5000020027161,2|0,0:0|0:0,0:0:0:0:
249,220,70578,1,10,0:0:0:0:
347,251,70775,1,0,0:0:0:0:
431,191,70972,1,2,0:0:0:0:
421,88,71170,1,0,0:0:0:0:
347,251,71367,5,4,0:0:0:0:
308,36,71762,1,0,0:0:0:0:
256,191,71959,1,0,0:0:0:0:
205,347,72157,1,8,0:0:0:0:
166,132,72551,1,2,0:0:0:0:
160,240,72749,1,0,0:0:0:0:
18,189,72946,6,0,P|47:181|82:182,1,52.5000020027161,10|0,0:0|0:0,0:0:0:0:
160,240,73341,2,0,P|168:269|167:304,1,52.5000020027161,2|0,0:0|0:0,0:0:0:0:
217,140,73736,2,0,P|188:132|153:133,1,52.5000020027161,10|0,0:0|0:0,0:0:0:0:
69,180,74129,2,0,P|56:207|50:241,1,52.5000020027161,2|0,0:0|0:0,0:0:0:0:
74,72,74525,5,4,0:0:0:0:
398,53,74920,1,0,0:0:0:0:
240,183,75117,1,0,0:0:0:0:
85,316,75314,1,8,0:0:0:0:
82,53,75709,1,0,0:0:0:0:
240,183,75906,1,0,0:0:0:0:
395,316,76104,6,0,P|439:319|479:294,1,78.7500030040742,10|0,0:0|0:0,0:0:0:0:
340,255,76893,2,0,P|315:291|317:338,1,78.7500030040742,10|0,0:0|0:0,0:0:0:0:
347,172,77683,6,0,P|394:191|420:237,1,105.000004005432,6|0,0:0|0:0,0:0:0:0:
274,213,78275,1,0,0:0:0:0:
353,89,78472,2,0,L|416:90,1,52.5000020027161,8|0,0:0|0:0,0:0:0:0:
274,213,78867,1,2,0:0:0:0:
274,129,79064,1,0,0:0:0:0:
274,45,79262,6,0,P|242:41|213:48,1,52.5000020027161,10|0,0:0|0:0,0:0:0:0:
148,171,79657,2,0,P|180:175|209:168,1,52.5000020027161,2|0,0:0|0:0,0:0:0:0:
130,39,80051,2,0,P|105:35|79:39,1,52.5000020027161,10|0,0:0|0:0,0:0:0:0:
5,166,80446,2,0,P|37:170|66:163,1,52.5000020027161,2|0,0:0|0:0,0:0:0:0:
222,44,80841,5,4,0:0:0:0:
91,312,81236,1,0,0:0:0:0:
268,277,81433,1,0,0:0:0:0:
445,242,81630,2,0,L|450:307,1,52.5000020027161,8|0,0:0|0:0,0:0:0:0:
326,106,82025,1,0,0:0:0:0:
268,277,82222,1,0,0:0:0:0:
439,122,82420,6,0,P|432:69|388:9,2,105.000004005432,10|2|10,0:0|0:0|0:0,0:0:0:0:
326,106,83407,1,0,0:0:0:0:
445,242,83604,1,2,0:0:0:0:
439,122,83801,1,0,0:0:0:0:
333,285,83999,5,6,0:0:0:0:
56,104,84393,1,2,0:0:0:0:
255,152,84591,1,0,0:0:0:0:
454,200,84788,1,8,0:0:0:0:
465,226,85183,1,0,0:0:0:0:
266,178,85380,1,0,0:0:0:0:
67,130,85578,6,0,B|38:83|5:180|70:156|68:195|64:250,1,157.500006008148,10|0,0:0|0:0,0:0:0:0:
38,313,86367,6,0,B|70:326|100:310|100:310|103:350|124:378|175:380,1,157.500006008148,10|0,0:0|0:0,0:0:0:0:
165,314,87157,5,6,0:0:0:0:
