osu file format v14

[General]
AudioFilename: audio.mp3
AudioLeadIn: 0
PreviewTime: 38111
Countdown: 0
SampleSet: Soft
StackLeniency: 0.7
Mode: 0
LetterboxInBreaks: 0
WidescreenStoryboard: 0

[Editor]
DistanceSpacing: 1.7
BeatDivisor: 4
GridSize: 32
TimelineZoom: 1

[Metadata]
Title:Wa-cycle- (TV Size)
TitleUnicode:環-cycle- (TV Size)
Artist:Itoki Hana
ArtistUnicode:糸奇 はな
Creator:Kaitjuh
Version:Hard
Source:魔法使いの嫁
Tags:Mahoutsukai No Yome The Ancient Magus' Bride ending CrystilonZ
BeatmapID:1625985
BeatmapSetID:708535

[Difficulty]
HPDrainRate:5
CircleSize:4.4
OverallDifficulty:6
ApproachRate:7.5
SliderMultiplier:1.8
SliderTickRate:1

[Events]
//Background and Video events
0,0,"bg.jpg",0,0
//Break Periods
//Storyboard Layer 0 (Background)
//Storyboard Layer 1 (Fail)
//Storyboard Layer 2 (Pass)
//Storyboard Layer 3 (Foreground)
//Storyboard Sound Samples

[TimingPoints]
315,789.473684210526,4,2,1,50,1,0
315,-133.333333333333,4,2,1,50,0,0
907,-133.333333333333,4,2,1,5,0,0
1104,-133.333333333333,4,2,1,50,0,0
1696,-133.333333333333,4,2,1,5,0,0
1893,789.473684210526,4,2,1,60,1,0
1893,-100,4,2,1,60,0,0
14525,-100,4,2,2,40,0,0
38209,-133.333333333333,4,2,1,50,0,0
38801,-133.333333333333,4,2,1,5,0,0
38999,-133.333333333333,4,2,1,50,0,0
39591,-133.333333333333,4,2,1,5,0,0
39788,-100,4,2,1,60,0,0
50841,-133.333333333333,4,2,1,50,0,0
51433,-133.333333333333,4,2,1,5,0,0
51630,-133.333333333333,4,2,1,50,0,0
52222,-133.333333333333,4,2,1,5,0,0
52420,-100,4,2,1,60,0,0
63472,-133.333333333333,4,2,1,50,0,0
64064,-133.333333333333,4,2,1,5,0,0
64262,-133.333333333333,4,2,1,50,0,0
64854,-133.333333333333,4,2,1,5,0,0
65051,-100,4,2,1,60,0,0
76104,-133.333333333333,4,2,1,50,0,0
76696,-133.333333333333,4,2,1,5,0,0
76893,-133.333333333333,4,2,1,50,0,0
77486,-133.333333333333,4,2,1,5,0,0
77683,-100,4,2,1,60,0,0

[Colours]
Combo1 : 255,255,0
Combo2 : 128,255,255
Combo3 : 18,124,255
Combo4 : 0,64,128

[HitObjects]
85,71,315,6,0,P|75:116|91:168,1,101.250003862381,2|0,0:0|0:0,0:0:0:0:
120,184,1104,2,0,P|135:231|125:280,1,101.250003862381,2|0,0:0|0:0,0:0:0:0:
98,316,1893,6,0,L|194:324,1,90,6|0,0:0|0:0,0:0:0:0:
250,271,2486,1,0,0:0:0:0:
308,327,2683,2,0,L|352:325,1,45,8|0,0:0|0:0,0:0:0:0:
408,266,3078,1,2,0:0:0:0:
416,252,3472,5,2,0:0:0:0:
328,115,3867,1,2,0:0:0:0:
489,108,4262,1,10,0:0:0:0:
416,252,4657,2,0,L|354:257,1,45,2|0,0:0|0:0,0:0:0:0:
290,254,5051,6,0,P|283:302|252:336,1,90,4|0,0:0|0:0,0:0:0:0:
209,266,5643,1,0,0:0:0:0:
128,279,5841,2,0,P|135:231|153:207,1,45,8|0,0:0|0:0,0:0:0:0:
193,180,6236,1,2,0:0:0:0:
177,340,6630,5,2,0:0:0:0:
36,259,7025,1,2,0:0:0:0:
117,118,7420,1,10,0:0:0:0:
258,199,7814,2,0,L|314:199,1,45,2|0,0:0|0:0,0:0:0:0:
372,156,8209,6,0,P|383:194|366:252,1,90,4|0,0:0|0:0,0:0:0:0:
303,199,8801,1,0,0:0:0:0:
303,280,8999,2,0,L|298:343,1,45,8|0,0:0|0:0,0:0:0:0:
212,257,9393,2,0,L|217:320,1,45,2|0,0:0|0:0,0:0:0:0:
126,339,9788,5,2,0:0:0:0:
103,336,10578,5,10,0:0:0:0:
80,333,11367,6,0,L|-13:316,1,90,2|0,0:0|0:0,0:0:0:0:
127,227,12157,2,0,L|220:244,1,90,2|0,0:0|0:0,0:0:0:0:
56,209,12946,1,2,0:0:0:0:
56,209,13341,1,0,0:0:0:0:
63,47,13736,1,2,0:0:0:0:
63,47,14130,1,0,0:0:0:0:
205,123,14525,6,0,L|308:128,1,90,4|2,0:0|0:0,0:0:0:0:
412,80,15314,2,0,P|419:124|411:168,1,90,2|2,0:0|0:0,0:0:0:0:
320,255,16104,2,0,P|248:247|300:198,1,180,10|0,0:0|0:0,0:0:0:0:
410,259,17288,1,2,0:0:0:0:
326,353,17683,6,0,P|279:362|225:344,1,90,6|2,0:0|0:0,0:0:0:0:
204,230,18472,2,0,P|247:220|291:231,1,90,2|2,0:0|0:0,0:0:0:0:
169,308,19262,2,0,L|124:302,1,45,10|2,0:0|0:0,0:0:0:0:
96,296,19657,2,0,P|112:254|97:200,1,90,2|0,0:0|0:0,0:0:0:0:
21,114,20446,1,2,0:0:0:0:
170,67,20841,6,0,B|126:52|126:52|83:62,2,90,6|2|0,0:0|0:0|0:0,0:0:0:0:
268,147,22025,2,0,L|332:143,1,45,2|2,0:0|0:0,0:0:0:0:
358,152,22420,2,0,P|334:107|350:54,1,90,10|2,0:0|0:0,0:0:0:0:
463,47,23209,2,0,P|487:92|471:145,1,90,2|2,0:0|0:0,0:0:0:0:
394,16,23999,5,4,0:0:0:0:
411,97,24393,1,2,0:0:0:0:
389,203,24788,1,2,0:0:0:0:
282,270,25183,1,2,0:0:0:0:
139,248,25578,1,10,0:0:0:0:
104,89,25972,1,2,0:0:0:0:
272,25,26367,2,0,L|373:36,1,90,2|2,0:0|0:0,0:0:0:0:
480,101,27157,6,0,P|403:98|361:141,1,135,6|0,0:0|0:0,0:0:0:0:
355,179,27946,1,2,0:0:0:0:
445,266,28341,2,0,L|495:312,2,45,2|2|8,0:0|0:0|0:0,0:0:0:0:
355,179,29130,2,0,L|305:133,2,45,2|0|0,0:0|0:0|0:0,0:0:0:0:
445,266,29920,1,6,0:0:0:0:
323,301,30314,5,6,0:0:0:0:
244,257,30709,1,2,0:0:0:0:
170,309,31104,1,2,0:0:0:0:
95,258,31499,1,2,0:0:0:0:
174,143,31893,1,10,0:0:0:0:
106,158,32091,1,2,0:0:0:0:
38,173,32288,1,2,0:0:0:0:
74,37,32683,2,0,L|183:45,1,90,0|2,0:0|0:0,0:0:0:0:
288,99,33472,6,0,P|330:112|378:99,2,90,6|2|0,0:0|0:0|0:0,0:0:0:0:
332,20,34657,1,2,0:0:0:0:
453,53,35051,1,10,0:0:0:0:
458,215,35446,1,2,0:0:0:0:
294,326,35841,1,2,0:0:0:0:
92,205,36236,1,2,0:0:0:0:
148,92,36630,6,0,B|233:48|233:127|331:83,1,180,4|0,0:0|0:0,0:0:0:0:
382,20,37814,1,0,0:0:0:0:
466,187,38209,6,0,P|415:172|362:192,1,101.250003862381,2|0,0:0|0:0,0:0:0:0:
349,213,38998,2,0,P|301:227|253:212,1,101.250003862381,2|0,0:0|0:0,0:0:0:0:
220,182,39788,6,0,L|106:188,1,90,6|0,0:0|0:0,0:0:0:0:
53,191,40380,1,0,0:0:0:0:
87,122,40578,1,8,0:0:0:0:
97,274,40972,6,0,L|176:269,1,45,2|0,0:0|0:0,0:0:0:0:
262,262,41367,2,0,L|218:265,1,45,10|0,0:0|0:0,0:0:0:0:
21,281,41762,2,0,L|100:276,1,45,2|0,0:0|0:0,0:0:0:0:
306,259,42157,2,0,L|262:262,1,45,10|0,0:0|0:0,0:0:0:0:
141,271,42551,2,0,L|186:269,1,45,2|0,0:0|0:0,0:0:0:0:
383,253,42946,6,0,P|389:199|371:160,1,90,4|0,0:0|0:0,0:0:0:0:
311,124,43538,1,0,0:0:0:0:
316,48,43736,1,8,0:0:0:0:
242,158,44130,6,0,L|181:145,1,45,2|0,0:0|0:0,0:0:0:0:
78,121,44525,2,0,L|123:131,1,45,10|0,0:0|0:0,0:0:0:0:
317,176,44920,2,0,L|256:163,1,45,2|0,0:0|0:0,0:0:0:0:
197,148,45314,2,0,L|153:139,1,45,10|0,0:0|0:0,0:0:0:0:
77,120,45709,2,0,L|33:110,1,45,2|0,0:0|0:0,0:0:0:0:
96,199,46104,6,0,P|106:242|79:295,1,90,4|0,0:0|0:0,0:0:0:0:
18,310,46696,1,0,0:0:0:0:
30,235,46893,1,8,0:0:0:0:
149,331,47288,5,2,0:0:0:0:
220,303,47486,1,0,0:0:0:0:
292,276,47683,2,0,L|337:315,1,45,10|0,0:0|0:0,0:0:0:0:
433,314,48078,2,0,L|399:285,1,45,2|0,0:0|0:0,0:0:0:0:
249,290,48472,2,0,L|305:270,1,45,10|0,0:0|0:0,0:0:0:0:
398,284,48867,2,0,L|440:269,1,45,2|0,0:0|0:0,0:0:0:0:
349,227,49262,5,4,0:0:0:0:
442,85,49657,1,0,0:0:0:0:
375,121,49854,1,0,0:0:0:0:
308,157,50051,1,8,0:0:0:0:
379,18,50446,2,0,L|339:39,1,45,0|0,0:0|0:0,0:0:0:0:
267,81,50841,6,0,P|216:96|163:76,1,101.250003862381,10|0,0:0|0:0,0:0:0:0:
150,55,51630,2,0,P|102:41|54:56,1,101.250003862381,10|0,0:0|0:0,0:0:0:0:
24,90,52420,6,0,L|32:206,1,90,6|0,0:0|0:0,0:0:0:0:
41,256,53012,1,0,0:0:0:0:
101,209,53209,1,8,0:0:0:0:
196,358,53604,6,0,L|259:355,1,45,2|0,0:0|0:0,0:0:0:0:
362,350,53999,2,0,L|317:352,1,45,10|0,0:0|0:0,0:0:0:0:
151,361,54393,2,0,L|214:358,1,45,2|0,0:0|0:0,0:0:0:0:
437,345,54788,2,0,L|392:347,1,45,10|0,0:0|0:0,0:0:0:0:
272,356,55183,2,0,L|316:353,1,45,2|0,0:0|0:0,0:0:0:0:
512,336,55578,6,0,P|516:290|495:241,1,90,4|0,0:0|0:0,0:0:0:0:
435,209,56170,1,0,0:0:0:0:
449,86,56367,2,0,L|463:144,1,45,8|0,0:0|0:0,0:0:0:0:
363,68,56762,2,0,L|349:126,1,45,0|0,0:0|0:0,0:0:0:0:
245,41,57157,6,0,B|263:76|263:76|264:128,2,90,10|2|10,0:0|0:0|0:0,0:0:0:0:
189,93,58143,1,0,0:0:0:0:
123,52,58341,2,0,L|72:54,1,45,2|0,0:0|0:0,0:0:0:0:
101,135,58736,6,0,P|101:89|68:46,1,90,4|0,0:0|0:0,0:0:0:0:
26,110,59328,1,0,0:0:0:0:
40,189,59525,2,0,L|50:233,1,45,10|0,0:0|0:0,0:0:0:0:
81,352,59920,2,0,L|72:309,1,45,2|0,0:0|0:0,0:0:0:0:
110,157,60314,6,0,L|139:280,1,90,10|0,0:0|0:0,0:0:0:0:
153,319,60907,1,0,0:0:0:0:
203,262,61104,2,0,P|222:246|258:242,1,45,10|0,0:0|0:0,0:0:0:0:
317,248,61499,2,0,P|333:261|344:281,1,45,2|0,0:0|0:0,0:0:0:0:
267,313,61893,5,4,0:0:0:0:
363,177,62288,1,2,0:0:0:0:
286,173,62485,1,0,0:0:0:0:
209,169,62683,2,0,L|141:166,1,45,10|0,0:0|0:0,0:0:0:0:
363,177,63078,2,0,L|431:180,1,45,2|0,0:0|0:0,0:0:0:0:
164,167,63472,6,0,P|215:145|276:166,1,101.250003862381,10|0,0:0|0:0,0:0:0:0:
281,177,64262,2,0,P|330:185|374:164,1,101.250003862381,10|0,0:0|0:0,0:0:0:0:
405,131,65051,6,0,L|423:248,1,90,6|0,0:0|0:0,0:0:0:0:
435,294,65643,1,0,0:0:0:0:
491,241,65841,1,8,0:0:0:0:
361,275,66236,6,0,L|303:263,1,45,2|0,0:0|0:0,0:0:0:0:
196,238,66630,2,0,L|240:246,1,45,10|0,0:0|0:0,0:0:0:0:
435,294,67025,2,0,L|377:282,1,45,2|0,0:0|0:0,0:0:0:0:
151,229,67420,2,0,L|195:237,1,45,10|0,0:0|0:0,0:0:0:0:
316,266,67814,2,0,L|258:254,1,45,2|0,0:0|0:0,0:0:0:0:
106,220,68209,6,0,P|120:174|110:132,1,90,4|0,0:0|0:0,0:0:0:0:
97,58,68801,1,0,0:0:0:0:
37,107,68999,1,8,0:0:0:0:
170,20,69393,6,0,L|235:28,1,45,2|0,0:0|0:0,0:0:0:0:
334,41,69788,2,0,L|290:36,1,45,10|0,0:0|0:0,0:0:0:0:
125,14,70183,2,0,L|190:22,1,45,2|0,0:0|0:0,0:0:0:0:
244,29,70578,2,0,L|289:35,1,45,10|0,0:0|0:0,0:0:0:0:
363,44,70972,2,0,L|407:49,1,45,2|0,0:0|0:0,0:0:0:0:
481,58,71367,6,0,P|488:96|466:149,1,90,4|0,0:0|0:0,0:0:0:0:
402,179,71959,1,0,0:0:0:0:
399,255,72157,1,8,0:0:0:0:
337,138,72551,6,0,L|268:149,1,45,2|0,0:0|0:0,0:0:0:0:
172,169,72946,2,0,L|217:162,1,45,10|0,0:0|0:0,0:0:0:0:
381,145,73341,2,0,L|312:134,1,45,2|0,0:0|0:0,0:0:0:0:
127,161,73736,2,0,L|171:168,1,45,10|0,0:0|0:0,0:0:0:0:
291,144,74130,2,0,L|336:137,1,45,2|0,0:0|0:0,0:0:0:0:
376,209,74525,5,4,0:0:0:0:
354,59,74920,1,0,0:0:0:0:
425,84,75117,1,0,0:0:0:0:
496,109,75314,1,8,0:0:0:0:
459,2,75709,2,0,L|390:13,1,45,0|0,0:0|0:0,0:0:0:0:
354,59,76104,6,0,P|337:106|356:152,1,101.250003862381,10|0,0:0|0:0,0:0:0:0:
380,174,76893,2,0,P|398:219|381:266,1,101.250003862381,10|0,0:0|0:0,0:0:0:0:
343,291,77683,6,0,L|228:299,1,90,6|0,0:0|0:0,0:0:0:0:
176,303,78275,1,0,0:0:0:0:
210,234,78472,1,8,0:0:0:0:
96,154,78867,6,0,L|91:205,1,45,2|0,0:0|0:0,0:0:0:0:
77,319,79262,2,0,L|82:275,1,45,10|0,0:0|0:0,0:0:0:0:
100,109,79657,2,0,L|96:154,1,45,2|0,0:0|0:0,0:0:0:0:
73,364,80050,2,0,L|77:319,1,45,10|0,0:0|0:0,0:0:0:0:
92,198,80446,2,0,L|96:153,1,45,2|0,0:0|0:0,0:0:0:0:
56,46,80841,6,0,P|107:32|152:50,1,90,4|0,0:0|0:0,0:0:0:0:
179,108,81433,1,0,0:0:0:0:
300,111,81630,2,0,L|255:111,1,45,8|0,0:0|0:0,0:0:0:0:
130,192,82025,2,0,L|175:192,1,45,0|0,0:0|0:0,0:0:0:0:
299,281,82420,6,0,B|250:294|250:294|201:279,2,90,10|2|10,0:0|0:0|0:0,0:0:0:0:
351,225,83407,1,0,0:0:0:0:
375,297,83604,2,0,L|391:357,1,45,2|0,0:0|0:0,0:0:0:0:
434,209,83999,6,0,P|388:205|349:226,1,90,6|2,0:0|0:0,0:0:0:0:
299,281,84591,1,0,0:0:0:0:
375,297,84788,2,0,L|439:309,1,45,8|0,0:0|0:0,0:0:0:0:
299,281,85183,2,0,L|235:269,1,45,0|0,0:0|0:0,0:0:0:0:
136,283,85578,6,0,P|167:238|148:149,1,135,10|0,0:0|0:0,0:0:0:0:
93,118,86367,2,0,B|158:147|158:95|231:124,1,135,10|0,0:0|0:0,0:0:0:0:
283,170,87157,5,6,0:0:0:0:
