osu file format v14

[General]
AudioFilename: audio.mp3
AudioLeadIn: 0
PreviewTime: 37747
Countdown: 0
SampleSet: Normal
StackLeniency: 0.7
Mode: 1
LetterboxInBreaks: 0
WidescreenStoryboard: 0

[Editor]
DistanceSpacing: 0.8
BeatDivisor: 4
GridSize: 4
TimelineZoom: 1

[Metadata]
Title:Wa-cycle- (TV Size)
TitleUnicode:環-cycle- (TV Size)
Artist:Itoki Hana
ArtistUnicode:糸奇はな
Creator:Faputa
Version:Muzukashii
Source:魔法使いの嫁
Tags:Mahoutsukai no Yome The Ancient Magus' Bride Ending まほよめ mahoyome Poii
BeatmapID:1505260
BeatmapSetID:712015

[Difficulty]
HPDrainRate:6
CircleSize:2
OverallDifficulty:4
ApproachRate:5
SliderMultiplier:1.4
SliderTickRate:1

[Events]
//Background and Video events
0,0,"BG.png",0,0
//Break Periods
//Storyboard Layer 0 (Background)
//Storyboard Layer 1 (Fail)
//Storyboard Layer 2 (Pass)
//Storyboard Layer 3 (Foreground)
//Storyboard Sound Samples

[TimingPoints]
248,789.473684210526,4,1,0,60,1,8
248,-100,4,1,0,60,0,0
1037,-90.9090909090909,4,1,0,70,0,0
1826,789.473684210526,4,1,0,80,1,0
1826,-83.3333333333333,4,1,0,80,0,0
11299,-86.9565217391304,4,1,0,80,0,0
11694,-90.9090909090909,4,1,0,75,0,0
12089,-95.2380952380952,4,1,0,70,0,0
12483,-100,4,1,0,65,0,0
12878,-105.263157894737,4,1,0,60,0,0
13668,-114.942528735632,4,1,0,50,0,0
14457,-125,4,1,0,40,0,0
17220,-123.456790123457,4,1,0,40,0,0
20378,-121.951219512195,4,1,0,40,0,0
21957,-120.481927710843,4,1,0,40,0,0
24325,-119.047619047619,4,1,0,40,0,0
27089,-117.647058823529,4,1,0,45,0,0
27878,-116.279069767442,4,1,0,45,0,0
28273,-114.942528735632,4,1,0,45,0,0
29062,-113.636363636364,4,1,0,45,0,0
29852,-112.359550561798,4,1,0,45,0,0
30247,-111.111111111111,4,1,0,50,0,0
30641,-109.89010989011,4,1,0,50,0,0
31036,-108.695652173913,4,1,0,50,0,0
31431,-107.52688172043,4,1,0,50,0,0
31825,-106.382978723404,4,1,0,50,0,0
33404,-105.263157894737,4,1,0,55,0,0
33799,-104.166666666667,4,1,0,55,0,0
34589,-103.092783505155,4,1,0,55,0,0
34983,-102.040816326531,4,1,0,55,0,0
35773,-101.010101010101,4,1,0,55,0,0
36562,-100,4,1,0,60,0,0
38931,-99.009900990099,4,1,0,62,0,0
39128,-98.0392156862745,4,1,0,64,0,0
39325,-97.0873786407767,4,1,0,66,0,0
39720,-95.2380952380952,4,1,0,70,0,0
64194,-93.4579439252336,4,1,0,72,0,0
64391,-90.9090909090909,4,1,0,74,0,0
64589,-87.719298245614,4,1,0,78,0,0
64983,-80,4,1,0,85,0,1
65378,-76.9230769230769,4,1,0,85,0,1
85510,-83.3333333333333,4,1,0,80,0,1
86299,-91.743119266055,4,1,0,75,0,1
86694,-93.4579439252336,4,1,0,70,0,1
87089,-95.2380952380952,4,1,0,60,0,0
87483,-100,4,1,0,40,0,0
87878,-100,4,1,0,20,0,0
88273,-100,4,1,0,10,0,0

[HitObjects]
252,192,248,5,0,0:0:0:0:
252,192,1037,1,8,0:0:0:0:
256,192,1826,1,12,0:0:0:0:
256,192,2220,1,0,0:0:0:0:
256,192,2615,1,8,0:0:0:0:
256,192,3010,1,8,0:0:0:0:
256,192,3404,1,0,0:0:0:0:
256,192,4194,1,8,0:0:0:0:
256,192,4589,1,8,0:0:0:0:
256,192,5378,1,0,0:0:0:0:
256,192,5575,1,0,0:0:0:0:
256,192,5773,1,0,0:0:0:0:
256,192,6168,1,0,0:0:0:0:
256,192,6562,1,8,0:0:0:0:
256,192,7352,1,0,0:0:0:0:
256,192,7747,1,8,0:0:0:0:
256,192,8536,1,0,0:0:0:0:
256,192,8733,1,0,0:0:0:0:
256,192,8931,1,0,0:0:0:0:
256,192,9325,1,8,0:0:0:0:
256,192,9720,1,0,0:0:0:0:
256,200,10510,1,8,0:0:0:0:
256,200,11299,1,0,0:0:0:0:
256,200,11694,1,0,0:0:0:0:
256,200,12089,1,0,0:0:0:0:
256,200,12483,1,8,0:0:0:0:
256,200,12878,1,8,0:0:0:0:
256,200,13668,1,0,0:0:0:0:
256,200,14457,1,8,0:0:0:0:
256,200,14852,1,0,0:0:0:0:
256,200,15247,1,0,0:0:0:0:
256,200,15641,1,8,0:0:0:0:
256,200,16036,1,8,0:0:0:0:
256,192,17220,1,8,0:0:0:0:
256,192,17615,1,0,0:0:0:0:
256,192,18010,1,8,0:0:0:0:
256,192,18404,1,0,0:0:0:0:
256,192,18799,1,8,0:0:0:0:
256,192,19194,1,8,0:0:0:0:
256,192,19589,1,0,0:0:0:0:
256,192,20378,1,0,0:0:0:0:
256,192,20773,1,8,0:0:0:0:
256,192,21168,1,0,0:0:0:0:
256,192,21957,1,0,0:0:0:0:
256,192,22352,1,8,0:0:0:0:
256,192,22747,1,0,0:0:0:0:
256,192,23141,1,8,0:0:0:0:
256,192,23536,1,0,0:0:0:0:
256,192,24325,1,0,0:0:0:0:
256,192,24720,1,8,0:0:0:0:
256,192,25115,1,8,0:0:0:0:
256,192,25510,1,8,0:0:0:0:
256,192,26299,1,8,0:0:0:0:
256,192,27089,1,0,0:0:0:0:
256,192,27878,1,8,0:0:0:0:
256,192,28273,1,8,0:0:0:0:
256,192,28470,1,8,0:0:0:0:
256,192,28668,1,8,0:0:0:0:
256,192,29062,1,8,0:0:0:0:
256,192,29852,1,0,0:0:0:0:
256,192,30247,1,8,0:0:0:0:
256,192,30641,1,0,0:0:0:0:
256,192,31036,1,8,0:0:0:0:
64,124,31431,1,8,0:0:0:0:
256,192,31825,1,8,0:0:0:0:
256,192,32023,1,8,0:0:0:0:
256,192,32220,1,8,0:0:0:0:
256,192,33010,1,8,0:0:0:0:
256,192,33404,1,0,0:0:0:0:
256,192,33799,1,0,0:0:0:0:
256,192,34589,1,0,0:0:0:0:
256,192,34983,1,8,0:0:0:0:
256,192,35378,1,0,0:0:0:0:
256,192,35773,1,8,0:0:0:0:
256,192,36168,1,8,0:0:0:0:
256,192,36562,1,0,0:0:0:0:
256,192,37747,1,0,0:0:0:0:
256,192,38141,1,12,0:0:0:0:
256,192,38931,1,8,0:0:0:0:
256,192,39128,1,8,0:0:0:0:
256,192,39325,1,0,0:0:0:0:
256,192,39720,1,12,0:0:0:0:
256,192,40510,1,8,0:0:0:0:
256,192,40904,1,8,0:0:0:0:
256,192,41299,1,0,0:0:0:0:
256,192,41694,1,8,0:0:0:0:
256,192,42089,1,8,0:0:0:0:
256,192,42483,1,0,0:0:0:0:
256,192,43273,1,0,0:0:0:0:
256,192,43470,1,0,0:0:0:0:
256,192,43668,1,0,0:0:0:0:
256,192,44062,1,8,0:0:0:0:
256,192,44457,1,8,0:0:0:0:
256,192,44852,1,0,0:0:0:0:
256,192,45247,1,0,0:0:0:0:
256,192,45641,1,8,0:0:0:0:
256,192,46431,1,0,0:0:0:0:
256,192,46825,1,0,0:0:0:0:
256,192,47220,1,8,0:0:0:0:
256,192,47615,1,0,0:0:0:0:
256,192,48010,1,8,0:0:0:0:
256,192,48207,1,8,0:0:0:0:
256,200,48404,1,8,0:0:0:0:
256,192,48799,1,0,0:0:0:0:
256,200,49589,1,0,0:0:0:0:
256,200,49983,1,0,0:0:0:0:
256,200,50378,1,8,0:0:0:0:
256,200,50773,1,0,0:0:0:0:
264,192,51168,1,0,0:0:0:0:
264,192,51562,1,8,0:0:0:0:
264,192,51760,1,8,0:0:0:0:
264,192,51957,1,8,0:0:0:0:
256,192,52352,1,12,0:0:0:0:
256,192,53141,1,8,0:0:0:0:
256,192,53536,1,8,0:0:0:0:
256,192,53931,1,0,0:0:0:0:
256,192,54325,1,8,0:0:0:0:
256,192,54720,1,8,0:0:0:0:
256,192,54918,1,8,0:0:0:0:
256,192,55115,1,8,0:0:0:0:
260,196,55510,1,0,0:0:0:0:
256,192,56299,1,8,0:0:0:0:
256,192,56694,1,0,0:0:0:0:
256,192,57089,1,8,0:0:0:0:
256,192,57483,1,0,0:0:0:0:
256,192,57681,1,0,0:0:0:0:
256,192,57878,1,0,0:0:0:0:
256,192,58273,1,8,0:0:0:0:
256,192,58668,1,0,0:0:0:0:
256,192,59062,1,0,0:0:0:0:
256,192,59852,1,8,0:0:0:0:
256,192,60247,1,0,0:0:0:0:
256,200,61036,1,8,0:0:0:0:
256,192,61233,1,8,0:0:0:0:
256,192,61431,1,8,0:0:0:0:
256,200,61825,1,0,0:0:0:0:
256,200,63010,1,0,0:0:0:0:
256,200,63404,1,8,0:0:0:0:
264,192,64194,1,8,0:0:0:0:
264,192,64391,1,8,0:0:0:0:
264,192,64589,1,0,0:0:0:0:
264,192,64983,1,12,0:0:0:0:
264,192,65378,1,0,0:0:0:0:
264,192,65575,1,0,0:0:0:0:
264,192,65773,1,0,0:0:0:0:
264,192,66168,1,8,0:0:0:0:
264,192,66562,1,0,0:0:0:0:
264,192,66957,1,8,0:0:0:0:
264,192,67352,1,8,0:0:0:0:
76,176,67747,1,8,0:0:0:0:
264,192,68536,1,8,0:0:0:0:
264,192,68733,1,8,0:0:0:0:
264,192,68931,1,8,0:0:0:0:
264,192,69325,1,8,0:0:0:0:
264,192,69720,1,8,0:0:0:0:
264,192,70115,1,0,0:0:0:0:
264,192,70510,1,0,0:0:0:0:
264,192,70904,1,8,0:0:0:0:
268,196,71694,1,0,0:0:0:0:
264,196,71891,1,0,0:0:0:0:
264,196,72089,1,0,0:0:0:0:
268,196,72483,1,0,0:0:0:0:
264,196,72878,1,8,0:0:0:0:
268,196,73273,1,8,0:0:0:0:
268,196,73668,1,8,0:0:0:0:
268,196,74062,1,0,0:0:0:0:
264,196,74852,1,0,0:0:0:0:
268,196,75049,1,0,0:0:0:0:
268,196,75247,1,0,0:0:0:0:
264,196,75641,1,0,0:0:0:0:
268,196,76036,1,8,0:0:0:0:
268,200,76825,1,8,0:0:0:0:
268,196,77023,1,0,0:0:0:0:
268,196,77220,1,0,0:0:0:0:
268,196,77615,1,8,0:0:0:0:
272,200,78010,1,0,0:0:0:0:
272,200,78207,1,0,0:0:0:0:
272,200,78404,1,0,0:0:0:0:
272,200,78799,1,8,0:0:0:0:
272,200,79194,1,8,0:0:0:0:
272,200,79589,1,0,0:0:0:0:
272,200,79983,1,8,0:0:0:0:
272,200,80378,1,0,0:0:0:0:
272,200,81168,1,8,0:0:0:0:
272,200,81365,1,8,0:0:0:0:
272,200,81562,1,8,0:0:0:0:
272,200,81957,1,0,0:0:0:0:
272,200,82352,1,8,0:0:0:0:
272,200,82747,1,8,0:0:0:0:
272,200,83141,1,0,0:0:0:0:
272,200,83536,1,8,0:0:0:0:
272,200,83733,1,8,0:0:0:0:
272,200,83931,1,0,0:0:0:0:
272,200,84325,1,0,0:0:0:0:
272,200,85510,1,0,0:0:0:0:
272,200,86299,1,8,0:0:0:0:
272,200,86694,1,8,0:0:0:0:
256,192,87089,12,8,89062,0:0:0:0:
