osu file format v14

[General]
AudioFilename: audio.mp3
AudioLeadIn: 0
PreviewTime: 38209
Countdown: 0
SampleSet: Soft
StackLeniency: 0.5
Mode: 0
LetterboxInBreaks: 0
WidescreenStoryboard: 1

[Editor]
DistanceSpacing: 1.8
BeatDivisor: 8
GridSize: 4
TimelineZoom: 1

[Metadata]
Title:Wa -cycle-
TitleUnicode:Wa -cycle-
Artist:Itoki Hana
ArtistUnicode:Itoki Hana
Creator:Silent Rock
Version:Insane
Source:魔法使いの嫁
Tags:mahoutsukai no yome the ancient magus' bride ending
BeatmapID:1529243
BeatmapSetID:724199

[Difficulty]
HPDrainRate:6
CircleSize:5
OverallDifficulty:7
ApproachRate:9
SliderMultiplier:1.4
SliderTickRate:1

[Events]
//Background and Video events
0,0,"back ground.jpg",0,0
//Break Periods
//Storyboard Layer 0 (Background)
//Storyboard Layer 1 (Fail)
//Storyboard Layer 2 (Pass)
//Storyboard Layer 3 (Foreground)
//Storyboard Sound Samples

[TimingPoints]
315,394.736842105263,4,2,0,30,1,0
1893,-100,4,2,2,50,0,0
11367,-100,4,2,0,30,0,0
13637,-100,4,2,0,15,0,0
14521,-100,4,2,0,40,0,0
16104,-133.333333333333,4,2,0,40,0,0
16893,-100,4,2,0,40,0,0
24393,-100,4,2,0,20,0,0
26564,-100,4,2,0,30,0,0
26614,-100,4,2,0,25,0,0
26663,-100,4,2,0,20,0,0
26713,-100,4,2,0,15,0,0
26762,-100,4,2,0,10,0,0
27157,-100,4,2,0,40,0,0
36630,-200,4,2,0,40,0,0
37814,-100,4,2,0,40,0,0
38209,-133.333333333333,4,2,0,50,0,0
39788,-80,4,2,2,50,0,1
61893,-100,4,2,2,50,0,0
62880,-100,4,2,2,55,0,0
63078,-100,4,2,2,60,0,0
63275,-100,4,2,2,65,0,0
63472,-100,4,2,2,70,0,0
63867,-100,4,2,2,75,0,0
64064,-100,4,2,2,80,0,0
64262,-100,4,2,2,85,0,0
64459,-100,4,2,2,90,0,0
64657,-100,4,2,2,95,0,0
64854,-100,4,2,2,100,0,0
65051,-100,4,2,2,100,0,1
65446,-100,4,2,2,80,0,1
87058,-100,4,2,0,30,0,1
87157,-100,4,2,0,10,0,0

[HitObjects]
256,248,315,5,2,0:0:0:0:
272,284,1104,1,2,0:0:0:0:
288,312,1893,6,2,P|356:300|392:240,1,140
408,112,2486,1,2,0:0:0:0:
292,56,2683,1,10,0:0:0:0:
292,56,3078,1,2,0:0:0:0:
196,136,3275,1,2,0:0:0:0:
96,212,3472,1,2,0:0:0:0:
96,212,3867,1,2,0:0:0:0:
24,108,4064,1,2,0:0:0:0:
100,8,4262,2,2,P|184:0|224:32,1,140,10|2,0:0|0:0,0:0:0:0:
288,144,5051,6,2,P|228:184|164:176,1,140
76,72,5643,1,2,0:0:0:0:
192,24,5841,1,10,0:0:0:0:
96,256,6236,1,2,0:0:0:0:
192,340,6433,1,2,0:0:0:0:
316,316,6630,2,2,P|372:292|412:224,1,140
376,104,7222,1,2,0:0:0:0:
176,148,7420,1,10,0:0:0:0:
320,224,7617,1,2,0:0:0:0:
292,44,7814,1,10,0:0:0:0:
256,216,8012,1,10,0:0:0:0:
292,44,8209,1,2,0:0:0:0:
292,44,8604,5,2,0:0:0:0:
376,140,8801,1,2,0:0:0:0:
464,232,8999,1,10,0:0:0:0:
464,232,9393,1,2,0:0:0:0:
364,312,9591,1,2,0:0:0:0:
244,272,9788,2,2,P|176:244|112:256,1,140
0,364,10380,1,2,0:0:0:0:
168,344,10578,1,10,0:0:0:0:
64,212,10775,1,2,0:0:0:0:
52,200,10972,1,2,0:0:0:0:
220,32,11367,6,0,P|284:20|356:48,1,140,2|0,0:0|0:0,0:0:0:0:
448,224,12157,2,0,P|384:240|316:216,1,140
224,76,12847,2,2,P|232:72|244:72,2,17.5
304,212,13341,1,0,0:0:0:0:
224,328,13637,2,2,P|216:336|200:328,2,17.5
112,32,14525,6,0,P|56:76|52:144,1,140
120,252,15314,2,0,P|196:236|240:188,1,140
288,40,16104,2,0,P|372:48|432:152,1,210.000008010865,8|0,0:0|0:0,0:0:0:0:
340,316,17288,1,0,0:0:0:0:
340,316,17683,6,0,B|280:280|280:280|252:216,1,140
308,40,18472,2,0,P|364:60|408:128,1,140
360,264,19262,1,8,0:0:0:0:
284,304,19459,1,0,0:0:0:0:
208,340,19657,1,0,0:0:0:0:
360,264,20051,1,0,0:0:0:0:
240,148,20446,1,0,0:0:0:0:
76,116,20841,6,0,P|52:152|56:248,1,140
204,320,21630,2,0,B|272:304|272:304|320:240,1,140
364,180,22222,1,0,0:0:0:0:
412,112,22420,1,8,0:0:0:0:
260,44,22814,1,0,0:0:0:0:
108,120,23209,2,0,P|104:188|144:244,1,140
304,304,23999,5,0,0:0:0:0:
440,204,24393,2,0,L|484:224,2,35,2|0|0,0:0|0:0|0:0,0:0:0:0:
404,128,24788,2,0,L|448:128,2,35,2|0|0,0:0|0:0|0:0,0:0:0:0:
348,64,25183,2,0,L|384:52,2,35,2|0|0,0:0|0:0|0:0,0:0:0:0:
264,48,25578,2,0,L|292:20,2,35,10|0|0,0:0|0:0|0:0,0:0:0:0:
180,64,25972,2,0,L|192:28,2,35,2|0|0,0:0|0:0|0:0,0:0:0:0:
132,132,26367,2,2,L|164:160,4,35
328,276,27157,6,0,P|396:292|452:256,1,140
344,128,27946,2,0,P|268:144|232:196,1,140
260,272,28538,2,0,L|332:288,1,70,0|8,0:0|0:0,0:0:0:0:
456,176,29130,2,0,L|400:132,1,70
316,120,29525,2,0,P|272:136|172:112,1,140
60,232,30314,6,0,P|152:232|192:260,1,140
336,332,31104,2,0,B|380:280|380:280|380:204,1,140
300,60,31893,1,8,0:0:0:0:
196,200,32091,1,0,0:0:0:0:
88,336,32288,2,0,B|96:388|24:392|4:328|60:308,1,140
52,311,33078,1,0,0:0:0:0:
240,236,33472,6,0,P|276:200|268:112,1,140
128,48,34262,2,0,P|96:112|116:180,1,140
224,276,35051,1,8,0:0:0:0:
332,232,35446,1,0,0:0:0:0:
424,272,35841,1,0,0:0:0:0:
500,232,36236,1,0,0:0:0:0:
308,88,36630,6,0,B|352:180|252:216|300:288,1,210
448,152,38209,6,0,P|428:100|384:64,1,105,2|0,0:0|0:0,0:0:0:0:
120,67,38999,2,0,P|81:103|64:152,1,105,2|0,0:0|0:0,0:0:0:0:
180,320,39788,6,2,B|224:320|256:360|256:360|288:320|332:320,1,175
476,312,40380,1,2,0:0:0:0:
436,160,40578,1,10,0:0:0:0:
436,160,40972,1,2,0:0:0:0:
276,220,41170,1,2,0:0:0:0:
104,280,41367,1,2,0:0:0:0:
104,280,41762,1,2,0:0:0:0:
148,96,41959,1,2,0:0:0:0:
284,208,42157,1,10,0:0:0:0:
64,200,42354,1,2,0:0:0:0:
260,108,42551,1,2,0:0:0:0:
192,300,42749,1,2,0:0:0:0:
360,296,42946,6,2,P|424:244|432:156,1,175
344,40,43538,1,2,0:0:0:0:
224,80,43736,1,10,0:0:0:0:
224,80,44130,1,2,0:0:0:0:
296,220,44328,1,2,0:0:0:0:
372,356,44525,1,2,0:0:0:0:
372,356,44920,5,2,0:0:0:0:
396,200,45117,1,2,0:0:0:0:
232,288,45314,1,10,0:0:0:0:
396,200,45512,1,2,0:0:0:0:
348,344,45709,1,10,0:0:0:0:
284,164,45907,1,10,0:0:0:0:
272,140,46104,6,2,P|216:92|120:108,1,175,6|2,0:0|0:0,0:0:0:0:
76,260,46696,1,2,0:0:0:0:
196,360,46893,1,10,0:0:0:0:
196,360,47288,1,2,0:0:0:0:
248,212,47486,1,2,0:0:0:0:
300,64,47683,1,2,0:0:0:0:
300,64,48078,5,2,0:0:0:0:
148,112,48275,1,2,0:0:0:0:
240,240,48472,1,10,0:0:0:0:
84,252,48670,1,2,0:0:0:0:
148,112,48867,1,2,0:0:0:0:
84,252,49064,1,2,0:0:0:0:
248,256,49262,6,2,B|300:280|364:192|412:200,1,175
407,199,49854,1,2,0:0:0:0:
248,256,50051,1,10,0:0:0:0:
412,284,50249,5,10,0:0:0:0:
276,144,50446,1,10,0:0:0:0:
336,296,50643,5,10,0:0:0:0:
424,120,50841,2,2,P|400:56|304:8,1,175,6|2,0:0|0:0,0:0:0:0:
152,48,51433,5,2,0:0:0:0:
300,96,51630,1,10,0:0:0:0:
168,208,51828,1,10,0:0:0:0:
324,212,52025,1,2,0:0:0:0:
292,364,52222,1,10,0:0:0:0:
140,316,52420,6,2,P|92:264|96:164,1,175
196,44,53012,1,2,0:0:0:0:
316,144,53209,1,10,0:0:0:0:
316,144,53604,1,2,0:0:0:0:
168,200,53801,1,2,0:0:0:0:
20,260,53999,1,2,0:0:0:0:
20,260,54393,1,2,0:0:0:0:
76,112,54591,1,2,0:0:0:0:
176,232,54788,1,10,0:0:0:0:
8,172,54986,1,2,0:0:0:0:
160,96,55183,1,10,0:0:0:0:
116,276,55380,1,10,0:0:0:0:
264,364,55578,6,2,P|352:320|376:248,1,175,6|2,0:0|0:0,0:0:0:0:
264,132,56170,1,2,0:0:0:0:
216,264,56367,1,10,0:0:0:0:
360,232,56564,1,2,0:0:0:0:
264,132,56762,1,2,0:0:0:0:
216,264,56959,1,2,0:0:0:0:
360,232,57157,6,10,P|401:181|392:72,1,175,2|2,0:0|0:0,0:0:0:0:
240,48,57749,1,2,0:0:0:0:
328,172,57946,1,10,0:0:0:0:
192,144,58143,1,10,0:0:0:0:
336,244,58341,1,2,0:0:0:0:
200,264,58538,1,10,0:0:0:0:
368,324,58736,6,2,P|428:316|456:296,2,87.5
276,240,59328,2,2,P|236:232|184:248,1,87.5,2|10,0:0|0:0,0:0:0:0:
191,243,59920,1,2,0:0:0:0:
316,204,60117,1,2,0:0:0:0:
440,164,60314,1,2,0:0:0:0:
440,164,60709,1,2,0:0:0:0:
304,76,60907,1,2,0:0:0:0:
284,200,61104,1,10,0:0:0:0:
412,88,61301,1,2,0:0:0:0:
396,256,61499,1,2,0:0:0:0:
288,124,61696,1,2,0:0:0:0:
212,252,61893,6,2,P|264:288|344:284,1,140
444,204,62486,1,2,0:0:0:0:
356,64,62683,1,10,0:0:0:0:
308,228,62880,1,10,0:0:0:0:
464,116,63078,1,10,0:0:0:0:
264,88,63275,1,10,0:0:0:0:
376,232,63472,2,2,P|352:264|324:272,1,70,10|2,0:0|0:0,0:0:0:0:
128,232,63867,1,10,0:0:0:0:
276,76,64064,1,10,0:0:0:0:
304,284,64262,1,2,0:0:0:0:
140,128,64459,1,10,0:0:0:0:
368,140,64657,1,10,0:0:0:0:
168,264,64854,1,10,0:0:0:0:
160,40,65051,6,2,P|232:60|268:112,1,140,6|2,0:0|0:0,0:0:0:0:
268,264,65643,1,2,0:0:0:0:
116,280,65841,1,10,0:0:0:0:
116,280,66236,5,2,0:0:0:0:
276,168,66433,1,2,0:0:0:0:
436,56,66630,1,2,0:0:0:0:
436,56,67025,1,2,0:0:0:0:
448,228,67222,1,2,0:0:0:0:
288,80,67420,1,10,0:0:0:0:
480,152,67617,1,2,0:0:0:0:
280,184,67814,1,2,0:0:0:0:
384,288,68012,1,2,0:0:0:0:
456,96,68209,6,2,P|360:60|316:68,1,140
196,136,68801,1,2,0:0:0:0:
104,32,68999,1,10,0:0:0:0:
104,32,69393,1,2,0:0:0:0:
256,176,69591,1,2,0:0:0:0:
412,316,69788,1,2,0:0:0:0:
412,316,70183,1,2,0:0:0:0:
212,260,70380,1,2,0:0:0:0:
408,180,70578,1,10,0:0:0:0:
280,348,70775,1,2,0:0:0:0:
408,180,70972,1,10,0:0:0:0:
212,260,71170,1,10,0:0:0:0:
32,156,71367,6,0,P|72:96|136:72,1,140,6|0,0:0|0:0,0:0:0:0:
288,80,71959,1,2,0:0:0:0:
404,172,72157,1,10,0:0:0:0:
404,172,72551,1,2,0:0:0:0:
216,232,72749,1,2,0:0:0:0:
28,288,72946,1,2,0:0:0:0:
28,288,73341,1,2,0:0:0:0:
114,136,73538,1,2,0:0:0:0:
182,280,73736,1,10,0:0:0:0:
70,223,73933,1,2,0:0:0:0:
218,149,74130,1,2,0:0:0:0:
218,149,74525,6,2,P|279:180|303:249,1,140
85,307,75314,2,2,P|24:276|0:207,1,140,10|2,0:0|0:0,0:0:0:0:
253,268,76104,2,2,P|244:335|188:382,1,140
48,300,76696,1,2,0:0:0:0:
112,160,76893,1,10,0:0:0:0:
192,280,77091,1,10,0:0:0:0:
36,232,77288,1,10,0:0:0:0:
128,104,77486,1,2,0:0:0:0:
280,135,77683,6,2,P|347:156|412:136,1,140,6|2,0:0|0:0,0:0:0:0:
474,17,78275,1,2,0:0:0:0:
338,0,78472,1,10,0:0:0:0:
338,0,78867,5,2,0:0:0:0:
397,186,79064,1,2,0:0:0:0:
460,372,79262,1,2,0:0:0:0:
460,372,79657,1,2,0:0:0:0:
512,182,79854,1,2,0:0:0:0:
345,224,80051,1,10,0:0:0:0:
476,280,80249,1,2,0:0:0:0:
384,116,80446,1,10,0:0:0:0:
476,280,80643,1,10,0:0:0:0:
296,272,80841,6,2,B|230:260|276:187|202:169,1,140,6|2,0:0|0:0,0:0:0:0:
84,164,81433,1,2,0:0:0:0:
164,260,81630,1,10,0:0:0:0:
288,228,81828,1,2,0:0:0:0:
300,104,82025,1,2,0:0:0:0:
204,24,82222,1,2,0:0:0:0:
73,38,82420,6,2,P|25:90|20:167,1,140
113,278,83012,1,2,0:0:0:0:
271,163,83209,1,10,0:0:0:0:
82,107,83407,1,10,0:0:0:0:
271,163,83604,1,10,0:0:0:0:
82,214,83801,1,10,0:0:0:0:
168,37,83999,6,2,P|201:17|238:14,2,70
310,148,84591,2,2,P|353:142|378:123,1,70,2|10,0:0|0:0,0:0:0:0:
374,127,85183,1,2,0:0:0:0:
235,208,85380,1,2,0:0:0:0:
94,288,85578,1,2,0:0:0:0:
94,288,85972,1,2,0:0:0:0:
47,164,86170,1,2,0:0:0:0:
149,68,86367,2,2,P|201:105|200:178,1,140
30,318,87058,2,2,P|34:333|44:343,2,17.5
256,192,87354,12,0,89130,0:0:0:0:
