osu file format v14

[General]
AudioFilename: audio.mp3
AudioLeadIn: 0
PreviewTime: 38209
Countdown: 0
SampleSet: Soft
StackLeniency: 0.5
Mode: 0
LetterboxInBreaks: 0
WidescreenStoryboard: 0

[Editor]
DistanceSpacing: 1.2
BeatDivisor: 4
GridSize: 4
TimelineZoom: 1

[Metadata]
Title:Wa -cycle-
TitleUnicode:Wa -cycle-
Artist:Itoki Hana
ArtistUnicode:Itoki Hana
Creator:Silent Rock
Version:Hard
Source:魔法使いの嫁
Tags:mahoutsukai no yome the ancient magus' bride ending
BeatmapID:1529199
BeatmapSetID:724199

[Difficulty]
HPDrainRate:6
CircleSize:6
OverallDifficulty:6
ApproachRate:6
SliderMultiplier:1.4
SliderTickRate:1

[Events]
//Background and Video events
0,0,"back ground.jpg",0,0
//Break Periods
//Storyboard Layer 0 (Background)
//Storyboard Layer 1 (Fail)
//Storyboard Layer 2 (Pass)
//Storyboard Layer 3 (Foreground)
//Storyboard Sound Samples

[TimingPoints]
315,394.736842105263,4,2,2,20,1,0
1104,-100,4,2,2,30,0,0
1893,-133.333333333333,4,2,2,70,0,0
2683,-100,4,2,2,70,0,0
5051,-133.333333333333,4,2,2,70,0,0
5841,-100,4,2,2,70,0,0
8209,-133.333333333333,4,2,2,70,0,0
8999,-100,4,2,2,70,0,0
11367,-100,4,2,2,50,0,0
11762,-100,4,2,2,40,0,0
12157,-100,4,2,2,30,0,0
12551,-100,4,2,2,20,0,0
12946,-100,4,2,2,10,0,0
14130,-100,4,2,2,40,0,0
38604,-100,4,2,2,60,0,0
38999,-100,4,2,2,80,0,0
39788,-100,4,2,2,100,0,1
61893,-100,4,2,2,100,0,0
65051,-100,4,2,2,100,0,1
87157,-100,4,2,2,20,0,0

[HitObjects]
124,96,315,6,2,P|144:164|204:196,1,140,0|0,0:0|0:0,0:0:0:0:
312,108,1104,2,2,P|364:155|366:223,1,140,2|2,0:0|0:0,0:0:0:0:
284,340,1893,2,2,B|208:408|176:268|88:348,1,210.000008010865,2|10,0:0|0:0,0:0:0:0:
92,344,3078,1,2,0:0:0:0:
0,240,3472,6,2,P|32:180|100:164,1,140
216,240,4262,2,2,P|292:244|332:200,1,140,10|2,0:0|0:0,0:0:0:0:
344,76,5051,2,2,B|264:24|256:160|140:92,1,210.000008010865,2|10,0:0|0:0,0:0:0:0:
151,98,6236,1,2,0:0:0:0:
108,232,6630,6,2,P|140:296|208:308,1,140
320,228,7420,2,2,P|388:236|432:292,1,140,10|2,0:0|0:0,0:0:0:0:
332,384,8209,2,2,B|228:384|252:292|148:288,1,210.000008010865,2|10,0:0|0:0,0:0:0:0:
154,288,9393,1,2,0:0:0:0:
48,216,9788,5,2,0:0:0:0:
48,216,10183,1,2,0:0:0:0:
160,140,10578,1,10,0:0:0:0:
160,140,10972,1,2,0:0:0:0:
256,192,11367,12,2,12946,0:0:0:0:
372,124,14130,5,2,0:0:0:0:
372,124,14525,2,2,P|407:156|420:244,1,140
356,336,15314,2,2,P|320:303|308:216,1,140
344,108,16104,2,2,P|300:72|220:72,2,140
344,108,17288,1,2,0:0:0:0:
376,216,17683,6,2,P|288:200|260:148,1,140
240,52,18472,2,2,P|168:32|112:60,1,140
76,168,19262,1,2,0:0:0:0:
76,168,19459,1,2,0:0:0:0:
76,168,19657,2,2,P|120:204|140:288,1,140
248,320,20446,1,2,0:0:0:0:
292,216,20841,6,2,P|260:164|316:128,1,140
420,164,21630,1,2,0:0:0:0:
408,276,22025,1,2,0:0:0:0:
408,276,22222,1,2,0:0:0:0:
408,276,22420,2,2,P|352:304|280:280,1,140
228,184,23209,2,2,P|220:116|172:64,1,140
64,44,23999,5,2,0:0:0:0:
28,148,24393,1,2,0:0:0:0:
140,160,24788,1,2,0:0:0:0:
112,268,25183,1,2,0:0:0:0:
220,292,25578,2,2,P|292:288|344:244,1,140
352,136,26367,2,2,P|280:140|228:184,1,140
192,288,27157,6,2,P|240:336|312:352,1,140
392,280,27946,1,2,0:0:0:0:
320,196,28341,1,2,0:0:0:0:
320,196,28538,1,2,0:0:0:0:
320,196,28736,2,2,P|320:128|368:80,1,140
480,68,29525,1,2,0:0:0:0:
484,180,29920,1,2,0:0:0:0:
388,240,30314,6,2,P|316:236|276:180,1,140
264,72,31104,2,2,P|324:76|372:136,1,140
336,240,31893,2,2,P|336:276|356:304,2,70
336,240,32683,1,2,0:0:0:0:
252,168,33078,1,2,0:0:0:0:
164,236,33472,6,2,P|160:292|208:356,1,140
234,275,34262,2,2,P|302:266|348:216,1,140
259,196,35051,2,2,P|236:132|176:100,1,140
167,190,35841,2,2,P|111:229|96:296,1,140
256,192,36630,12,2,38209,0:0:0:0:
256,192,38604,5,2,0:0:0:0:
256,192,38999,1,2,0:0:0:0:
60,244,39788,6,2,P|104:288|180:288,1,140
236,248,40380,1,2,0:0:0:0:
296,212,40578,2,2,P|348:192|416:240,1,140,10|2,0:0|0:0,0:0:0:0:
404,304,41170,1,2,0:0:0:0:
352,352,41367,6,2,B|284:352|284:352|236:296,1,140
280,240,41959,1,2,0:0:0:0:
232,188,42157,1,10,0:0:0:0:
280,136,42354,1,2,0:0:0:0:
236,80,42551,2,2,B|292:36|292:36|360:36,1,140
456,132,43341,2,2,P|436:168|408:176,2,70,2|2|10,0:0|0:0|0:0,0:0:0:0:
356,36,44130,1,2,0:0:0:0:
224,84,44525,6,2,P|184:148|208:208,1,140
340,280,45314,2,2,P|368:220|332:156,1,140,10|2,0:0|0:0,0:0:0:0:
216,88,46104,6,2,B|132:52|148:136|76:104,1,140
32,64,46696,1,2,0:0:0:0:
72,4,46893,2,2,P|112:48|84:128,1,140,10|2,0:0|0:0,0:0:0:0:
44,172,47486,1,2,0:0:0:0:
20,240,47683,6,2,P|48:316|100:332,1,140
168,332,48275,1,2,0:0:0:0:
236,312,48472,1,10,0:0:0:0:
284,260,48670,1,2,0:0:0:0:
304,192,48867,2,2,B|320:136|228:128|272:56,1,140
396,12,49657,5,2,0:0:0:0:
460,36,49854,1,2,0:0:0:0:
488,100,50051,1,10,0:0:0:0:
372,180,50446,1,2,0:0:0:0:
368,248,50643,1,2,0:0:0:0:
404,308,50841,6,2,P|456:336|496:272,1,140
452,228,51433,1,2,0:0:0:0:
388,204,51630,1,10,0:0:0:0:
320,212,51828,1,10,0:0:0:0:
252,220,52025,1,10,0:0:0:0:
188,192,52222,1,2,0:0:0:0:
136,144,52420,6,2,P|88:96|32:128,1,140,6|2,0:0|0:0,0:0:0:0:
24,196,53012,1,2,0:0:0:0:
68,248,53209,2,2,P|120:268|196:216,1,140,10|2,0:0|0:0,0:0:0:0:
232,172,53801,1,2,0:0:0:0:
296,140,53999,6,2,P|356:140|392:212,1,140
372,272,54591,1,2,0:0:0:0:
312,308,54788,1,10,0:0:0:0:
248,280,54986,1,2,0:0:0:0:
224,216,55183,1,2,0:0:0:0:
248,152,55380,1,2,0:0:0:0:
288,96,55578,6,2,P|300:40|232:0,1,140
172,20,56170,1,2,0:0:0:0:
148,84,56367,2,2,P|164:152|228:192,1,140,10|2,0:0|0:0,0:0:0:0:
288,212,56959,1,2,0:0:0:0:
356,192,57157,6,2,P|420:188|460:248,1,140
444,312,57749,1,2,0:0:0:0:
376,324,57946,1,10,0:0:0:0:
344,260,58143,1,2,0:0:0:0:
392,208,58341,2,2,P|416:264|368:328,1,140
304,336,58933,5,2,0:0:0:0:
252,288,59130,2,2,P|192:240|128:236,2,140,2|10|2,0:0|0:0|0:0,0:0:0:0:
320,296,60117,1,2,0:0:0:0:
372,248,60314,2,2,P|376:176|332:124,1,140
272,96,60907,1,2,0:0:0:0:
296,32,61104,2,2,P|324:8|360:8,1,70,10|2,0:0|0:0,0:0:0:0:
420,32,61499,1,2,0:0:0:0:
460,88,61696,1,2,0:0:0:0:
444,156,61893,2,2,P|384:188|320:156,1,140
296,96,62486,1,2,0:0:0:0:
304,28,62683,1,10,0:0:0:0:
360,72,62880,1,2,0:0:0:0:
296,96,63078,1,2,0:0:0:0:
296,96,63472,6,2,P|224:68|176:104,1,140
144,236,64262,2,2,B|144:292|212:288|216:352,1,140
84,384,65051,6,2,P|12:348|8:288,1,140
48,220,65643,1,2,0:0:0:0:
128,196,65841,2,2,B|188:180|212:240|268:212,1,140,10|2,0:0|0:0,0:0:0:0:
332,168,66433,1,2,0:0:0:0:
320,84,66630,6,2,P|260:48|192:68,1,140
132,120,67222,1,2,0:0:0:0:
88,192,67420,1,10,0:0:0:0:
96,276,67617,1,2,0:0:0:0:
160,328,67814,1,2,0:0:0:0:
244,312,68012,1,2,0:0:0:0:
300,248,68209,6,2,P|300:184|232:160,1,140
152,168,68801,1,2,0:0:0:0:
76,132,68999,2,2,P|64:80|128:32,1,140,10|2,0:0|0:0,0:0:0:0:
208,56,69591,1,2,0:0:0:0:
240,132,69788,6,2,P|272:192|344:204,1,140
412,168,70380,1,2,0:0:0:0:
412,84,70578,1,10,0:0:0:0:
332,64,70775,1,2,0:0:0:0:
288,136,70972,1,2,0:0:0:0:
338,205,71170,1,2,0:0:0:0:
296,280,71367,6,2,P|252:312|180:276,1,140
156,196,71959,1,2,0:0:0:0:
216,136,72157,2,2,B|272:112|292:208|352:168,1,140,10|2,0:0|0:0,0:0:0:0:
408,124,72749,1,2,0:0:0:0:
372,48,72946,6,2,P|320:92|332:172,1,140
360,236,73538,1,2,0:0:0:0:
320,304,73736,1,10,0:0:0:0:
236,308,73933,1,2,0:0:0:0:
180,244,74130,1,2,0:0:0:0:
100,224,74328,1,2,0:0:0:0:
32,272,74525,6,2,P|100:316|152:296,1,140,6|2,0:0|0:0,0:0:0:0:
204,232,75117,1,2,0:0:0:0:
184,152,75314,1,10,0:0:0:0:
124,212,75512,1,10,0:0:0:0:
204,232,75709,1,10,0:0:0:0:
184,152,75907,1,2,0:0:0:0:
124,212,76104,6,2,P|152:296|196:316,1,140
344,236,76893,2,2,B|388:184|312:136|380:84,1,140,10|2,0:0|0:0,0:0:0:0:
508,20,77683,6,2,P|516:92|468:136,1,140
376,104,78275,1,2,0:0:0:0:
292,152,78472,2,2,P|276:204|316:280,1,140,10|2,0:0|0:0,0:0:0:0:
420,280,79064,1,2,0:0:0:0:
462,192,79262,6,2,P|442:132|370:104,1,140
288,148,79854,1,2,0:0:0:0:
272,244,80051,2,2,P|240:280|152:276,1,140,10|2,0:0|0:0,0:0:0:0:
100,196,80643,1,2,0:0:0:0:
132,104,80841,6,2,B|176:52|228:116|272:56,1,140
352,28,81433,1,2,0:0:0:0:
344,124,81630,1,10,0:0:0:0:
261,68,81828,1,2,0:0:0:0:
352,28,82025,1,2,0:0:0:0:
344,124,82222,1,2,0:0:0:0:
260,176,82420,6,2,B|192:172|216:104|156:92,1,140
60,80,83012,1,2,0:0:0:0:
12,164,83209,1,10,0:0:0:0:
76,240,83407,1,2,0:0:0:0:
172,212,83604,2,2,P|204:188|244:188,2,70
308,352,84393,5,2,0:0:0:0:
308,352,84591,1,2,0:0:0:0:
308,352,84788,1,10,0:0:0:0:
364,164,85183,5,2,0:0:0:0:
456,196,85380,1,2,0:0:0:0:
464,296,85578,2,2,P|420:336|344:316,1,140
184,208,86367,2,2,P|128:212|80:276,2,140,10|2|2,0:0|0:0|0:0,0:0:0:0:
256,192,87354,12,0,89130,0:0:0:0:
