osu file format v14

[General]
AudioFilename: audio.mp3
AudioLeadIn: 0
PreviewTime: 114226
Countdown: 0
SampleSet: Soft
StackLeniency: 0.7
Mode: 0
LetterboxInBreaks: 0
WidescreenStoryboard: 0

[Editor]
DistanceSpacing: 1
BeatDivisor: 8
GridSize: 4
TimelineZoom: 1

[Metadata]
Title:Wa -cycle-
TitleUnicode:環-cycle-
Artist:Itoki Hana
ArtistUnicode:糸奇 はな
Creator:Mirash
Version:Normal
Source:魔法使いの嫁
Tags:the ancient magus' bride mahoutsukai no yome ending ed
BeatmapID:1725332
BeatmapSetID:815119

[Difficulty]
HPDrainRate:5
CircleSize:3
OverallDifficulty:5
ApproachRate:5
SliderMultiplier:1
SliderTickRate:2

[Events]
//Background and Video events
0,0,"kowai.jpg",0,0
//Break Periods
2,138308,147582
//Storyboard Layer 0 (Background)
//Storyboard Layer 1 (Fail)
//Storyboard Layer 2 (Pass)
//Storyboard Layer 3 (Foreground)
//Storyboard Sound Samples

[TimingPoints]
-839,789.473684210526,4,2,0,50,1,0
2318,-50,4,2,0,40,0,0
24818,-50,4,2,0,30,0,0
26792,-62.5,4,2,0,40,0,0
27582,-62.5,4,2,0,20,0,0
51266,-62.5,4,2,0,40,0,0
52845,-50,4,1,0,45,0,0
76529,-50,4,1,0,50,0,0
89161,-62.5,4,2,0,30,0,0
89950,-62.5,4,2,0,20,0,0
90345,-62.5,4,2,0,10,0,0
90739,-62.5,4,2,0,20,0,0
114424,-62.5,4,2,0,40,0,0
116003,-50,4,1,0,45,0,0
149555,-62.5,4,2,0,20,0,0
157055,-62.5,4,2,0,23,0,0
158634,-62.5,4,2,0,26,0,0
160213,-62.5,4,2,0,30,0,0
161792,-62.5,4,2,0,40,0,0
162582,-62.5,4,2,0,43,0,0
162976,-62.5,4,2,0,45,0,0
163371,-50,4,1,0,50,0,0
199687,-50,4,1,0,47,0,0
200082,-50,4,1,0,46,0,0
200476,-50,4,1,0,43,0,0
200871,-50,4,1,0,40,0,0
201266,-62.5,4,2,0,10,0,0
207582,857.142857142857,4,2,0,10,1,0
207582,-62.5,4,2,0,10,0,0
208010,800,4,2,0,10,1,0
208410,888.888888888889,4,2,0,10,1,0
208854,975.609756097561,4,2,0,10,1,0
209341,1967.2131147541,4,2,0,10,1,0
209341,-50,4,2,0,10,0,0
210324,2264.15094339623,4,2,0,10,1,0
211463,3037.9746835443,4,2,0,10,1,0
217538,-50,4,2,0,5,0,0

[Colours]
Combo1 : 242,98,2
Combo2 : 148,205,177
Combo3 : 13,250,170
Combo4 : 160,44,82

[HitObjects]
13,192,740,5,2,0:0:0:0:
202,127,1529,1,0,0:0:0:0:
390,194,2318,6,0,P|395:241|393:303,1,100,4|0,0:1|0:0,0:0:0:0:
358,329,2911,1,0,0:0:0:0:
310,313,3108,1,0,1:0:0:0:
223,263,3503,1,0,0:0:0:0:
138,315,3897,2,0,P|112:290|98:222,1,100,2|0,0:0|0:0,0:0:0:0:
165,156,4687,2,2,P|172:124|172:85,2,50,0|0|2,1:0|0:0|0:1,0:0:0:0:
257,195,5476,6,0,P|308:195|349:245,1,100,2|0,1:0|0:0,0:0:0:0:
426,281,6266,2,2,P|429:239|437:179,1,100,0|2,1:0|0:1,0:0:0:0:
420,134,6858,1,0,0:0:0:0:
383,99,7055,2,0,P|346:92|277:92,1,100,2|0,0:0|0:0,0:0:0:0:
192,48,7845,1,2,1:0:0:0:
118,115,8239,5,2,1:0:0:0:
118,115,8437,1,2,0:0:0:0:
118,115,8634,2,0,P|124:183|122:229,1,100,0|0,1:0|0:0,0:0:0:0:
169,303,9424,1,0,1:0:0:0:
264,273,9818,1,0,0:0:0:0:
344,332,10213,2,0,P|384:334|447:347,2,100,2|0|0,0:0|0:0|1:0,0:0:0:0:
264,273,11397,1,0,0:0:0:0:
332,200,11792,6,0,P|332:157|333:82,1,100,2|0,1:0|0:0,0:0:0:0:
294,67,12384,1,0,0:0:0:0:
247,84,12582,2,0,P|207:79|142:83,1,100,0|0,1:0|1:0,0:0:0:0:
63,138,13371,2,0,P|30:157|16:162,2,50,2|0|0,0:0|0:0|1:0,0:0:0:0:
134,207,14161,2,0,P|174:212|239:208,1,100,0|4,1:0|0:0,0:0:0:0:
314,150,14950,6,0,P|347:182|365:250,1,100,6|0,0:1|0:0,0:0:0:0:
337,273,15542,1,0,0:0:0:0:
330,322,15739,1,0,1:0:0:0:
425,351,16134,1,0,0:0:0:0:
507,294,16529,2,0,P|495:248|501:181,1,100,2|0,0:0|0:0,0:0:0:0:
465,157,17121,1,0,0:0:0:0:
419,136,17318,2,0,P|422:102|420:69,2,50,0|0|0,1:0|0:0|0:1,0:0:0:0:
318,143,18108,6,0,P|286:102|230:90,1,100,0|0,1:0|0:0,0:0:0:0:
194,71,18700,1,0,0:0:0:0:
151,96,18897,2,2,P|114:100|89:98,2,50,2|0|2,1:0|0:0|0:1,0:0:0:0:
215,173,19687,2,0,P|207:220|204:279,1,100,2|0,0:0|0:0,0:0:0:0:
294,314,20476,2,0,P|302:267|305:208,1,100,0|0,1:0|1:0,0:0:0:0:
342,181,21068,1,2,0:0:0:0:
390,192,21266,5,0,1:0:0:0:
472,135,21661,2,0,P|460:99|457:78,1,50,0|0,0:0|0:0,0:0:0:0:
421,53,22055,2,0,P|376:57|317:54,1,100,0|0,1:0|1:0,0:0:0:0:
229,14,22845,2,0,P|176:23|140:63,1,100,2|0,0:0|0:0,0:0:0:0:
69,121,23634,1,0,1:0:0:0:
69,121,23832,1,0,0:0:0:0:
69,121,24029,2,0,L|71:180,2,50,0|0|0,1:0|0:0|1:0,0:0:0:0:
304,242,26003,5,2,0:0:0:0:
256,89,26792,1,0,1:0:0:0:
109,144,27582,6,0,P|114:183|116:229,1,80,4|2,0:1|0:0,0:0:0:0:
86,297,28371,1,0,0:0:0:0:
155,336,28766,2,0,L|242:329,1,80,8|2,0:3|0:3,0:0:0:0:
295,277,29555,1,8,0:3:0:0:
369,307,29950,1,4,0:3:0:0:
261,188,30739,6,0,P|267:143|269:92,1,80,4|2,1:2|0:0,0:0:0:0:
219,44,31529,2,0,P|179:46|139:51,1,80,0|8,0:0|0:3,0:0:0:0:
69,90,32318,2,0,P|67:113|64:132,2,40,2|0|0,0:0|0:0|0:0,0:0:0:0:
13,32,33108,1,4,0:3:0:0:
11,191,33897,6,0,P|13:227|12:278,2,80,4|2|0,1:3|0:0|0:0,0:0:0:0:
88,169,35082,1,8,0:3:0:0:
148,221,35476,2,0,P|194:215|234:208,1,80,2|8,0:3|0:3,0:0:0:0:
285,154,36266,1,0,0:0:0:0:
359,183,36661,1,0,0:0:0:0:
437,166,37055,5,4,1:3:0:0:
437,166,38634,2,0,P|403:167|357:176,1,80,2|0,0:0|0:0,0:0:0:0:
293,223,39424,1,8,0:3:0:0:
156,139,40213,6,0,P|108:143|54:195,1,120,4|0,1:3|0:0,0:0:0:0:
63,229,41003,1,2,0:0:0:0:
58,308,41397,1,8,0:3:0:0:
123,353,41792,2,0,L|211:343,2,80,2|0|2,0:3|0:0|0:0,0:0:0:0:
133,273,42976,1,0,0:0:0:0:
210,254,43371,6,0,P|211:215|222:162,1,80,4|0,1:3|0:0,0:0:0:0:
290,139,44161,2,0,P|289:100|278:47,1,80,2|8,0:0|0:3,0:0:0:0:
347,14,44950,1,4,0:3:0:0:
347,14,45147,1,0,0:0:0:0:
347,14,45345,2,0,L|431:20,1,80,0|2,0:0|0:0,0:0:0:0:
493,165,46529,6,0,P|488:197|486:247,1,80,4|0,0:3|0:0,0:0:0:0:
444,312,47318,1,2,0:0:0:0:
366,290,47713,1,8,0:3:0:0:
306,343,48108,2,0,P|262:343|221:334,2,80,2|2|2,0:3|0:1|1:0,0:0:0:0:
366,290,49292,1,8,0:3:0:0:
295,252,49687,6,0,P|293:220|313:11,1,240,4|8,1:3|0:3,0:0:0:0:
232,15,51266,1,2,0:0:0:0:
93,94,52055,1,2,0:3:0:0:
172,233,52845,6,0,P|216:228|293:231,1,100,4|2,0:0|0:2,0:0:0:0:
313,256,53437,1,0,0:0:0:0:
357,234,53634,1,8,0:0:0:0:
379,136,54029,1,0,0:0:0:0:
280,118,54424,2,0,P|283:69|281:13,2,100,6|0|8,0:2|0:0|0:0,0:0:0:0:
232,135,55411,1,0,0:0:0:0:
186,115,55608,1,0,0:0:0:0:
92,151,56003,6,0,P|69:206|62:254,1,100,4|2,0:0|0:2,0:0:0:0:
94,284,56595,1,0,0:0:0:0:
142,294,56792,1,8,0:0:0:0:
233,253,57187,1,0,0:0:0:0:
305,322,57582,2,0,L|416:338,2,100,6|0|8,0:2|0:0|0:0,0:0:0:0:
300,272,58568,1,0,0:0:0:0:
315,224,58766,1,0,0:0:0:0:
385,152,59161,6,0,P|385:112|389:39,1,100,4|2,0:0|0:2,0:0:0:0:
287,47,59950,2,0,P|289:96|289:146,1,100,10|0,0:0|0:0,0:0:0:0:
265,190,60542,1,0,0:0:0:0:
220,212,60739,2,0,P|171:204|112:199,1,100,6|0,0:2|0:0,0:0:0:0:
92,103,61529,2,0,P|141:107|191:115,1,100,8|0,0:0|0:0,0:0:0:0:
236,94,62121,1,8,0:2:0:0:
251,46,62318,5,4,0:0:0:0:
351,45,62713,2,0,P|356:79|361:98,1,50,0|4,0:0|0:2,0:0:0:0:
398,126,63108,2,0,P|433:119|502:113,1,100,10|0,0:0|0:0,0:0:0:0:
510,212,63897,2,0,P|507:244|507:266,2,50,6|0|0,0:2|0:0|0:0,0:0:0:0:
410,221,64687,2,0,P|379:218|310:224,1,100,8|0,0:0|0:0,0:0:0:0:
275,259,65279,1,8,0:2:0:0:
228,277,65476,6,0,P|195:271|151:211,1,100,4|2,0:0|0:2,0:0:0:0:
69,167,66266,1,8,0:0:0:0:
120,81,66661,2,0,P|148:56|215:44,2,100,0|6|0,0:0|0:2|0:0,0:0:0:0:
70,167,67845,2,0,P|62:206|65:273,1,100,8|0,0:0|0:0,0:0:0:0:
92,307,68437,1,0,0:0:0:0:
140,296,68634,6,0,P|177:291|248:290,1,100,4|2,0:0|0:2,0:0:0:0:
313,357,69424,1,8,0:0:0:0:
383,286,69818,1,4,0:2:0:0:
481,303,70213,2,0,P|489:259|490:194,1,100,6|2,0:2|0:2,0:0:0:0:
447,179,70805,1,0,0:0:0:0:
396,182,71003,2,0,P|388:138|387:73,1,100,10|0,0:0|0:0,0:0:0:0:
295,39,71792,6,0,L|179:51,1,100,4|2,0:0|0:2,0:0:0:0:
146,38,72384,1,0,0:0:0:0:
103,64,72582,2,0,P|100:96|109:178,1,100,10|8,0:0|0:2,0:0:0:0:
98,263,73371,2,0,P|91:320|81:371,2,100,6|0|8,0:2|0:0|0:0,0:0:0:0:
185,213,74555,1,8,0:2:0:0:
284,225,74950,6,0,P|334:232|405:227,1,100,4|2,0:0|0:2,0:0:0:0:
427,206,75542,1,0,0:0:0:0:
423,156,75739,2,0,P|415:126|403:48,1,100,0|0,0:0|0:0,0:0:0:0:
305,39,76529,1,6,0:0:0:0:
225,99,76924,1,0,0:0:0:0:
133,59,77318,1,6,0:0:0:0:
46,108,77713,1,0,0:0:0:0:
124,170,78108,6,0,P|166:173|227:301,1,200,6|8,0:0|0:0,0:0:0:0:
133,331,79292,1,2,0:0:0:0:
33,339,79687,2,2,P|34:285|34:230,1,100,6|8,0:0|0:2,0:0:0:0:
71,206,80279,1,2,0:0:0:0:
118,220,80476,1,10,0:0:0:0:
215,242,80871,1,2,0:0:0:0:
308,207,81266,6,0,P|341:204|406:68,1,200,4|10,0:0|0:0,0:0:0:0:
314,34,82450,1,2,0:0:0:0:
228,85,82845,2,0,P|171:84|121:79,1,100,6|2,0:0|0:0,0:0:0:0:
51,143,83634,1,10,0:0:0:0:
115,219,84029,5,2,0:0:0:0:
115,219,84226,1,8,0:2:0:0:
115,219,84424,2,0,P|152:222|230:221,1,100,6|8,0:0|0:2,0:0:0:0:
287,291,85213,2,0,P|324:288|402:289,1,100,8|2,0:0|0:0,0:0:0:0:
425,255,85805,1,0,0:0:0:0:
409,207,86003,2,0,P|400:151|398:2,1,200,6|10,0:0|0:0,0:0:0:0:
301,35,87187,1,8,0:2:0:0:
201,24,87582,5,6,0:0:0:0:
111,68,87976,2,0,P|71:66|6:47,2,100,8|8|8,0:2|0:0|0:2,0:0:0:0:
195,122,89161,1,2,0:0:0:0:
255,269,89950,1,0,1:0:0:0:
317,122,90739,6,0,P|349:130|409:137,1,80,4|2,0:1|0:0,0:0:0:0:
470,107,91529,1,0,0:0:0:0:
498,181,91924,2,0,P|495:223|496:269,2,80,8|2|8,0:3|0:3|0:3,0:0:0:0:
470,107,93108,1,4,0:3:0:0:
390,101,93503,1,0,0:0:0:0:
323,144,93897,6,0,P|285:140|241:127,1,80,4|2,1:2|0:0,0:0:0:0:
190,69,94687,2,0,P|146:72|103:84,1,80,0|8,0:0|0:3,0:0:0:0:
56,138,95476,2,0,P|60:164|62:192,2,40,2|0|0,0:3|0:0|0:0,0:0:0:0:
111,80,96266,1,4,0:3:0:0:
235,180,97055,6,0,P|230:223|229:264,1,80,4|2,1:3|0:0,0:0:0:0:
277,323,97845,1,0,0:0:0:0:
356,316,98239,1,8,0:3:0:0:
431,288,98634,2,0,P|441:327|440:377,2,80,2|8|0,0:3|0:3|0:0,0:0:0:0:
371,234,99818,1,0,0:0:0:0:
365,154,100213,6,0,P|369:118|377:68,2,80,4|2|2,1:3|0:1|0:1,0:0:0:0:
290,183,101397,1,8,0:3:0:0:
210,177,101792,2,0,P|190:142|182:90,1,80,2|2,0:3|0:1,0:0:0:0:
229,38,102582,1,8,0:3:0:0:
86,111,103371,6,0,P|82:154|85:205,1,80,4|0,1:3|0:0,0:0:0:0:
133,253,104161,1,2,0:0:0:0:
212,248,104555,1,8,0:3:0:0:
275,198,104950,2,0,P|308:193|361:190,2,80,2|0|2,0:3|0:0|0:0,0:0:0:0:
212,248,106134,1,0,0:0:0:0:
170,179,106529,6,0,P|171:123|169:70,1,80,4|0,1:3|0:0,0:0:0:0:
228,43,107318,1,2,0:0:0:0:
297,83,107713,1,8,0:3:0:0:
373,58,108108,2,0,P|397:56|426:55,2,40,2|0|0,0:3|0:0|0:0,0:0:0:0:
297,83,108897,1,2,0:0:0:0:
312,161,109292,1,0,0:0:0:0:
296,239,109687,6,0,P|292:296|291:324,1,80,4|0,0:3|0:0,0:0:0:0:
134,350,110871,1,8,0:3:0:0:
75,295,111266,2,0,P|80:247|79:196,2,80,2|2|2,0:3|0:1|1:0,0:0:0:0:
134,350,112450,1,8,0:3:0:0:
211,330,112845,5,4,1:3:0:0:
256,176,113634,1,2,0:3:0:0:
390,263,114424,2,0,P|328:258|140:262,1,240,2|0,0:0|3:0,0:0:0:0:
56,225,116003,6,0,P|63:167|61:103,1,100,4|2,0:0|0:2,0:0:0:0:
95,87,116595,1,0,0:0:0:0:
144,96,116792,1,8,0:0:0:0:
230,146,117187,1,0,0:0:0:0:
308,84,117582,2,0,P|364:84|422:88,1,100,6|0,0:2|0:0,0:0:0:0:
457,173,118371,2,0,P|401:173|343:177,1,100,8|0,0:0|0:0,0:0:0:0:
322,212,118963,1,0,0:0:0:0:
333,260,119161,5,4,0:0:0:0:
262,330,119555,1,2,0:3:0:0:
191,258,119950,1,8,0:0:0:0:
263,188,120345,1,0,0:0:0:0:
204,106,120739,2,0,P|193:68|198:-20,2,100,6|0|8,0:2|0:0|0:0,0:0:0:0:
250,124,121726,1,0,0:0:0:0:
294,100,121924,1,0,0:0:0:0:
392,117,122318,6,0,P|436:162|461:209,1,100,4|2,0:0|0:2,0:0:0:0:
417,227,122911,1,0,0:0:0:0:
415,276,123108,1,10,0:0:0:0:
339,342,123503,1,0,0:0:0:0:
257,284,123897,2,0,P|203:284|147:290,1,100,6|0,0:2|0:0,0:0:0:0:
123,193,124687,2,0,P|177:193|233:187,1,100,8|0,0:0|0:0,0:0:0:0:
289,114,125476,5,4,0:0:0:0:
383,145,125871,1,0,0:0:0:0:
383,145,126068,1,4,0:2:0:0:
383,145,126266,2,0,P|386:90|379:35,1,100,10|0,0:0|0:0,0:0:0:0:
284,19,127055,2,0,L|172:29,1,100,6|0,0:2|0:0,0:0:0:0:
135,18,127647,1,8,0:2:0:0:
91,43,127845,1,8,0:0:0:0:
62,138,128239,5,0,0:0:0:0:
62,138,128437,1,8,0:2:0:0:
62,138,128634,2,0,P|61:202|66:278,1,100,4|2,0:0|0:2,0:0:0:0:
124,316,129424,2,0,P|181:312|260:313,1,100,8|0,0:0|0:0,0:0:0:0:
263,280,130016,1,0,0:0:0:0:
310,293,130213,1,6,0:2:0:0:
386,227,130608,1,0,0:0:0:0:
334,141,131003,2,0,P|279:169|247:203,2,100,8|0|4,0:0|0:0|0:0,0:0:0:0:
427,175,132187,5,2,0:2:0:0:
499,244,132582,2,0,P|499:303|503:349,1,100,8|4,0:0|0:2,0:0:0:0:
404,362,133371,1,6,0:2:0:0:
312,321,133766,1,2,0:2:0:0:
218,355,134161,2,0,P|153:359|105:357,2,100,10|0|4,0:0|0:0|0:0,0:0:0:0:
264,266,135345,5,2,0:2:0:0:
264,266,135542,1,0,0:0:0:0:
264,266,135739,2,0,P|261:208|271:122,1,100,10|8,0:0|0:2,0:0:0:0:
191,97,136529,2,0,P|135:106|77:235,1,200,6|0,0:2|0:0,0:0:0:0:
95,321,137713,1,8,0:2:0:0:
194,328,138108,1,4,0:0:0:0:
497,191,149555,5,2,0:0:0:0:
418,174,149950,2,0,P|417:229|420:263,1,80,2|0,0:0|0:0,0:0:0:0:
347,289,150739,6,0,P|291:282|220:106,1,240,0|2,1:0|0:0,0:0:0:0:
155,76,152318,2,0,P|205:45|385:78,1,240,0|2,1:0|0:0,0:0:0:0:
448,37,153897,6,0,P|482:201|261:279,1,440,0|0,1:0|0:0,0:0:0:0:
184,292,156463,2,0,P|177:243|188:186,1,80,2|2,0:0|0:0,0:0:0:0:
207,183,157055,6,0,P|203:134|104:89,1,160,0|8,1:0|0:0,0:0:0:0:
36,108,158239,1,2,0:0:0:0:
23,187,158634,2,0,P|44:275|51:358,1,160,2|8,1:2|0:0,0:0:0:0:
130,341,159818,1,2,0:0:0:0:
209,352,160213,6,0,B|346:357|281:251|434:263,1,240,0|2,1:0|0:0,0:0:0:0:
494,289,161792,1,2,1:2:0:0:
474,130,162582,1,0,3:0:0:0:
395,145,162976,5,0,3:0:0:0:
395,145,163174,1,2,3:0:0:0:
395,145,163371,2,0,L|273:155,1,100,4|2,0:0|0:2,0:0:0:0:
202,115,164161,1,8,0:0:0:0:
132,186,164555,1,0,0:0:0:0:
132,186,164753,1,8,0:2:0:0:
132,186,164950,2,0,L|143:299,2,100,6|0|8,0:2|0:0|0:0,0:0:0:0:
72,105,166134,1,8,0:2:0:0:
154,47,166529,6,0,P|216:42|271:52,1,100,4|2,0:0|0:3,0:0:0:0:
291,79,167121,1,0,0:0:0:0:
339,68,167318,1,8,0:0:0:0:
409,138,167713,1,0,0:0:0:0:
360,225,168108,2,0,P|350:300|345:353,2,100,6|0|8,0:2|0:0|0:0,0:0:0:0:
262,202,169292,1,0,0:0:0:0:
216,290,169687,6,0,P|167:299|103:293,1,100,4|2,0:0|0:2,0:0:0:0:
71,275,170279,1,0,0:0:0:0:
51,229,170476,1,10,0:0:0:0:
113,150,170871,1,0,0:0:0:0:
83,54,171266,2,0,P|46:94|23:154,2,100,6|0|8,0:2|0:0|0:0,0:0:0:0:
176,90,172450,1,2,0:0:0:0:
265,45,172845,6,0,L|381:53,1,100,4|0,0:0|0:0,0:0:0:0:
411,140,173634,2,0,L|295:148,1,100,10|0,0:0|0:0,0:0:0:0:
278,185,174226,1,0,0:0:0:0:
279,235,174424,1,6,0:2:0:0:
335,317,174818,1,0,0:0:0:0:
242,354,175213,1,8,0:0:0:0:
167,287,175608,1,0,0:0:0:0:
70,311,176003,6,0,P|74:251|67:203,1,100,4|2,0:0|0:2,0:0:0:0:
24,188,176595,1,0,0:0:0:0:
21,138,176792,1,8,0:0:0:0:
106,86,177187,1,0,0:0:0:0:
190,139,177582,2,0,P|200:79|201:27,1,100,6|0,0:2|0:0,0:0:0:0:
296,7,178371,2,0,P|356:17|408:18,1,100,8|0,0:0|0:0,0:0:0:0:
417,63,178963,1,8,0:2:0:0:
464,77,179161,6,0,P|478:144|477:205,1,100,4|2,0:0|0:3,0:0:0:0:
399,235,179950,1,8,0:0:0:0:
444,323,180345,1,4,0:2:0:0:
444,323,180542,1,0,0:0:0:0:
444,323,180739,2,0,P|376:325|331:323,1,100,6|2,0:2|0:2,0:0:0:0:
250,288,181529,1,10,0:0:0:0:
158,328,181924,5,0,0:0:0:0:
158,328,182121,1,8,0:2:0:0:
158,328,182318,2,0,P|155:270|161:202,1,100,4|2,0:0|0:2,0:0:0:0:
232,161,183108,1,10,0:0:0:0:
158,93,183503,1,8,0:2:0:0:
81,156,183897,2,0,P|37:198|31:251,2,100,6|0|8,0:2|0:0|0:0,0:0:0:0:
158,93,185082,1,8,0:2:0:0:
257,93,185476,6,0,L|359:88,1,100,6|2,1:0|0:2,0:0:0:0:
376,134,186068,1,8,0:2:0:0:
400,177,186266,2,0,L|502:172,2,100,10|8|6,0:0|0:2|0:0,0:0:0:0:
352,265,187450,1,0,0:0:0:0:
267,210,187845,2,0,P|218:211|158:219,1,100,6|0,0:0|0:0,0:0:0:0:
130,250,188437,1,6,0:2:0:0:
80,241,188634,5,6,0:0:0:0:
21,160,189029,2,0,P|31:111|38:45,1,100,8|8,0:2|0:0,0:0:0:0:
134,37,189818,1,2,0:0:0:0:
196,115,190213,2,0,P|251:102|309:99,2,100,6|8|10,0:0|0:2|0:0,0:0:0:0:
138,196,191397,1,2,0:0:0:0:
216,257,191792,6,0,B|318:249|289:176|403:172,1,200,6|10,0:0|0:0,0:0:0:0:
483,212,192976,1,2,0:0:0:0:
503,114,193371,2,2,P|500:64|489:15,1,100,6|0,0:0|0:0,0:0:0:0:
391,37,194161,2,0,P|326:45|272:44,1,100,10|2,0:0|0:0,0:0:0:0:
241,51,194753,1,8,0:2:0:0:
202,19,194950,5,6,0:0:0:0:
112,64,195345,2,0,P|97:119|104:174,1,100,8|8,0:2|0:0,0:0:0:0:
61,253,196134,1,2,0:0:0:0:
135,319,196529,1,6,0:0:0:0:
217,262,196924,1,4,0:2:0:0:
192,165,197318,1,10,0:0:0:0:
226,75,197713,5,8,0:2:0:0:
226,75,197911,1,4,0:2:0:0:
226,75,198108,2,2,P|284:83|456:84,1,200,6|8,0:0|0:0,0:0:0:0:
485,165,199292,1,10,0:2:0:0:
393,206,199687,2,0,P|396:260|406:309,1,100,0|0,0:0|3:0,0:0:0:0:
306,321,200476,2,0,P|310:358|308:383,2,50,0|0|0,3:0|3:0|3:0,3:0:0:0:
238,277,201266,6,0,P|231:233|232:31,1,240,2|2,0:0|0:0,0:0:0:0:
153,16,202845,2,0,P|110:22|67:22,2,80,2|0|2,0:0|0:0|0:0,0:0:0:0:
231,38,204029,1,2,0:0:0:0:
309,21,204424,6,0,P|343:76|344:178,1,160
417,205,205608,1,2,0:0:0:0:
413,284,206003,2,0,P|449:341|482:369,2,80,2|0|0,0:0|0:0|0:0,0:0:0:0:
338,254,207187,1,0,0:0:0:0:
279,308,207582,6,0,P|231:285|207:248,1,80,2|2,0:0|0:0,0:0:0:0:
237,180,208410,1,2,0:0:0:0:
202,99,208854,1,2,0:0:0:0:
202,99,209341,2,0,P|148:102|94:126,1,100,2|0,0:0|0:0,0:0:0:0:
4,194,211463,5,2,0:0:0:0:
256,192,211842,12,0,217538,0:0:0:0:
